This file was generated by Ched 2.6.1.0.
#TITLE ""
#ARTIST ""
#DESIGNER ""
#DIFFICULTY 0
#PLAYLEVEL
#SONGID ""
#WAVE ""
#WAVEOFFSET 0
#JACKET ""
#REQUEST "ticks_per_beat 480"
#00002: 4
#BPM01: 145
#00008: 01
#TIL00: ""
#HISPEED 00
#MEASUREHS 00
#00819:120000120000131313000000
#00815:12120000
#00814:000000000000131313000000
#00812:00000013
#0081b:00000013
#00915:00000013000000130000000013000000
#0091b:0000131300001300
#00918:00130000000000000013000000000000
#00912:2300000000130000
#00910:41
#01715:0013000013000000
#01712:13000013
#01718:00000000000000130000000000001300
#0171b:0000130000130000
#01710:41
#01812:13000013
#01818:00000000130000130000000000001300
#01815:00000013000000001300000000000000
#0181b:0000000000130000
#0191b:00130013
#01912:0013
#01918:0013000000000013
#02112:13000000130000000013000000001300
#02116:0013000000000000
#02117:13130000
#0211b:0013001300130000
#02115:00000000000000130000001300000000
#02118:00000000000000001300000013000013
#02215:13001300000000130000000000000000
#0221b:00000013000000000000130000001300
#02212:00130013
#02218:0000001300000000
#02216:0000000000130013
#02217:00000013
#02518:13
#0251f:11
#02516:00130000
#02515:0013
#0251b:0013
#02517:00000013
#02514:0000000000000013
#02512:23
#02712:0013130000001300
#02718:0000131300001313
#02715:0000000013130000
#0271b:0013
#02812:0000230000130000
#02815:2300000023000013
#02818:00230013
#0281b:2323
#03218:00001313
#03215:0000000000130000
#03212:23
#0321b:23
#03418:1313000000000000
#0341b:0000131313000000
#03415:0000131300000000
#03412:1300000000000013
#03410:0041
#03517:0013
#03516:00000013
#0351b:0013000000000000
#03514:0000000000000013
#03518:00130000
#03515:0000001300000000
#03512:0013
#0371b:1300001300000000
#03712:0000000013000013
#03718:00000013000000001300000013000000
#03715:00000000130000000000001300000000
#0401b:13130013
#04012:0013000000001300
#04018:00000000000013000013001300000000
#04015:1300130013130000
#02012:13130000
#02018:00130000
#0201b:13
#02015:00000013
#03617:1313
#03612:13
#03616:00130013
#06014:13
#06019:13
#03916:0013000000000000
#03912:0000130000001313
#0391b:0013
#02412:0000001300130000
#0241b:0000001300001300
#02415:0000000000000013
#02418:0013
#0001a:00000012
#00014:0000000000000012
#0011a:1200120000000012
#00114:0012000000001200
#00119:0012
#00115:00000000000000120000000000000000
#00112:0000000000120000
#0021c:1200000000120000
#00219:00120000
#0021a:00000000000000120000000000000000
#00215:0012
#00218:00000012
#00214:00000012000000000000000000001200
#00312:0012000000000000
#00319:00120000
#00313:0000001200000000
#0031a:0012
#00314:0000000000120000
#0031b:00000012
#00315:0000000000000012
#0041c:12
#00416:0012000000000000
#00512:1212120000000000
#0051c:1212120000000000
#0051a:0000001212121200
#00514:00000000000000120012001200000000
#00515:0000000000000012
#00519:00000000000000000000000000000012
#00615:1200000000121212
#0061b:0012000000000000
#0061a:00120000
#00616:00000000001200000000000000000000
#00614:00000000000000120000000000000000
#00618:0000001200000000
#00613:0012000000000000
#00619:0000000000121212
#00715:12
#00719:12
#04915:0013000023000000
#0491b:0013000023000000
#04918:2300000000130000
#04912:2300000000130000
#04910:41
#05018:1313000000000000
#05015:0000131300001300
#05012:1313
#0501b:00130000
#05017:0013
#05019:0000000000000013
#05717:13
#05712:2300001300000000
#05716:0013
#0571b:0000000023000013
#05715:00000013000000000000000000000000
#05718:00000000000000000000001300000000
#05612:0000130000000013
#05619:13
#0561b:00131300
#05618:0000001300131300
#05615:00000000000000000000001300000000
#05616:13
#05614:0013001300000000
#05912:0013001300000013
#05919:00130000
#0591b:0013001300000013
#05914:00130000
#0121b:1300001300001300
#01218:00000013000000000013000000000000
#01318:00130013000000000000000013000000
#01312:23130013
#01315:0000001300130000
#0131b:00000000000000130013000000000000
#01415:13000013
#01414:00000013000000000000000000000000
#01413:0000001300000000
#01412:00000000000000000013000000000000
#0261b:13
#02616:1313
#02617:00130000
#02612:0000130000130000
#02618:00000013
#02312:1313
#02317:1313
#0231b:00130013
#02316:00130013
#02310:41
#0381b:1300001300001300
#03815:13130000
#03818:00000013000000001300000000000000
#03812:0013
#04215:1313000000000000
#04212:0000131313000000
#04218:0000131300000000
#0421b:1300000000000013
#04316:0013
#04317:00000013
#04312:0013000000000000
#04319:0000000000000013
#04315:00130000
#0431b:0000001300000000
#04416:1313
#0441b:13
#04417:00130013
#04812:13000000130000000013000013000000
#0481b:0013000013001300
#04815:00000000000013000000001300000000
#04818:1300130000130000
#04717:0013000000000000
#04719:00130013
#04714:0013
#0471b:0000000000000013
#0511b:00130013
#05117:1313
#05119:0013001300130013
#05112:13131300
#05115:0000001300000000
#05114:0000000000001313
#05214:13
#05212:00131300
#05215:0000001300130000
#0521b:0000130000000013
#05217:13
#05219:0013001300000000
#05218:00000013
#05318:0013000023000000
#05312:0013000023000000
#05315:2300000000130000
#0531b:2300000000130000
#05415:1313000000000000
#05418:0000131300001300
#0541b:1313
#05412:00130000
#05416:0013
#05414:0000000000000013
#05812:1313
#05815:0013000000130000
#05818:0000130000130000
#0581b:0000001313000000
#05512:00130013
#05516:1313
#05514:0013001300130013
#0551b:13131300
#05518:0000001300000000
#05519:0000000000001313
#05510:41
#04512:1300001300000000
#04518:00000000130000000000001300000000
#04515:00000013000000001300000013000000
#0451b:0000000013000013
#04612:1300001300001300
#04618:13130000
#04615:00000013000000001300000000000000
#04615:0013
#0461b:0013
#0311b:0013130000001300
#03115:0000131300001313
#03118:0000000013130000
#03112:0013
#02912:13001313
#0291b:13131300
#02919:0000000000000013
#01012:1300001300001300
#01015:00000013000000000013000000000000
#01115:1300000000130000
#01112:00000013000000130000000013000000
#01118:0000131300001300
#0111b:00130000000000000013000000000000
#01518:13130013
#01512:00130013000000000000000013000000
#0151b:0000001300130000
#01515:00000000000000130013000000000000
#01618:13000013
#01619:00000013000000000000000000000000
#0161a:0000001300000000
#0161b:00000000000000000013000000000000
#03012:13
#03017:1313
#03016:00130000
#0301b:0000130000130000
#03015:00000013
#03312:2323
#03318:2323
#0331f:21
#0411b:2323
#04115:2323
#03355:00130013
#0335b:00130013
#03352:5353
#03358:5353
#0095b:00000013
#02058:00530000
#02052:00530000
#02558:53
#02555:0063
#03455:0000006300000000
#0345b:0063
#03657:5353
#0365b:00130013
#03652:1313
#03656:00530053
#03557:0053
#01852:00000013
#01858:0000000000000013
#00852:00000033
#0085b:00000043
#00755:62
#00759:52
#04952:6300330000230000
#04958:6300330000230000
#04955:0023000053004300
#0495b:0023000053004300
#05057:0063
#0505b:00000013
#05757:63
#05756:0053
#01358:00000013
#01455:00000013
#0285b:4343
#02855:0033
#02852:00330000
#0265b:53
#02657:00530000
#02652:0000000000130000
#02658:00000013
#02352:6363
#02357:6363
#0235b:00530053
#02356:00530053
#03752:13
#03758:0013
#04356:0063
#04258:0000005300000000
#04252:0053
#04456:6363
#0445b:1313
#04457:00630063
#04452:00130013
#0415b:6363
#04155:6363
#04158:00130013
#04152:00130013
#0455b:13
#04555:0013
#05157:2323
#0515b:00230023
#05159:0053005300530053
#05358:0023000063003300
#05352:0023000063003300
#05355:5300430000230000
#0535b:5300430000230000
#05456:0053
#05452:00000013
#05852:00006333
#0585b:00006343
#05855:0000000000230000
#05858:0000000000230000
#0525b:00230000
#05257:23
#05259:0053005300000000
#05552:00230023
#05556:2323
#05554:0063006300630063
#05652:00230000
#05656:23
#05654:0063006300000000
#03855:13
#03852:0053
#03856:00000013
#04658:13
#0465b:0063
#04657:00000013
#02952:63
#0295b:0053
#01052:00000013
#01158:00000013
#01255:00000013
#01558:00000013
#03052:63
#03056:00630000
#0305b:0000000000130000
#03055:00000013
#01658:00000013
#02252:00130000
#02255:00000000000000130000000000000000
#004380:00000012000000002200000000000000
#007350:12
#007330:0022
#007391:12
#0073b1:0022
#010381:00130023000000000000000000000000
#0103b1:0000132300000000
#010381:00000000000000130023000000000000
#0103b1:0000000000132300
#012321:00130023000000000000000000000000
#012351:0000132300000000
#012321:00000000000000130023000000000000
#012351:0000000000132300
#0143b1:00130023000000000000000000000000
#0143a1:0000132300000000
#014391:00000000000000130023000000000000
#014381:0000000000132300
#016321:00130023000000000000000000000000
#016331:0000132300000000
#016341:00000000000000130023000000000000
#016351:0000000000132300
#019351:0013332300000000
#019380:0000001333230000
#019351:0000000000133323
#020321:00000013530000000000000000000000
#020351:0023
#020380:00130000
#0203b0:00005323
#023320:1333
#023360:00330033
#024320:23
#023371:1333
#0233b1:00330033
#024371:23
#025381:13
#0253b1:00230000
#025351:0013
#025321:00000023
#0263b1:1323
#026371:00330000
#029321:13
#029361:00230000
#0293b1:0013
#029371:00000023
#030321:1323
#030361:00330000
#033321:13
#033351:0053230000000000
#033380:13
#0333b0:0053230000000000
#033320:0013
#033350:0000000000532300
#033381:0013
#0333b1:0000000000532300
#034351:0000001300000000
#034321:0000000000532300
#0343b0:0013
#034380:0000000000003323
#035370:0013
#0353b0:00000023
#036370:13
#0363b0:00000053230000000000000000000000
#036361:00130000
#036321:00000000000000532300000000000000
#036370:0013
#0363b0:00000000000000000000005323000000
#036361:00000013
#036321:00000000000000000000000000000053
#037321:23
#038321:0013
#038361:00000023
#0393b1:0013000000000000
#039371:0000002300000000
#039320:0000001300000000
#039360:0000000000230000
#0393b1:0000000000130000
#039371:0000000000000023
#0413b1:13
#041381:0053230000000000
#041350:13
#041320:0053230000000000
#0413b0:0013
#041380:0000000000532300
#041351:0013
#041321:0000000000532300
#042381:0000001300000000
#0423b1:0000000000532300
#042320:0013
#042350:0000000000003323
#043360:0013
#043320:00000023
#044360:13
#044320:00000053230000000000000000000000
#044371:00130000
#0443b1:00000000000000532300000000000000
#044360:0013
#044320:00000000000000000000005323000000
#044371:00000013
#0443b1:0000000000000000000000000000000000000000000000000000000000530000
#0453b1:23
#0463b1:0013
#046371:00000023
#047321:0013000000000000
#047361:0000002300000000
#0473b0:0000001300000000
#047370:0000000000230000
#047321:0000000000130000
#047361:0000000000000023
#049321:13230000
#049351:0053000000000000
#049380:13230000
#0493b0:0053000000000000
#0493b0:00001323
#049380:0000000000530000
#049351:00001323
#049321:0000000000530000
#050371:0013
#0503b1:00000023
#051371:1353
#051391:0053005300530053
#0513b1:00530053
#052371:5323
#052391:0053005300000000
#0523b1:00530000
#0533b1:13230000
#053381:0053000000000000
#053350:13230000
#053320:0053000000000000
#053320:00001323
#053350:0000000000530000
#053381:00001323
#0533b1:0000000000530000
#054361:0013
#054321:00000023
#055361:1353
#055341:0053005300530053
#055321:00530053
#056361:5323
#056341:0053005300000000
#056321:00530000
#057371:13
#0573b1:0000002300000000
#057361:0013
#057321:0000000000000023
#058321:0000001333002300
#058351:0000000000330000
#0583b0:00001323
#058380:0000000000330000
#059350:00001323
#059381:00001323
#060321:00132300
#0603b0:00132300
