This file was generated by Ched 2.6.2.0.
#TITLE ""
#ARTIST ""
#DESIGNER ""
#DIFFICULTY 0
#PLAYLEVEL
#SONGID ""
#WAVE ""
#WAVEOFFSET 0
#JACKET ""
#REQUEST "ticks_per_beat 480"
#00002: 4
#BPM01: 145
#00008: 01
#TIL00: ""
#HISPEED 00
#MEASUREHS 00
#00918:00130000000000000000000000000000
#00913:00000013000000000000000000000000
#00919:00130000
#00914:0000001300000000
#0091a:00000000000000130000000000000000
#00915:00000000000000000013000000000000
#0091b:0000000000130000
#00912:23000013
#00910:41
#01718:13001313
#01714:0013000000000000
#0171b:00130000
#01715:00000000000000130000000000001300
#01712:0000000000130000
#01710:41
#01912:0013000013000013
#01915:00130013
#0191b:0013000013000013
#01918:0000001300130000
#02112:13
#02113:0013000000000000
#0211a:00000000130000330000003300000000
#02115:0000000000000013
#02118:13000000000000000013000000000013
#02119:0013000033330000
#02114:00130000
#0211b:0000001300000000
#02215:13130013
#0221b:00000013000000000000000000001300
#02218:0000001300130000
#02212:00000000000000130000000000000000
#02313:13131313
#02312:0013000000130000
#02314:0000001300000013
#02310:41
#02718:0013001300001300
#02715:0000130000130013
#02712:1313
#0271b:1313
#02815:0000230000130000
#02818:23000013
#02812:0000000000000013
#0281b:0023
#03214:0000000000140000
#03218:00001414
#03212:23
#0321b:23
#03415:13
#03418:0013000000000000
#03412:00130000
#0341b:0000001300000000
#03410:0041
#02015:00130000
#02018:00000013000000000000000000000000
#02012:13
#0201b:13
#03618:13
#03612:13
#03615:0013
#0361b:0013
#03518:0013000000000000
#03515:0000130000000013
#0351b:0000001300001300
#03512:00001313
#02414:0000001313000000
#02412:00000013
#02419:0000001313000000
#02418:0000000000000013
#0181b:13
#05015:13130000
#0501b:0013000000000000
#05018:0000001313000000
#05012:0000001313000000
#05112:13
#0511b:0013
#05118:0000001300000000
#05115:0000000000000013
#05718:13
#05715:0013
#0581b:00131300
#05815:0000001313000000
#05812:0013000000000000
#05818:13
#05915:0000001300000000
#05914:0000000000000013
#05918:00130000
#05912:0013000000000000
#0591b:0013
#06019:13
#06012:00130000
#0601b:00130000
#06016:0014
#00814:000000000000001400140000
#00818:000000141400
#00812:13130000
#0081b:13130000
#0101b:13000013
#01015:00130000000000000000000000000000
#0101a:00000013000000000000000000000000
#01014:00130000
#01019:0000001300000000
#01013:00000000000000130000000000000000
#01018:00000000000000000013000000000000
#01012:0000000000130000
#01312:00130000000000130000000000000000
#0131b:00000013000000000013000013000000
#01315:0000130000130000
#01318:2300001300000000
#01518:1300001300001300
#01515:00130000000000130000000000000000
#0151b:00000013000000000013000000000000
#01512:0000130000130000
#02518:00130013
#0251b:2313
#0251f:11
#02512:00130000
#02515:2313
#02612:1313
#02615:00130013
#02618:1313
#0261b:00130000
#03115:0013001300001300
#03118:0000130000130013
#0311b:1313
#03112:1313
#02915:1300000013000013
#02912:00130000
#0291b:1313
#02918:00130013
#03715:1300000000000013
#03718:0000001313000000
#03815:13
#03818:0000001313000000
#03812:0013
#0391b:0000000013000013
#03915:0000001300001300
#03918:0000130000130000
#03912:0013000013000000
#04218:13
#04215:0013000000000000
#0421b:00130000
#04212:0000001300000000
#04415:13
#0441b:13
#04418:0013
#04412:0013
#04315:0013000000000000
#04318:0000130000000013
#04312:0000001300001300
#0431b:00001313
#04518:1300000000000013
#04515:0000001313000000
#04618:13
#04615:0000001313000000
#0461b:0013
#05212:13001313
#05215:0000000000130000
#0521b:00001313
#05218:0000001300000013
#05418:13130000
#05412:0013000000000000
#05415:0000001313000000
#0541b:0000001313000000
#05615:0000000000130000
#0561b:1313
#05612:0000001300000013
#05618:00000013
#04712:0000000013000013
#04718:0000001300001300
#04715:0000130000130000
#0471b:0013000013000000
#0551b:13
#05512:0013
#05515:0000001300000000
#05518:0000000000000013
#05510:41
#03018:1300000013000013
#0301b:00130000
#03012:1313
#03015:00130013
#04012:13140000
#04018:00140000
#04013:0014
#04014:00000014
#04019:0014
#0401a:00000014
#04815:1300000000130000
#0481b:13000013
#04812:00131300
#04818:0013000013000000
#00118:0000000013000013
#00115:00000000000000130000000013000000
#00112:0000000000130000
#0011b:3333000000000000
#0021b:13
#00215:00000013000000130000000000000000
#00218:00130000
#0021a:00000033
#00219:0000000000330000
#00312:0013000000000013
#00318:00130013
#00315:0000001300130000
#0031b:0013
#00418:13
#00415:0013000000000000
#00518:00003300000013001300000000000013
#00515:00000000000000130013000000001300
#0051b:0000000000131300
#00512:00003300000000000000001300000000
#00615:1300130000130000
#0061b:00001300001300000000000000000000
#00612:0000001300000000
#00618:00000000000000130000000013000000
#00712:13
#0071b:13
#01112:13000013
#01118:00130000000000000000000000000000
#01113:00000013000000000000000000000000
#01119:00130000
#01114:0000001300000000
#0111a:00000000000000130000000000000000
#01115:00000000000000000013000000000000
#0111b:0000000000130000
#0121b:13000013
#01215:00130000000000000000000000000000
#0121a:00000013000000000000000000000000
#01214:00130000
#01219:0000001300000000
#01213:00000000000000130000000000000000
#01218:00000000000000000013000000000000
#01212:0000000000130000
#01415:1300001300000000
#0141b:00130000000000130000000000000000
#01412:00000013000000000013000013000000
#01418:0000130000130000
#01615:1300001300001300
#01618:00130000000000130000000000000000
#01612:00000013000000000013000000000000
#0161b:0000130000130000
#0331b:2323
#03315:2323
#0331f:21
#0491a:24
#04915:24
#04912:0024
#04917:0024
#04910:41
#04112:2323
#04118:2323
#05312:24
#05317:24
#0531a:0024
#05315:0024
#0001b:0000000000000033
#03358:00130013
#03352:00130013
#0335b:6363
#03355:6363
#00952:00000013
#02058:00000053000000000000000000000000
#02055:00530000
#03658:63
#03652:63
#03655:0053
#0365b:0053
#02353:63536353
#02352:0023000000230000
#02354:0000002300000023
#0185b:63
#0495a:54000014
#04955:54000014
#04957:00146400
#04952:00146400
#05152:63
#0515b:0053
#0585b:0053
#05855:0053
#05852:00000013
#05858:00000013
#05758:63
#05755:0053
#00854:00000014
#0105b:00000013
#0135b:00000013
#01558:00000013
#03755:63
#03758:0053
#03855:63000013
#03858:0053
#03852:0053
#0385b:00000013
#04455:53
#0445b:53
#04458:0063
#04452:0063
#04558:53
#04555:0063
#04658:53
#04655:0063
#0465b:0063
#04152:5353
#04158:5353
#04155:00130013
#0415b:00130013
#05058:0063
#05052:0063
#05352:64000014
#05357:64000014
#0535a:00145400
#05355:00145400
#05252:63
#0555b:53
#05552:0063
#0565b:53
#0285b:0013
#02858:13
#02855:00130000
#0545b:0053
#05455:0053
#0215b:0000005300000000
#02158:00000000000000000023000000000000
#0595b:0053
#00752:53
#0075b:53
#01152:00000013
#0125b:00000013
#01452:00000013
#01655:00000013
#02255:00130000
#02252:00000000000000130000000000000000
#0003b0:0000000000001333
#0013b0:3333000000000000
#001380:00230000
#002380:0013
#002390:0000000000330000
#0023a0:00000033
#0023b0:0000000000000023
#004380:00000013000000002300000000000000
#0053b0:13
#005380:0033230000000000
#005351:13
#005321:0033230000000000
#006321:0000000000000013
#007321:33
#007351:0023
#0063b0:0000000000000013
#0073b0:33
#007380:0023
#0183b0:13
#018380:00230000
#018340:00001434
#018320:0000000000340024
#020380:00000013000000000000000000000000
#0203b0:0023
#020351:00130000
#020321:0023
#0213b1:0000001300002300
#0213a1:00000000000000330000003300000000
#021391:0000000033330000
#021381:00000000000000000033000000000000
#023331:13535353
#023321:0053000000530000
#023341:0000005300000053
#024331:23
#0333b1:13
#033381:00230000
#033350:13
#033320:00230000
#0333b0:0013
#033380:00000023
#033351:0013
#033321:00000023
#034351:0000000013003323
#036381:13
#0363b1:00230000
#036320:13
#036350:00230000
#036350:0013
#036320:00000023
#0363b1:0013
#036381:00000023
#037351:13
#037321:00230000
#037381:0013
#0373b1:00000023
#038351:13
#038321:00230000
#038381:0013
#0383b1:00000023
#038320:0013
#038350:00000023
#041320:13
#041350:00230000
#041381:13
#0413b1:00230000
#041321:0013
#041351:00000023
#041380:0013
#0413b0:00000023
#042380:0000000013003323
#044350:13
#044320:00230000
#0443b1:13
#044381:00230000
#044381:0013
#0443b1:00000023
#044320:0013
#044350:00000023
#045380:13
#0453b0:00230000
#045350:0013
#045320:00000023
#046380:13
#0463b0:00230000
#046350:0013
#047320:23
#0463b1:0013
#047381:23
#0493a1:14
#049371:00240000
#049350:14
#049320:00240000
#049320:0014
#049350:00000024
#049371:0014
#0493a1:00000024
#050321:0013
#050351:0000000000003323
#050380:0013
#0503b0:0000000000003323
#051320:13
#051350:00230000
#0513b0:0013
#051380:00000023
#052320:13
#052350:00230000
#053320:14
#053350:00240000
#053371:14
#0533a1:00240000
#0533a1:0014
#053371:00000024
#053350:0014
#053320:00000024
#0543b0:0013
#054380:0000000000003323
#054351:0013
#054321:0000000000003323
#0553b1:13
#055381:00230000
#055321:0013
#055351:00000023
#0563b1:13
#056381:00230000
#057381:13
#0573b1:00000033000023000000000000000000
#057351:0013
#057321:00000000000000000000003300002300
#0583b1:0013
#058381:00000023
#058350:0013
#058320:00000023
#0593b0:0013
#059380:00000023
