This file was generated by Ched 2.6.2.0.
#TITLE ""
#ARTIST ""
#DESIGNER ""
#DIFFICULTY 0
#PLAYLEVEL
#SONGID ""
#WAVE ""
#WAVEOFFSET 0
#JACKET ""
#REQUEST "ticks_per_beat 480"
#00002: 4
#BPM01: 145
#00008: 01
#TIL00: ""
#HISPEED 00
#MEASUREHS 00
#00817:13
#00816:00130000
#00812:130000000000151515150000
#00812:0015
#00819:000000000000151515150000
#0081b:00130000
#0171b:1300130000130013
#01712:00001300000000130000000000000000
#01717:0013000013000000
#01714:00000014
#01716:1300130000140014
#01710:41
#01817:13
#01816:00130000
#0181b:00000013000000000000000000000000
#01815:0000000013000013
#01812:13
#01818:00000000000000130000000000000000
#01916:0000001300000013
#01917:0000000000130000
#01918:00131300
#01912:0013001300000013
#0191b:0013000000130000
#01915:00130013
#02112:13000000000000000000001300001300
#0211b:0000131300000000
#02116:00000000000000130000000000000000
#02114:00000000000000000013000000000000
#02117:0000000000130000
#02115:00000000000000000000000013000016
#02119:0013
#0221b:1300130000130000
#02217:00000013000000000000000000000000
#02214:00130000
#02216:0000001300000000
#02219:00000000000000130000000000000000
#02212:00000000000000130000000000001300
#02215:00160000000000000000000000000000
#02318:1414141414141414
#02314:1414141414141414
#02312:00140000001400000014000000140000
#02316:00140014001400140014001400140014
#0231a:00000014000000140000001400000014
#02310:41
#02718:0000000000000013
#02715:00000000000000000000000000000013
#02716:00130013
#0271b:0013000000000000
#02717:0013
#03418:00001300000000130000000000000000
#03412:00000000130000000000001300000000
#0341b:1313
#03415:00000013000013000000000000000000
#03416:1313
#03417:0000130000130000
#03410:0041
#03517:0013
#03516:00000013
#03512:0013000000000000
#03519:0000000000000013
#03514:0000000000000013
#03712:0000001300000000
#03716:0000000013001313
#0371b:0000000013000013
#03717:0000131300000000
#03715:0013000000000000
#0371a:14000013000000000000000000000000
#03718:0000000000130000
#03713:00000000000000000000001300000000
#03812:1313
#0381b:0013
#03815:0013001600000000
#03817:13130000
#0381a:00000013000000000000000000000000
#03917:0013001300000000
#0391b:00131313
#03916:0013
#03915:0000000000130013
#02812:2300230024000013
#02815:000000130000000000000000000000001300000000000000
#02816:00000000000014140000000000000000
#0281b:2300230000000013
#02818:000000000000000000130000000000000000000000000000000000000000000000001300000000000000000000000000
#0281a:0000000024130000
#02813:00000013
#00017:00000012
#00013:0000000000001212
#0011b:1212120000000000
#00115:1200000012000012
#00114:00000012
#00119:00000000000000120000000012000000
#00113:0000000000120000
#00117:00120000
#00118:0000000000120000
#0011a:0000000000000012
#00216:12
#00219:00000000120000120000000000000000
#00215:00000012000000000000000000000000
#0021b:12
#00316:0012000000001200
#00318:0000120000120000
#00314:0000001200000012
#00317:0012
#00312:0000000000120000
#0031c:0012000000000000
#0031a:0000001200000012
#00417:12
#00512:12120000
#0051c:12120000
#0051a:0000001200001200
#00517:00000000000000120000120000000000
#00519:00001200000000001200000000000012
#00514:00000000000000000012000000000000
#00515:00001200000000000000001200001200
#00617:12000000120000120000000000000000
#0061c:0012000000120000
#00614:00000000001200000000000012000000
#0061a:0000001200001200
#00612:0012000000120000
#00615:0000000000000012
#00619:0000000000000012
#00716:12
#00718:12
#02415:0000000000131300
#02414:0000000000000013
#02412:0013
#02418:00000000000000000000001300000000
#02416:0000001400000000
#02419:0000000000000013
#0241b:0013
#05615:000000000000000000000000000000001400000000130000
#05612:00000013130000000000000014000000
#05617:000000000000000000000000000000000014000000000000
#0561a:0000000000140000
#05618:00000000000000000000000000000013
#05614:0013
#05619:0013
#0561b:13
#05616:1300131300000000
#0581b:13131313
#05812:0013001300001300
#05816:13
#05815:00000000000000000013001300000000
#05818:0000000000130000
#05914:0013001300000000
#0591b:00131300
#05912:00131300
#05919:0013001300000000
#05918:0000000000000013
#05915:00000000000000000000000000000013
#05716:0000001300000000
#05718:00000013000000000000130000000000
#05712:23130000
#05719:0000000000000013
#05714:0000000000000013
#0571b:0000001323001300
#05715:00001300000000000000001300000000
#06015:00130000
#06018:13130000
#02018:1313
#02012:00130000
#0201a:00000013000000000000000000000000
#02013:00000013000000000000000000000000
#02015:0013
#0201b:00130000
#01316:00140014000000140014000014000000
#0131a:1400141400000000
#01312:2400000000140014
#00912:2300131300001300
#00916:00000013000000130000000000000000
#0091b:00130000000000000000130000000000
#00917:00000000000000000013000013000000
#00918:23
#00910:41
#0321b:00000000000000001300000000000013
#03217:0000000000120000
#03212:00000013
#03216:24
#03317:00001300000000132300000000000000
#03312:00001300000000132300000000000000
#03316:2300000000130000
#0331b:2300000000130000
#0331f:21
#03016:13000016
#03014:0000001300160000
#03012:0013000014001300
#0301a:0014
#0301b:1300130000130000
#03019:0000001300000000
#03616:0014001400140014
#03612:14140014
#0361a:1414
#05015:00000013000013000000130000000000
#0501b:1313
#05018:00001300000000130000130000000000
#05012:00131300
#0251f:11
#02512:1300001200001300
#0251b:00131300
#02517:2300001200000012
#0251c:0000000000000012
#02516:0013
#0101b:1300131300001300
#01016:00000000000000000013000013000000
#01017:00000013000000130000000000000000
#01012:00130000000000000000130000000000
#01015:13
#0311b:13000013000000130000130013000000
#03115:13000000000013000013000000130000
#03118:00130000001300001300000000001300
#03112:00001300130000001300001300000013
#04012:00130000001300000000001300000013
#04015:00000013000000130013000000130000
#04018:0013130000131300
#0401b:1300001313000013
#0411b:00001300000000132300000000000000
#04116:00001300000000132300000000000000
#04117:2300000000130000
#04112:2300000000130000
#0461b:13131300
#04612:0013
#04615:0000001600330000
#04616:13
#04617:0013000000000000
#04614:00000013000000000000000000000000
#04618:0000000000330000
#04716:0013001300000000
#04712:00131313
#04717:0013
#04718:0000000000130013
#05212:1300001313000000
#0521b:00000013130000001300000000000000
#05217:13000013000000000000000000000000
#01117:00000000000000000013000013000000
#01112:1300121200001300
#01116:00000013000000130000000000000000
#0111c:00120000000000000000120000000000
#01118:13
#01216:00000000000000000013000013000000
#0121c:0000121200000000
#01217:00000013000000130000000000000000
#01212:00120000000000000000120000000000
#01215:13
#0121b:13000013
#01416:00140014000000140014000014000000
#01412:1400141400000000
#0141a:1400000000140014
#01516:00130000000013000000000014000000
#01517:00000013000000000013000000000000
#01512:14000000000000140000000000001400
#0151a:0000140000140000
#01519:14
#01617:00130000000013000000000000000000
#01616:00000013000000000013000014000000
#0161a:14000000000000140000000000001400
#01612:0000140000140000
#01613:14
#02916:13
#02914:0000001300000013
#0291b:2300130000130000
#02919:0000001300000013
#02912:0013000013001300
#02917:0013
#04215:00001300000000130000000000000000
#0421b:00000000130000000000001300000000
#04212:1313
#04218:00000013000013000000000000000000
#04217:1313
#04216:0000130000130000
#04316:0013
#04317:00000013
#0431b:0013000000000000
#04314:0000000000000013
#04319:0000000000000013
#04519:00000000000013000000001300001300
#04517:0013000013000000
#04512:14001313
#04514:00000013000013000000000000001300
#0451b:00130000
#04516:0000000000130000
#04416:0014001400140014
#0441a:14140014
#04412:1414
#0481b:00130000001300000000001300000013
#04818:00000013000000130013000000130000
#04815:0013130000131300
#04812:1300001313000013
#05112:13000000000013000000001313000000
#05117:13000013000000000000000000000000
#0511b:00000013130000001300000000001300
#05116:00000000000000001300001300000000
#05418:00000013000013000000130000000000
#05412:1313
#05415:00001300000000130000130000000000
#0541b:00131300
#02612:1300001200000000
#0261b:00131300
#02617:1300001200000000
#02616:0000000013160000
#02614:00000016
#04912:00000000000000132300000000000000
#04917:00000000000000132300000000000000
#04916:23
#0491b:23
#04910:41
#0551b:13000000000000000000001313000000
#05516:1300131300000000
#05512:00000013130000001300000000000000
#05517:0000000013001313
#05510:41
#0531b:00000000000000132300000000000000
#05316:00000000000000132300000000000000
#05317:23
#05312:23
#0285b:43
#02852:00333400
#0285a:0044
#0335b:6300430000230000
#03356:6300430000230000
#03357:0023000053003300
#03352:0023000053003300
#03852:33005313
#0385b:00006313
#03857:43
#03557:0063
#02354:6454645464546454
#02358:6454645464546454
#02352:00240000002400000024000000240000
#02356:00240024002400240024002400240024
#0235a:00000024000000240000002400000024
#02254:00130000
#02259:00000000000000130000000000000000
#00852:00000035
#00859:00000045
#00857:43
#00856:00330000
#00756:62
#00758:52
#01852:63000013
#0185b:0000000000000013
#0585b:53530043
#05852:0063006300003300
#06055:00530000
#06058:00530000
#05952:0053
#0595b:0053
#0175b:00530000
#02052:00530000
#02055:0053
#0205b:00630000
#02058:0063
#0345b:0053
#03456:6353
#03457:0000630000230000
#03452:00000000000000000000002300000000
#01955:00530053
#01952:0000002300000023
#01958:0063
#0195b:0000000000230000
#0395b:00005353
#03955:0000000000530053
#03656:0024002400240024
#0365a:54445444
#03652:34643464
#05055:0000000000630000
#0505b:00002313
#05052:0000000023000013
#05058:0000000000530000
#03056:63000046
#03054:0000000000360000
#03052:0023000000000000
#01356:00000034
#03752:34
#03756:0033
#0375b:0043
#0465b:43002343
#04652:00002333
#04656:33
#04752:00006363
#04758:0000000000630063
#0105b:00000043
#00952:00000033
#01152:00000033
#01157:00000043
#0125b:00000043
#01256:00000033
#01456:00000044
#01556:00000034
#01656:00000044
#02552:63
#0255b:0053
#02956:63
#02952:0023000000000000
#02957:0053
#0295b:0000000000230000
#04356:0053
#04557:0043
#04552:0033
#0455a:44
#04257:5363
#04252:0063
#0425b:00000000000000000000002300000000
#04256:0000530000230000
#04456:0024002400240024
#0445a:44544454
#04452:64346434
#05252:0063
#0525b:00536300
#05458:0000000000530000
#05452:00002313
#0545b:0000000023000013
#05455:0000000000630000
#02652:63
#02654:00000036
#02656:0000000000460000
#04156:0023000063004300
#0415b:0023000063004300
#04152:5300330000230000
#04157:5300330000230000
#04956:00430000
#0495b:00430000
#04957:00000033
#04952:00000033
#05357:00330000
#05352:00330000
#05356:00000043
#0535b:00000043
#05556:00530000
#05557:00000063
#05656:00530000
#0515b:00530000
#05152:00000063
#002350:0000000012220000
#002391:0000000000120022
#002350:0000000000001222
#004350:0012000022000000
#004391:00000012000000002200000000000000
#007361:12
#007321:0022
#007380:12
#0073c0:0022
#0133a0:00000014
#013360:0000000000000024
#014320:00000014
#014360:0000000000000024
#0153a0:00000014
#015360:0000000000000024
#016320:00000014
#016360:0000000000000024
#0173b0:00130000
#017370:00000000000000230000000000000000
#018320:13
#018360:00000023000000000000000000000000
#018380:0000000013230000
#018321:0000000000132300
#0183b0:0000000000001323
#019350:00132300
#019320:0000005300000000
#019381:00001323
#0193b1:0000000000530000
#019350:00000013
#019320:0000000000000053
#020350:23
#020320:0000130000532300
#020350:0000005333000000
#0203b1:0000130000532300
#020381:0000005333000000
#021371:13
#0213b1:0023000000000000
#021320:0013000000000000
#021360:00230000
#022360:0000000000130000
#022320:00000023
#0223b1:00000013
#022371:0000000000000023
#023341:1454545454545454
#023321:00540000005400000054000000540000
#023361:00000054000000540000005400000054
#024341:24
#023380:1454545454545454
#023360:00540000005400000054000000540000
#0233a0:00000054000000540000005400000054
#024380:24
#025320:13
#025360:00230000
#0253b0:0013
#025370:00000023
#026320:13
#026360:00230000
#027320:0013002300000000
#027330:00530000
#0273b1:0000001300230000
#0273a1:0053
#027320:0000000000130023
#027330:00000053
#029360:13230000
#029320:0033000000000000
#029370:00001323
#0293b0:0000000000330000
#030360:13230000
#030320:0033000000000000
#0333b0:13230000
#033370:0053000000000000
#033361:13230000
#033321:0053000000000000
#033321:00001323
#033361:0000000000530000
#033370:00001323
#0333b0:0000000000530000
#034360:13
#034320:0023000000000000
#034370:00130000
#0343b0:0000002300000000
#0343b0:00001323
#034370:0000000000530000
#034361:0000000013000023
#034321:00000000000000000000005300000000
#035361:0013000000000000
#0353b1:00230000
#035370:00130000
#035320:0000002300000000
#035361:0000001300000000
#0353b1:0023
#035370:0013
#035320:0000000000532300
#0363a0:14240000
#036360:0054000000000000
#036321:00142400
#036361:0000005400000000
#0363a0:00001424
#036360:0000000000540000
#036321:00000014
#036361:0000000000000054
#037321:24
#0383b1:0013
#038321:00000023
#038320:0013
#0383b0:00000023
#039320:0013002300000000
#039360:00530000
#0393b0:0013
#039380:0000000000230000
#039351:0000000000130000
#039321:00000023
#0393b0:00000013
#039380:0000000000000023
#039351:0000000000000013
#040321:23
#041321:13230000
#041361:0053000000000000
#041370:13230000
#0413b0:0053000000000000
#0413b0:00001323
#041370:0000000000530000
#041361:00001323
#041321:0000000000530000
#042371:13
#0423b1:0023000000000000
#042361:00130000
#042321:0000002300000000
#042321:00001323
#042361:0000000000530000
#042370:0000000013000023
#0423b0:00000000000000000000005300000000
#043370:0013000000000000
#043320:00230000
#043361:00130000
#0433b1:0000002300000000
#043370:0000001300000000
#043320:0023
#043361:0013
#0433b1:0000000000532300
#044321:14240000
#044361:0054000000000000
#0443a0:00142400
#044360:0000005400000000
#044321:00001424
#044361:0000000000540000
#0443a0:00000014
#044360:0000000000000054
#0453a0:24
#046320:0013
#046350:0000000000330000
#0463b0:00000023
#0463b1:0013
#046381:0000000000330000
#046321:00000023
#0473b1:0013002300000000
#047371:00530000
#047321:0013
#047351:0000000000230000
#047380:0000000000130000
#0473b0:00000023
#047321:00000013
#047351:0000000000000023
#047380:0000000000000013
#0483b0:23
#049360:13230000
#049320:00530033000000000000000000000000
#0493b1:13230000
#049371:00530033000000000000000000000000
#049371:00001323
#0493b1:00000000000000000053003300000000
#049320:00001323
#049360:00000000000000000053003300000000
#050320:1323000000000000
#0503b0:0000132300000000
#0503b0:00001323
#050380:0000000000530000
#050321:0000000013005323
#050351:0000000000530000
#0513b1:00130000
#051371:0000002300000000
#051321:00000013
#051361:0000000000000023
#0523b1:00130000
#052371:0000002300000000
#052321:0013
#052351:00000023
#0523b0:0013
#052380:00000023
#053370:13230000
#0533b0:00530033000000000000000000000000
#053321:13230000
#053361:00530033000000000000000000000000
#053361:00001323
#053321:00000000000000000053003300000000
#0533b0:00001323
#053370:00000000000000000053003300000000
#0543b0:1323000000000000
#054320:0000132300000000
#054320:00001323
#054350:0000000000530000
#0543b1:0000000013005323
#054381:0000000000530000
#055361:00130000
#0553b1:0000002300000000
#055371:00000013
#055321:0000000000000023
#056361:00130000
#0563b1:0000002300000000
#0573b1:1323000000000000
#057321:0000000013230000
#0583b1:13
#058371:0023000000000000
#058320:0013000000000000
#058360:00230000
#0583b1:00130000
#058371:0000002300000000
#058320:0000001300000000
#058360:0023
#0593b0:0013
#059380:0000000000000000000000000000000000000053000000002300000000000000
#059321:0013
#059351:0000000000000000000000000000000000000053000000002300000000000000
#060351:00130000
#060321:0000000000000000000000530000000023000000000000000000000000000000
#060380:00130000
#0603b0:0000000000000000000000530000000023000000000000000000000000000000
