This file was generated by Ched 2.6.2.0.
#TITLE ""
#ARTIST ""
#DESIGNER ""
#DIFFICULTY 0
#PLAYLEVEL
#SONGID ""
#WAVE ""
#WAVEOFFSET 0
#JACKET ""
#REQUEST "ticks_per_beat 480"
#00002: 4
#BPM01: 145
#00008: 01
#TIL00: ""
#HISPEED 00
#MEASUREHS 00
#0011a:14141400
#00212:14141400
#0341a:14140000
#03412:00001414
#03414:14140000
#03418:00001414
#03410:0041
#0091a:1414
#00914:00140014
#00910:41
#00318:14140000
#00414:14140000
#0111a:14
#01114:00140000
#01118:0014
#01112:00000014
#0171a:14140000
#01712:00001414
#01710:41
#02813:14140000
#02819:14141500
#02812:0015
#0571a:1414
#05718:00140014
#05712:00140014
#05714:1414
#06019:14141300
#06013:14140000
#06014:0013
#0051a:1414
#00514:00140000
#00612:1414
#00618:00140000
#00815:16160000
#00719:14140000
#00713:14140000
#01018:1414
#01012:00140014
#01312:14001414
#01318:0000140000140000
#01614:14
#01618:0014
#01818:14140000
#02912:14
#02914:00140000
#0301a:14
#03018:00140000
#03112:14000014
#03114:00140000
#0311a:00000014
#03212:14
#0321a:14
#03218:00001414
#03214:0000000000140000
#0371a:14
#03712:14
#03718:00140014
#03714:0014
#03814:1414
#03818:00140000
#03912:14
#03918:00140000
#03914:00000014
#0391a:0014
#0401a:14
#04012:14
#04019:00140000
#04013:00140000
#04212:14140000
#0421a:00001414
#04218:14140000
#04214:00001414
#04512:14
#0451a:14
#04514:00140014
#04518:0014
#04618:1414
#04614:00140000
#04918:1414
#04912:00260026
#04910:41
#0501a:14
#05018:00140014
#05014:0014
#05012:00000014
#05314:1414
#05318:00260026
#05412:14
#05414:00140014
#05418:0014
#0541a:00000014
#05514:14
#05512:00140000
#05518:00140000
#0551a:14
#05510:41
#05618:14
#0561a:00140000
#05614:00140000
#05612:14
#05818:16161600
#05812:0016001600000000
#0591a:14
#05918:00140000
#05912:0014
#05914:00000014
#0251f:11
#01912:14140000
#0191a:00001414
#02014:14140000
#02118:00001414
#0211a:14140000
#02114:0000000000140000
#02212:14140000
#02214:00001414
#02218:0000000000140000
#0141a:14001414
#01414:0000140000140000
#01512:14001414
#01518:0000140000140000
#02318:00001414
#02312:00140000
#0231a:14
#02314:0000000000140014
#02310:41
#02418:14
#02413:00001414
#02419:00001414
#0351a:14
#03514:00140000
#03518:0014
#03512:00000014
#04312:14
#04318:00140000
#04314:0014
#0431a:00000014
#04712:14000014
#0471a:14
#04718:00140000
#04714:0014
#04814:14
#04818:00140000
#0481a:0014
#04812:0014
#0331f:21
#03318:26260000
#03312:00002626
#04112:26260000
#04118:00002626
#06054:0013
#06059:0013
#02852:0015
#02859:0015
#01654:64
#01658:0054
#02952:54
#02954:00240000
#0305a:64
#03058:00240000
#03152:54
#03154:00240000
#04952:00160016
#05358:00160016
#05558:00240000
#05552:00240000
#05554:64
#0555a:64
#05658:54
#0565a:00240000
#05654:00240000
#05652:54
#03358:00160000
#03352:00000016
#04152:00160000
#04158:00000016
#003380:00001424
#004340:00001424
#007330:00001424
#007391:00001424
#008351:000000000000163636260000
#012381:14
#0123a1:00240000
#012341:0014
#012321:00000024
#016341:14
#016321:00240000
#016381:0014
#0163a1:00000024
#018341:00001424
#020381:00001424
#0253a1:1424
#025381:00340000
#026321:1424
#026341:00340000
#0273a1:1424
#027381:00340000
#029321:1424
#029341:00340000
#0303a1:1424
#030381:00340000
#031321:1424
#031341:00340000
#0363a1:14
#036381:00240000
#036321:0014
#036341:00000024
#040331:00001424
#040390:00001424
#044320:14
#044340:00240000
#0443a0:0014
#044380:00000024
#051320:1424
#051340:00340000
#051381:1424
#0513a1:00340000
#0523a1:1424
#052381:00340000
#052340:1424
#052320:00340000
#0553a0:1424
#055380:00340000
#055341:1424
#055321:00340000
#056321:1424
#056341:00340000
#056380:1424
#0563a0:00340000
