This file was generated by Ched 2.6.2.0.
#TITLE "easy"
#ARTIST ""
#DESIGNER ""
#DIFFICULTY 0
#PLAYLEVEL
#SONGID ""
#WAVE ""
#WAVEOFFSET 0
#JACKET ""
#REQUEST "ticks_per_beat 480"
#00002: 4
#BPM01: 155
#00008: 01
#TIL00: ""
#HISPEED 00
#MEASUREHS 00
#00119:14
#00213:14
#00413:14
#0051a:14
#00510:41
#00614:14
#00718:14
#00812:14
#00919:14
#01113:14
#01318:14
#01310:41
#01514:14
#01719:14
#01813:14
#02713:14
#02819:14
#03318:2616
#03312:00160016
#03512:1616
#03518:00160016
#03918:14
#03914:0014
#04018:14
#04014:0014
#06713:14
#07513:14
#00319:14
#01019:14
#01213:14
#01418:14
#01614:14
#02113:14
#02110:41
#02219:14
#03418:1616
#03612:1616
#04112:2616
#04118:00160016
#04110:41
#04318:1616
#04312:00160016
#04212:16
#04218:0016
#04418:16
#04412:0016
#04913:1414
#0491f:11
#04919:00140000
#05019:1414
#05013:00140000
#05112:1414
#05118:00140000
#05718:2616
#05712:00160016
#0571f:21
#05912:1616
#05918:00160016
#06813:14
#06919:14
#07019:14
#07113:14
#07213:14
#07319:14
#07419:14
#01919:14
#02019:14
#02313:14
#02413:14
#03718:1616
#03712:00160000
#03812:1616
#03818:00160000
#04714:14
#04718:0014
#04814:14
#04818:0014
#04512:1616
#04518:00160000
#04618:1616
#04612:00160000
#07619:14
#07613:0014
#06118:1616
#06112:00160000
#06212:1616
#06218:00160000
#0521a:1414
#05214:00140000
#06318:14
#06314:0014
#06418:14
#06414:0014
#03110:41
#05810:41
#025390:1400000000000034
#026390:0034002400000000
#029330:1400000000000034
#030330:0034002400000000
#031390:14
#032390:00240000
#053330:14
#054330:24
#055390:14
#056390:24
#058380:1626
#060320:1626
#065390:14000034000034000034000034000000
#066390:0024
