This file was generated by Ched 2.6.2.0.
#TITLE "expert"
#ARTIST ""
#DESIGNER ""
#DIFFICULTY 0
#PLAYLEVEL
#SONGID ""
#WAVE ""
#WAVEOFFSET 0
#JACKET ""
#REQUEST "ticks_per_beat 480"
#00002: 4
#BPM01: 155
#00008: 01
#TIL00: ""
#HISPEED 00
#MEASUREHS 00
#00619:0000000000000012
#00615:0000001300000012
#00612:0013000013000000
#0061b:0013000013000000
#00618:0000001300000000
#00812:0013001300000013
#0081b:0000130013000013
#00818:0013000000130000
#00815:00001313
#00918:13
#00915:0013000000000000
#00917:00130013
#00916:0013
#0091b:0013
#00912:00130000
#01017:00130013
#01012:00130013
#01015:0013000000000000
#0101b:1313
#0121b:0013000000000000
#01215:00130013
#01218:0000130000130000
#01212:1313
#01612:13130013
#01616:0013000013000013
#01617:00130000
#01618:00000013
#0161b:13
#0181b:0000000000000013
#0181a:0012000000000000
#0181c:00120000
#01816:1414
#01812:00140014
#01918:1313000000000000
#0191b:0000131300000000
#01912:1300000013000013
#01917:0000000013000013
#01916:00000000130000000000001300000000
#02012:00130000
#0201b:0013001300000000
#02016:0013001300000000
#02017:0000130000130000
#02018:00000014
#02014:00000000000000000000000000140000
#02215:0000000000000013
#02214:00131400
#0221a:00131400
#0221b:0000000000000013
#02218:1300001400000000
#02212:1300001400000000
#02315:0000001300000000
#02312:13
#0231b:0000001300000000
#02318:13
#0241b:00000000000000000000001300000000
#02415:0000000000130000
#0241a:00000000000000000000000000130000
#02414:00000013
#02419:00000000000000000000000000000013
#02413:0000000000000013
#02512:1600002600000014
#02518:0016002600000000
#02513:0000000000340000
#02519:0000000000340000
#0261b:0000000000130000
#02619:0000000000000013
#02618:00000013
#02615:00000000000000000000001300000000
#02616:0014001400000000
#0261a:1400001400000000
#02612:00140023
#02614:0000000000000013
#02712:2500000013000013
#0271b:0000000013000013
#02715:00000013000000000000000000000000
#02718:00130000
#02716:0000001400000000
#02719:25
#02816:0014000000000000
#0281b:00130000
#02812:00000013
#02814:000000000000000000000033000000000000000000000000
#02815:000000000000000033333300000000000000000000000000
#02817:000000000000003300000000000000000000000000000000
#02819:000000000000000000000000000000000033000000000000
#0281a:000000000000000000000000003333333300000000000000
#03215:0000000000131300
#03218:00000000000000000000001300000000
#03214:00000038000000000000000000001200
#0321a:0000000000000012
#03216:0014000000000000
#05618:0000000000130000
#05615:00000000000000000000001300000000
#05612:00000013
#0561b:00000013
#05216:1323000000000012
#0521c:0000000000000012
#05219:0000000015250000
#05213:0000000015250000
#0521b:1323000000000000
#0531b:0000000000000013
#05416:13
#05419:0013000000000015
#05412:0000001400000000
#05417:0014
#05414:0000000000140000
#0571a:00240014
#05712:2400240014000013
#05717:0000002300000013
#05716:2423000000130000
#0571f:21
#0581b:0000000000000013
#05812:0000001300000013
#05817:0000001300000000
#05810:41
#03315:00140014
#0331b:00130013
#03312:2313
#03317:2414
#0351b:1313
#03515:1414
#03517:00140014
#03512:00130013
#03412:13131313
#03417:13131313
#03812:1313
#03817:1313
#0381b:0000130000000013
#03816:0000130000000013
#03919:13
#03917:0013000000000000
#03912:0013000000000014
#03916:0000001400000000
#03914:13
#04014:0000131300000000
#0401a:0000000014142400
#04016:00000000000000000014001400000000
#04019:0000131300000000
#04118:0013000000130000
#0411b:2300000013000013
#04112:0013000000130000
#04115:2300000013000013
#04110:41
#04218:0013001300130000
#0421b:1300130013000013
#04212:0013001300130000
#04215:1300130013000013
#04417:1313
#0441b:0000130000000013
#04412:1313
#04415:00130013
#04312:1313
#04315:00130013
#04317:1313
#0431b:00130000
#04319:0000000000000013
#05017:1323000000000000
#05012:1323000015250000
#05018:0000000015250000
#06517:27000014000000000000000000000000
#0651b:00000013
#06514:0000001600000000
#06512:13000023000000000025000013000000
#06519:00000000000000000013000000000000
#0651a:0000002400000000
#06619:0000000023130000
#06614:0000000013230000
#06012:0023000013000013
#0601b:1300001300230013
#06016:1300001300000000
#06017:0013
#0621b:0013000000130013
#06216:0013000000130013
#06412:000000130000000000130000163636363636000000000000
#0641b:00130000
#06417:0013001300000000
#06416:00130000
#06418:000000000000000000000000163636363636000000000000
#0481b:00001323
#04815:00000000000000000013000000000000
#04818:0000000000130000
#04812:00001300000000000000001300000000
#04814:00130000
#04816:0000001300000000
#04817:0013000000000000
#03012:1400001400130013
#0301b:00000013
#03018:00000000000000000000001300000000
#03015:00000013
#03016:0014001400000000
#0301a:00140000
#07615:12120000
#07612:0012000000000000
#07619:12120000
#0761c:0012000000000000
#0751b:00121212
#07513:00121212
#07515:12
#07519:0012000000000000
#02119:00120000
#02114:0012000000000000
#02115:0000000000000013
#0211b:0000000000000013
#02116:0000001200000000
#02112:22
#0211c:22
#02110:41
#0141b:13130000
#01416:00130013
#01417:0013000013000000
#01412:13
#00115:0000130013000013
#0011b:0013001300000013
#00112:00001300000013000000001400000000
#00118:13130000
#00116:0000000000140000
#00212:13130000
#00218:0013001300000000
#00215:0013000000000013
#0021b:00130000
#00216:00000000000000000014000000000000
#0021a:0000000000140000
#00418:0000000000130000
#00415:00000000000000000000001300000000
#0041b:00001313
#00417:0000001300000000
#00412:00000013
#0071a:0000001200001200
#00715:0000000000120000
#00719:0000000000120015
#00714:0000001200001200
#00712:0000000000000015
#06716:00130013
#06717:0013
#06712:0013
#0671b:00130000
#06714:0000000000130000
#06713:24
#06719:24
#0681b:1300130000130000
#06817:0013000000000000
#06816:13130000
#06812:0013000013000000
#06818:00000013
#07016:13130000
#07012:0013000000000000
#07015:0000000000130000
#07018:00000013
#0701b:1300130000130000
#07017:0013000013000000
#06917:00130013
#0691b:0013
#06916:0013
#06912:00130000
#06919:0000000000130000
#06913:14
#07112:00130013
#0711b:0013
#07116:0013
#07117:00130000
#07114:0000000000130000
#07119:24
#07113:24
#07217:00130000
#0721b:0013000000001300
#07218:13
#07212:13130000
#07219:0000000000130000
#07215:0013000000000000
#07216:0013
#0731b:00130013
#07312:1413
#07317:0013
#07316:00130000
#07319:0000000000130000
#07412:1300130000130000
#07418:00130000000000130000001300000000
#07415:0013001313002300
#0741b:00000013001300000013000000000000
#03712:1313
#03717:1313
#0371b:00130000
#03716:00130000
#03714:0000000000000013
#03719:0000000000000013
#04518:1313
#0451b:0000001300000000
#04512:0000000000000013
#0461a:0000000000140014
#0461b:0013000000000000
#04612:0000001400000000
#01517:13130000
#01516:0013
#0151b:0013
#01512:00130013
#04716:14
#04712:0014000000340000
#04718:0000000000340000
#05917:0000000000000013
#05912:0000230000000013
#05915:2323
#05918:2323
#0591b:00230000
#06319:130000003333
#06317:0013000000000000
#06314:130000000033003300000000
#06312:0013000013000000
#06318:0000001300130000
#06315:0000001300000013
#0631b:00000013
#06313:000000000000000000000033003300000000000000000000
#0631a:000000000000000000000000000000000033003300000000
#0361b:13131313
#03616:13131313
#0171a:00001200000012000000001200000000
#0171c:2200120012000012
#01712:00140014
#01716:0014
#0291a:0000001400000014
#02918:16
#02912:0016001400001300
#0291b:00000013
#04912:12121212
#0491f:11
#0511c:12121212
#05513:150000000034
#05516:000000000000150000000000000000000000000000000000000000000000340034143400340000000000000000000000
#0551b:0000001300000000
#05512:0014
#05515:000000000000000000130000000034000000000000000000
#0551a:00000000000000000000001400000000
#05518:0000000000000014
#05514:000000000000000000000000003400000000003400000000
#00317:1300130000000013
#0031b:0013000013000000
#00319:0000001300000000
#00512:1300000000000000130000000000000000000013000000000000000013000000
#0051b:1300000000000000130000000000000000000013000000000000000013000000
#00515:0013
#00518:0013
#00510:41
#01316:00130000
#01317:0013
#01312:2313
#0131b:23130013
#01310:41
#0111b:00130000
#01117:0013
#01116:00130013
#01112:0013
#0611a:0000001414000000
#06118:0000000000130000
#06112:2414
#06115:0000000000130000
#06116:0014140000000000
#03117:1212000000000000
#03116:0000141400000000
#03114:0000000018180000
#03112:0000000000001c1c
#03110:41
#05652:00000033
#0565b:00000043
#03355:00440044
#0335b:00430043
#03352:4343
#03357:4444
#0355b:3333
#03555:3434
#03557:00340034
#03552:00330033
#03452:53535353
#03457:53535353
#03852:5353
#03857:5353
#0385b:00630033
#03856:00630033
#04158:0023000000230000
#0415b:53435343
#04152:0023000000230000
#04155:5353
#04258:0023002300230000
#0425b:53535343
#04252:0023002300230000
#04255:53535300
#04457:5353
#0445b:00630000
#04452:1313
#04352:1313
#04357:5353
#0435b:00630000
#04753:0000000000000012
#04759:0000000000000012
#06552:33000053
#0655b:00000053
#06557:00000014000000000000000000000000
#06554:0000001600000000
#06559:00000000000000000043000000000000
#04857:0063000000000000
#0485b:00000043
#01652:00000053
#01657:00530000
#01656:0000000000000023
#02355:0000006300000000
#0235b:0000005300000000
#02358:53
#02352:53
#0105b:0053
#01052:00530023
#01057:00000023
#01258:0000630000430000
#01255:00000033
#01456:00530053
#01457:0053
#00858:0063000000000000
#0085b:00230000
#04552:00330033
#0685b:00630000
#06858:00000063
#06852:0063
#06757:0063
#0675b:00230000
#06756:00000013
#07056:00530000
#07055:0000000000330000
#07058:00000043
#06956:0053
#06952:00230000
#06957:00000013
#07257:00630000
#0725b:00000063
#07256:0063
#0715b:0063
#07157:00230000
#07152:00000013
#0735b:00000013
#07352:0053
#07356:00230000
#03752:5353
#03757:5353
#0375b:00630033
#03756:00630033
#05756:4423000000230000
#05752:64346400
#0575a:00544400
#05757:0000002300000000
#05957:0000000000000063
#05955:3353
#05958:4353
#05952:0000330000000063
#0595b:00430000
#0365b:63636363
#03656:63636363
#02057:0000000000130000
#02056:0000005300000000
#02052:0000000000130000
#01957:0053
#0195b:00000000000000000000001300000000
#01956:00000000000000000000001300000000
#02155:0000000000000053
#0215b:0000000000000053
#02252:2300006400000000
#02258:2300006400000000
#02254:0024
#0225a:0024
#02452:0016000000000000
#02458:00160000
#02552:3600000000000014
#02558:0046000000000000
#02656:0014000000000000
#0265a:0000001400000000
#0295a:0000005400000014
#02958:46
#02952:0036006400000000
#03056:0014000000000000
#03052:0000001400000000
#00552:2300000000000000230000000000000000000023000000000000000023000000
#0055b:2300000000000000230000000000000000000023000000000000000023000000
#00555:0053
#00558:0063
#01557:00230000
#0155b:0063
#01552:00000013
#01356:00230000
#01352:0053
#0135b:00000013
#0115b:00230000
#01157:0063
#01156:00000013
#00956:0053
#00952:00230000
#00957:00000013
#00158:53530000
#0015b:0053005300000000
#00155:0000000000000053
#00252:53530000
#00255:0053000000000000
#0035b:0053
#00357:0000000000000053
#0625b:0043000000430000
#0585b:0043000000430000
#0605b:6300005300430000
#06056:6300005300000000
#06052:0033000053000000
#06057:0053
#0615a:0064
#06158:0000000000630000
#06152:0054
#06155:0000000000530000
#05552:0000000064000034
#05556:00000000000000000000002400000000
#00652:0023000023000000
#0065b:0023000023000000
#00655:0000005300000000
#00658:0000006300000000
#04652:0033000000340000
#03252:001c0000
#03256:0024000000000000
#03152:000000000000005c
#0405a:00000044
#06355:0000005300000013
#06352:0023
#0635b:00000023
#06358:0000000000630000
#06455:00000013
#06452:0056
#06458:00006613
#0185a:0000000000120000
#07455:00000033
#02752:0063
#0275b:0063
#03952:0000000000000064
#000350:000000000000000000000000133333333333333333333333
#001350:23
#001381:13532300
#0013b1:0053005300000000
#001351:0000000000000013
#002321:53530000
#002351:0053002300000000
#003331:1200520000000000000000000000000000000000000000000000000000520052005200520000000000000000000000000000000000000000000000000052005200520052000000000000000000000000000000000000000000000000005200520052005200000000000000000000000000000000000000000000000000520052
#003321:0054000000000000000000000000000000000000000000000000000000005400540054000000000000000000000000000000000000000000000000000000540054005400000000000000000000000000000000000000000000000000000054005400540000000000000000000000000000000000000000000000000000005400
#004321:5400540000000000000000000000000000000000000000000000000000005400540054000000000000000000000000000000000000000000000000000000005400000000000000000000000000000000000000000000000000000000000000000000000000000000000000000000000000000000000000000000000000000000
#004331:0052005200000000000000000000000000000000000000000000000000520052005200520000000000000000000000000000000000000000000000000000520022000000000000000000000000000000000000000000000000000000000000000000000000000000000000000000000000000000000000000000000000000000
#0033b0:0013
#003370:00000000000000000000002300000000
#003370:0000000000000013
#0043b0:0023000000000000
#005321:13
#005351:0023000000000000
#0053b0:13
#005380:0023000000000000
#005320:00130000
#005350:0000002300000000
#0053b1:00130000
#005381:0000002300000000
#005351:00000000000000001300002300000000
#005321:0000000000000000000000000000000000000053000000000000000000000000
#005380:00000000000000001300002300000000
#0053b0:0000000000000000000000000000000000000053000000000000000000000000
#005320:0000000000000013
#006350:23
#0053b1:0000000000000013
#006381:23
#006321:0013000000000000
#006351:00230000
#0063b0:0013000000000000
#006380:00230000
#006350:0000001300230000
#006320:0053
#006381:0000001300230000
#0063b1:0053
#0073c1:12220000
#007320:12220000
#008380:0013002300000000
#0083b0:00530000
#009320:00130023
#009360:0033
#010320:00130000
#010360:0023
#0103b1:0013
#010371:00000053
#0113b1:23
#010320:00000013
#011360:23
#0113b0:00130023
#011370:0033
#012380:00130000
#0123b0:0023
#013360:00130023
#013320:0033
#014360:00130000
#014320:0023
#014371:0013
#0143b1:00000023
#014360:00000013
#015320:23
#015370:00130023
#0153b0:0033
#016370:00130000
#0163b0:0023
#016320:00000013
#016360:0000000000000053
#017320:23
#0183a0:0000001200220000
#019370:0013
#0193b0:00000000000000000000532300000000
#020360:0000001300000000
#020320:0000000053230000
#021340:00000000000000001200002200000000
#0213a1:00000000000000001200002200000000
#0213b1:0000000000000013
#022381:53
#0223b1:0023000000000000
#021350:0000000000000013
#022320:53
#022350:0023000000000000
#022320:0000001400240000
#022340:0054
#022381:0000001400240000
#0223a1:0054
#023321:13
#023351:0053230000000000
#023380:13
#0233b0:0053230000000000
#023350:0000001300000000
#023320:0000000053230000
#0233b1:0000001300000000
#023381:0000000053230000
#023331:00000013
#024351:53
#024321:005600000000000000000000000000000000000000000000000000000000000000000000000000000000000000000000000000000000000000000000000000000000000000000000000000000000000000000000000000000000000000000000000000000000000000000000000000000000000000000000000000000000000000000000000000000000000000000000000000000000000000000000000000000000000000000000000000000000000000000000000000000000000000000000000000000000000000000000000000000000000000000000000000000000000000000000000000000000000000000000260000000000000000000000000000000000000000000000000000000000000000000000000000000000000000000000000000000000000000000000000000000000000000000000000000000000000000000000000000000000000000000000000000000000000000000000000000000000000000000000000000000000000000000000000000000000000000000000000000000000000000000000000000000000000000000000000000000000000000000000000000000000000000000000000000000000000000000000000000000000000000000000000000000000000000000000000000000000000000000000000000000000000000000000000000000000000000000000000000000000000000000000000000000000000000000000000000000000000000000000000000000000000000000000000000000000000000000000000000000000000000000000000000000000000000000000000000000000000000000000000000000000000000000000000000000000000000000000000000000000000000000000000000000000000000000000000000000000000000000000000000000000000000000000000000000000000000000000000000000000000000000000000000000000000000000000000000000000000000000000000000000000000000000000000000000000000000000000000000000000000000000000000000000000000000000000000000000000000000000000000000000000000000000000000000000000000000000000000000000000000000000000000000000000000000000000000000000000000000000000000000000000000000000000000000000000000000000000000000000000000000000000000000000000000000000000000000000000000000000000000000000000000000000000000000000000000000000000000000000000000000000000000000000000000000000000000000000000000000000000000000000000000000000000000000000000000000000000000000000000000000000000000000000000000000000000000000000000000000000000000000000000000000000000000000000000000000000000000000000000000000000000000000000000000000000000000000000000000000000000000000000000000000000000000000000000000000000000000000000000000000000000000000000000000000000000000000000000000000000000000000000000000000000000000000000000000000000000000000000000000000000000000000000000000000000000000000000000000000000000000000000000000000000000000000000000000000000000000000000000000000000000000000000000000000000000000000000000000000000000000000000000000000000000000000000000000000000000000000000000000000000000000000000000000000000000000000000000000000000000000000000000000000000000000000000000000000000000000000000000000000000000000000000000000000000000000000000000000000000000000000000000000000000000000000000000000000000000000000000000000000000000000000000000000000000000000000000000000000000000000000000000000000000000000000000000000000000000000000000000000000000000000000000000000000000000000000000000000000000000000000000000000000000000000000000000000000000000000000000000000000000000000000000000000000000000000000000000000000000000000000000000000000000000000000000000000000000000000000000000000000000000000000000000000000000000000000000000000000000000000000000000000000000000000000000000000000000000000000000000000000000000000000000000000000000000000000000000000000000000000000000000000000000000000000000000000000000000000000000000000000000000000000000000000000000000000000000000000000000000000000000000000000000000000000000000000000000000000000000000000000000000000000000000000000000000000000000000000000000000000000000000000000000000000000000000000000000000000000000000000000000000000000000000000000000000000000000000000000000000000000000000000000000000000000000000000000000000000000000000000000000000000000000000000000000000000000000000000000000000
#023380:0000000000000016
#024380:000000000000000000000000000000000000000000000000000000000000000000000000000000000000000000000000000000000000000000000000000000000000000000000000000000000000000000000000000000000000000000000000000000000000000000000000000000000000000000000000000000000000000000565300000000000000000000000000000000000000000000000000000000000000000000000000000000000000000000000000000000000000000000000000000000000000000000000000000000000000000000000000000000000000000000000000000000000000000000000000330000000000000000000000000000000000000000000000000000000000000000000000000000000000000000000000000000000000000000000000000000000000000000000000000000000000000000000000000000000000000000000000000000000000000000000000000000000000000000000000535600000000000000000000000000000000000000000000000000000000000000000000000000000000000000000000000000000000000000000000000000000000000000000000000000000000000000000000000000000000000000000000000000000000000000000000000000000000000000000000260000000000000000000000000000000000000000000000000000000000000000000000000000000000000000000000000000000000000000000000000000000000000000000000000000000000000000000000000000000000000000000000000000000000000000000000000000000000000000000000000000000000000000000000000000000000000000000000000000000000000000000000000000000000000000000000000000000000000000000000000000000000000000000000000000000000000000000000000000000000000000000000000000000000000000000000000000000000000000000000000000000000000000000000000000000000000000000000000000000000000000000000000000000000000000000000000000000000000000000000000000000000000000000000000000000000000000000000000000000000000000000000000000000000000000000000000000000000000000000000000000000000000000000000000000000000000000000000000000000000000000000000000000000000000000000000000000000000000000000000000000000000000000000000000000000000000000000000000000000000000000000000000000000000000000000000000000000000000000000000000000000000000000000000000000000000000000000000000000000000000000000000000000000000000000000000000000000000000000000000000000000000000000000000000000000000000000000000000000000000000000000000000000000000000000000000000000000000000000000000000000000000000000000000000000000000000000000000000000000000000000000000000000000000000000000000000000000000000000000000000000000000000000000000000000000000000000000000000000000000000000000000000000000000000000000000000000000000000000000000000000000000000000000000000000000000000000000000000000000000000000000000000000000000000000000000000000000000000000000000000000000000000000000000000000000000000000000000000000000000000000000000000000000000000000000000000000000000000000000000000000000000000000000000000000000000000000000000000000000000000000000000000000000000000000000000000000000000000000000000000000000000000000000000000000000000000000000000000000000000000000000000000000000000000000000000000000000000000000000000000000000000000000000000000000000000000000000000000000000000000000000000000000000000000000000000000000000000000000000000000000000000000000000000000000000000000000000000000000000000000000000000000000000000000000000000000000000000000000000000000000000000000000000000000000000000000000000000000000000000000000000000000000000000000000000000000000000000000000000000000000000000000000000000000000000000000000000000000000000000000000000000000000000000000000000000000000000000000000000000000000000000000000000000000000000000000000000000000000000000000000000000000000000000000000000000000000000000000000000000000000000000000000000000000000000000000000000000000000000000000000000000000000000000000000000000000000000000000000000000000000000000000000000000000000000000000000000000000000000000000000000000000000000000000000000000000000000000000000000000000000000000000000000000000000000000000000000000000000000000000000000000000000000000000000000000000000000000000000000000
#025320:0000001600000000
#025330:0000000000340000
#025340:00000022
#025381:0000001600000000
#025391:0000000000340000
#0253a1:00000022
#027321:0013
#027351:0000000000532300
#0273b0:0013
#027380:00000000000000000053002300000000
#028361:00130000
#028371:000000000000003300000000000000000000000000000000
#028351:000000000000000033333300000000000000000000000000
#028341:000000000000000000000033000000000000000000000000
#028321:0023
#0283b0:0013
#0283a0:000000000000000000000000003333333300000000000000
#028390:000000000000000000000000000000000033000000000000
#028370:00000023
#029320:0000001400000000
#029360:0000000000220000
#0293a1:0000001400000000
#029381:0000000000220000
#031321:000000000000001c
#032361:0034000000000000
#032341:00000038000000000000000000000000
#032321:002c0000
#034321:13
#034361:0023000000000000
#034370:13
#0343b0:0023000000000000
#034320:00130000
#034360:0000002300000000
#034371:00130000
#0343b1:0000002300000000
#034321:0013
#034361:0000000000230000
#034370:0013
#0343b0:0000000000230000
#034320:00000013
#034360:0000000000000023
#034371:00000013
#0343b1:0000000000000023
#0363b1:13
#036371:0023000000000000
#036360:13
#036320:0023000000000000
#0363b0:00130000
#036370:0000002300000000
#036361:00130000
#036321:0000002300000000
#0363b1:0013
#036371:0000000000230000
#036360:0013
#036320:0000000000230000
#0363b0:00000013
#036370:0000000000000023
#036361:00000013
#036321:0000000000000023
#037321:1300005333000000
#037361:0053330000532300
#037370:1300005333000000
#0373b0:0053330000532300
#038320:1300005333000000
#038360:0053330000532300
#038371:1300005333000000
#0383b1:0053330000532300
#039321:0000001400240000
#039360:0000000000140024
#039321:0000000000000014
#040361:0024000000000000
#0413b1:13230000
#041381:0053000000000000
#041350:13230000
#041320:0053000000000000
#0413b0:00001323
#041380:0000000000530000
#041351:00001323
#041321:0000000000530000
#0423b1:13333323
#042381:0053005300530000
#042350:13333323
#042320:0053005300530000
#043370:1300005333000000
#0433b0:0053330000532300
#044370:1300005333000000
#0443b0:0053330000532300
#045320:13230000
#045350:0033000000000000
#0453b1:0013000000000000
#045381:00230000
#045321:00001323
#045351:0000000000330000
#0453b0:0000000000130000
#045380:00000023
#0453b0:0000000000000013
#046380:23
#046351:13
#046321:0023000000000000
#0463a1:0000001400000000
#046381:0024
#046340:0014
#046320:0000000000240000
#047320:0000001400340000
#047330:0000000000000022
#047361:0000001800000000
#047381:0000000000340000
#047391:0000000000000022
#048371:0013000000000000
#0483b1:0000532300000000
#0533c1:12220000
#053360:12220000
#053320:00001222
#053381:00001222
#055321:0000000014000024
#055341:000000000000000000000000003400000000003400000000
#055351:000000000000003400000000
#055361:000000000000000000000000000000000000000000000000000000000000340034543400340000000000000000000000
#055331:000000000034
#057321:14240000
#057361:0053000000000000
#0573a0:00142400
#057370:0000005300000000
#057321:00001424
#057361:0000000000530000
#058371:13
#0583b1:0023000000000000
#058320:13
#058360:0023000000000000
#058370:0013
#0583b0:0000000000230000
#058321:0013
#058361:0000000000230000
#059351:0013
#059321:00000023
#059380:0013
#0593b0:00000023
#059370:0000000000000013
#0603b0:33
#060370:0023000000000000
#059321:0000000000000013
#060361:33
#060321:0023000000000000
#060361:0000001300230000
#060321:0033
#0603b0:0000001300230000
#060370:0033
#061360:14
#0613a0:0024000000000000
#061320:00140000
#061360:0000002400000000
#0613a0:00001424
#061380:0000000000330000
#061321:00001424
#061351:0000000000330000
#061321:0000000000000013
#062361:23
#061370:0000000000000013
#0623b0:23
#062320:0000001300000000
#062360:0023
#062371:0000001300000000
#0623b1:0023
#063351:0000001300230000
#063341:000000000033003300000000
#063331:000000000000000000000033003300000000000000000000
#063321:0033
#063380:0000000000130023
#063390:000000003333
#0633a0:000000000000000000000000000000000033003300000000
#0633b0:00000033
#064320:000000000000000000000000163636363636000000000000
#064350:00000023
#064381:000000000000000000000000163636363636230000000000
#065321:00000013
#066351:0053230000000000
#0653b0:00000013
#066380:0053230000000000
#0673b0:00130023
#067370:0033
#0683b0:00130000
#068370:0000005323000000
#068321:0013
#068351:0000000000532300
#068380:00000013
#0683b0:0000000000000053
#0693b0:23
#069320:00130023
#069360:0033
#070360:00130000
#070320:0023
#071370:00130023
#0713b0:0033
#072370:00130000
#0723b0:0000005323000000
#072361:0013
#072321:0000000000532300
#0723b0:00000013
#072370:0000000000000053
#073370:23
#073360:00130023
#073320:0033
#076340:00000000000000001200000000000022
#0763a1:00000000000000001200000000000022
