This file was generated by Ched 2.6.2.0.
#TITLE "hard"
#ARTIST ""
#DESIGNER ""
#DIFFICULTY 0
#PLAYLEVEL
#SONGID ""
#WAVE ""
#WAVEOFFSET 0
#JACKET ""
#REQUEST "ticks_per_beat 480"
#00002: 4
#BPM01: 155
#00008: 01
#TIL00: ""
#HISPEED 00
#MEASUREHS 00
#00515:00130000
#00512:1313
#00518:0013000000000000
#0051b:0000001300000013
#00510:41
#0061b:0000001300000000
#00615:1300000000000013
#00618:0013000000000000
#00612:00130000
#00818:0000000000130000
#00812:0013000000001300
#00815:0013
#0081b:0013000000000013
#00915:13130013
#00918:0013000013000000
#0091b:00130013
#00912:0013
#01015:00131300
#01018:0013000000000000
#01012:13
#0101b:0013
#01218:00131300
#0121b:13
#01215:0013000000000000
#01212:0013
#02212:0000000000000013
#0221b:00130000
#02218:0000000000000013
#02315:1300001300000013
#02318:0000001300001300
#0231b:13
#02415:00000000130000000000003434343434
#02418:0013000000000000
#02518:0014000000130013
#0251b:0000001300000000
#02512:0000001300130000
#02515:00000013
#0261b:0013000000130013
#02615:0013001300002300
#02618:00130000
#02718:00131300
#02715:0000001300000000
#02712:2300000000000013
#0271b:0000000000000013
#0281b:0013000000000000
#02815:00000000000013000033333300000000
#02812:0013
#02818:00130000
#03215:0000000000130013
#03218:00000013
#05712:00241400
#05718:0000240000140000
#05714:24000014
#0571a:24
#0571f:21
#0381b:0000000000000013
#03812:1414
#03815:00140000
#03817:1414
#0381a:00140000
#03912:13
#03918:0013000000000000
#03916:0000001300000000
#02912:0000001300000000
#0291b:0000001300130013
#02915:00000013
#02914:0014000000000000
#0291a:14
#0301b:0000000000130000
#03018:00130013
#03015:0000000000000013
#03012:0013001300000000
#01718:00000000130000000000001300000000
#0171b:2300001300000000
#01712:2300000000000013
#01715:0013000013000000
#0181b:0000130000000013
#01815:0000001300000000
#01812:0000000000000013
#02118:0013000000000000
#02115:0000001300000000
#02112:23130000
#0211b:23130000
#02110:41
#0131b:00130000
#01315:00130000
#01318:0013
#01312:0013
#01310:41
#0141b:00130013
#01415:0013000000001300
#01418:1313
#01412:0013
#00115:13130000
#00118:00001313
#00215:13130000
#00218:00001313
#00312:13130000
#00319:00001313
#00415:13130000
#0041b:00001313
#0711b:00130000
#07115:00130000
#07118:0013
#07112:0013
#06218:0000000000000013
#06315:13
#06312:0013000000000015
#06319:0000001300140015
#06314:0000001300000000
#06313:0000000000140000
#00714:0000000000001313
#00719:0000000000001313
#00718:13
#01112:00130013
#01115:0013
#01118:00130013
#0111b:0013
#01512:00130000
#01518:00130000
#01515:0013
#0151b:0013
#01612:00130000
#01618:0013000000000000
#01615:1313
#0161b:0013
#0191b:1300000000000013
#01915:00000000130000000000001300000000
#01912:1300001300000000
#01918:0013000013000000
#03315:00130013
#0331b:00130013
#03318:2313
#03312:2313
#03412:00140014
#03418:00140014
#0361a:00140014
#03614:00140014
#03515:1313
#0351b:1313
#03518:00130013
#03512:00130013
#03712:1414
#03715:00140000
#03717:1414
#0371a:00140000
#04012:0013000013002300
#04018:00001323
#0401b:0000130000130000
#04015:0000001300130000
#04118:0014000000140000
#04112:0014000000140000
#04114:2414
#0411a:2414
#04110:41
#04312:1414
#04317:1414
#04412:1414
#04415:00140000
#04417:1414
#0441a:00140000
#04212:0014000000140000
#04214:1414
#04218:0014000000140000
#0421a:1414
#0451a:0014000000140000
#04518:1414
#04514:0014000000140000
#04512:1414
#0461a:0014000000140000
#04618:1414
#04614:0014000000140000
#04612:1400000014000013
#0471b:13
#04715:0013000000000000
#04713:0000000000340000
#04719:0000000000340000
#0491b:13131313
#0491f:11
#04815:0000000013132300
#0481b:00001300000000000013001300000000
#04812:00130000
#04819:0000001300000000
#05012:1818000000000000
#05016:0000000018180000
#05112:13131313
#05216:1818000000000000
#05212:0000000018180000
#05215:0000000000000013
#0521b:0000000000000013
#05418:0013000000000013
#05412:13
#05415:0000001300130000
#0541b:0013
#05515:13
#05518:0013000000000000
#05516:0000000000000014
#05519:0000000000130000
#05514:0000000000130000
#05512:0000001300000000
#0551b:0000001300000000
#05318:0000000000000013
#05618:0000000000131300
#05615:00000000000000000000001300000000
#05814:0000000000000014
#0581a:0000000000000014
#05810:41
#0591a:00241400
#05914:0000240000140000
#05918:24000014
#05912:24
#06018:0024000000240014
#06012:0024000000240014
#06112:00241400
#06118:0000240000140000
#06114:24000014
#0611a:24
#06415:0013000000000000
#06418:00000000130000000016001600000000
#0641b:0000001300000000
#06412:0000000016161600
#0651b:2300002300001300
#06515:2300002300001300
#06518:00000023000000000023000000000000
#06512:00000023000000000023000000000000
#0671b:23130013
#06718:0013
#06715:23130013
#06712:0013
#06815:00131300
#0681b:0013130013000000
#06812:13
#06818:13
#06912:00130013
#06915:0013
#06918:00130013
#0691b:0013
#07018:00131300
#07012:0013130013000000
#0701b:13
#07015:13
#07215:0013130000001300
#07212:1313
#07218:1313
#0721b:00130013
#07312:00130000
#07318:00130000
#07315:0013
#0731b:0013
#07418:0013130000001300
#0741b:1313
#07415:1313
#07412:00130013
#07618:13130000
#07615:0013000000000000
#07513:00131313
#0751a:00131313
#03115:00000000000000130000000000000000
#03112:1333333333333300
#0311b:00000000000000130000000000000000
#03118:1333333333333300
#03110:41
#02012:00130000
#02018:0000001300000000
#06614:0000000028280000
#02558:0014000000000013
#02552:14
#02655:0000001300000000
#02852:0063
#02758:0063
#01758:00000000000000000000001300000000
#01752:0000000000000053
#01855:0000006300000000
#02455:00130000
#02458:0013000000000000
#02355:0000006300000000
#02358:0000005300000000
#0065b:0000002300000000
#00552:0023
#03052:0000001300000000
#00852:0053000000000000
#0085b:0063000000000000
#0105b:0053
#01055:0053
#01258:0053
#01252:0053
#01358:0053
#01352:0053
#01955:00000000000000000000001300000000
#0195b:0000000000000063
#02954:0014000000000000
#0295a:14
#0295b:0000000000000013
#03352:1313
#03358:1313
#03355:00130013
#0335b:00130013
#03452:00540054
#03458:00540054
#0365a:00640064
#03654:00640064
#03555:1313
#0355b:1313
#03558:00130013
#03552:00130013
#03752:5454
#03755:00640014
#03757:5454
#0375a:00640014
#03852:5454
#03855:00640000
#03857:5454
#0385a:00640000
#03956:0000006300000000
#03958:0000000000000013
#03952:0000000000000013
#04158:0024000000240000
#04152:0024000000240000
#04154:54445444
#0415a:54445444
#04352:5454
#04355:00140014
#04357:5454
#0435a:00140014
#04452:5454
#04455:00640014
#04457:5454
#0445a:00640014
#04252:0024000000240000
#04254:54445444
#04258:0024000000240000
#0425a:54445444
#0455a:0024000000240000
#04558:64346434
#04554:0024000000240000
#04552:64346434
#0465a:0024000000240000
#04658:64346400
#04654:0024000000240000
#04652:64346400
#04754:0000000000000012
#0475a:0000000000000012
#05658:00000013
#0575a:14
#05754:14
#05752:00140000
#05758:00140000
#0585a:0014000000140000
#05854:0014000000140000
#05952:14
#0595a:00140000
#05958:14
#05954:00140000
#0615a:14
#06152:00140000
#06154:14
#06158:00140000
#06352:0000000000000015
#06359:0000000000000015
#0655b:00000053
#06555:00000053
#0685b:0053
#06855:0053
#03152:53
#03155:00000000000000230000000000000000
#0315b:00000000000000230000000000000000
#03158:53
#03252:00430000
#03258:00430000
#01458:0053
#01452:0053
#01455:00000023
#0145b:00000023
#01555:0063
#0155b:0063
#01655:0063
#0165b:0063
#02058:0000005300000000
#06258:0014000000000000
#06252:0014000000000000
#06254:0000000000140000
#0625a:0000000000140000
#07258:0053
#07252:0053
#07255:00000023
#0725b:00000023
#07455:0063
#0745b:0063
#07458:00000023
#07452:00000023
#07052:0063
#07058:0063
#07158:0053
#07152:0053
#07355:0063
#0735b:0063
#05556:0000000000000014
#06052:0014000000140000
#06058:0014000000140000
#000380:00001323
#005320:0013
#005350:00000000000000000000002300000000
#0063b0:0000001300000000
#006380:0000000000230000
#007320:0000001300230000
#0073b1:0000001300230000
#008321:0013000000000000
#008351:0000002300000000
#0083b0:0013000000000000
#008380:0000002300000000
#0103b0:0013
#011380:23
#010351:0013
#011321:23
#012321:0013
#013351:23
#012380:0013
#0133b0:23
#013380:0013
#0133b0:00000023
#013321:0013
#013351:00000023
#014381:0013
#0143b1:00000053
#015381:23
#014320:0013
#014350:00000053
#015320:23
#015350:0013
#015320:00000023
#0153b1:0013
#015381:00000023
#016351:0013
#016321:00000023
#0163b0:0013
#016380:00000023
#017320:0000000000000013
#018350:0023000000000000
#018350:0000001300000000
#018320:0000000000230000
#0193b0:0000000000000013
#020380:0023000000000000
#020380:0000001300000000
#0203b0:0000000000230000
#0213b0:0013
#021380:00000000000000000000002300000000
#021320:0000000000000013
#022350:0023000000000000
#0223b0:0000001300000000
#022380:0000000000230000
#023350:0000001300000000
#023320:0000000000230000
#023381:0000001300000000
#0233b1:0000000000230000
#024351:00000000000000000000143434343434
#025321:24
#027381:0013
#0273b1:00000000000000000000002300000000
#028321:0013
#028351:00000000000000000033333323000000
#031321:1333333333333333
#031351:00000000000000530000000000000000
#032321:00230000
#031380:1333333333333333
#0313b0:00000000000000530000000000000000
#032380:00230000
#034320:1424000000000000
#034381:1424000000000000
#034321:00140000
#034341:0000002400000000
#034380:00140000
#0343a0:0000002400000000
#034320:0000000014240000
#034381:0000000014240000
#034321:00000014
#034341:0000000000000024
#034380:00000014
#0343a0:0000000000000024
#0363a0:1424000000000000
#036341:1424000000000000
#0363a1:00140000
#036381:0000002400000000
#036340:00140000
#036320:0000002400000000
#0363a0:0000000014240000
#036341:0000000014240000
#0363a1:00000014
#036381:0000000000000024
#036340:00000014
#036320:0000000000000024
#037320:1434
#037350:00340024
#037371:1434
#0373a1:00340024
#038321:1434
#038351:00340024
#038370:1434
#0383a0:00340024
#039360:0000001300000000
#039320:0000000000530023
#039381:0000000000130023
#0413a1:14240000
#041381:0054000000000000
#041340:14240000
#041320:0054000000000000
#041340:00001424
#041320:0000000000540000
#0413a1:00001424
#041381:0000000000540000
#042341:14240000
#042321:0054000000000000
#0423a0:14240000
#042380:0054000000000000
#042340:00001424
#042320:0000000000540000
#0423a1:00001424
#042381:0000000000540000
#043321:14
#043351:0054240000000000
#043370:14
#0433a0:0054240000000000
#043320:0014
#043350:0000000000542400
#043371:0014
#0433a1:0000000000542400
#044321:14000000000000543400000000000000
#044351:00000054340000000000005424000000
#044370:14000000000000543400000000000000
#0443a0:00000054340000000000005424000000
#045380:14240000
#0453a0:0054000000000000
#045321:14240000
#045341:0054000000000000
#045381:00001424
#0453a1:0000000000540000
#045320:00001424
#045340:0000000000540000
#046380:14240000
#0463a0:0054000000000000
#046321:14240000
#046341:0054000000000000
#046381:00001424
#0463a1:0000000000540000
#046320:00001424
#046340:0000000000540000
#047320:0000001600000000
#047330:0000000000340000
#047340:0000000000000022
#047381:0000001600000000
#047391:0000000000340000
#0473a1:0000000000000022
#0533b1:13230000
#053350:13230000
#053320:00001323
#053381:00001323
#0573a1:0000000000000014
#0583a1:3424000000000000
#057340:0000000000000014
#058340:3424000000000000
#0583a0:0000001434240000
#058341:0000001434240000
#059321:0000000000000014
#060321:3424000000000000
#059380:0000000000000014
#060380:3424000000000000
#060320:0000001434240000
#060381:0000001434240000
#0613a1:0000000000000014
#062381:3424000000000000
#061340:0000000000000014
#062320:3424000000000000
#062320:0000001400000000
#062340:0000000034240000
#062381:0000001400000000
#0623a1:0000000034240000
#0653b1:00000013
#066381:53230000
#065350:00000013
#066320:53230000
#0683b0:0013
#069380:23
#068351:0013
#069321:23
#070321:0013
#071351:23
#070380:0013
#0713b0:23
#071380:0013
#0713b0:00000023
#071321:0013
#071351:00000023
#072381:0013
#0723b1:00000053
#073381:23
#072320:0013
#072350:00000053
#073320:23
#073350:0013
#073320:00000023
#0733b1:0013
#073381:00000023
#074351:0013
#074321:00000053
#075351:23
#0743b0:0013
#074380:00000053
#0753b0:23
#076350:00000000000000001300000000000023
