This file was generated by Ched 2.6.2.0.
#TITLE "master"
#ARTIST ""
#DESIGNER ""
#DIFFICULTY 0
#PLAYLEVEL
#SONGID ""
#WAVE ""
#WAVEOFFSET 0
#JACKET ""
#REQUEST "ticks_per_beat 480"
#00002: 4
#BPM01: 155
#00008: 01
#TIL00: ""
#HISPEED 00
#MEASUREHS 00
#0061b:0000000000000013
#00612:0000000000000013
#00615:00000013
#00618:00000013
#0081b:0013000000000000
#00817:0013000000000000
#00812:14130000
#01015:0013130000000000
#01012:1300001300001300
#0101b:13131300
#01017:0000001313000000
#01018:00130013000000000000000000000000
#01016:00000013
#01014:0000000000130000
#00917:00001313
#0091b:0013
#00912:00130000
#00919:0000001300130000
#00915:0000000000000014
#01612:13131600
#01615:00130013000000000000000000000000
#0161b:1300131300000000
#01618:0013000016000000
#01616:0000001300000000
#0191b:1313
#01916:00130000
#01912:00131300
#01912:0013
#01917:13
#01914:0013001300000000
#01919:0013001300000000
#01915:0000000000000013
#01918:0000000000000013
#02214:0000130000000013
#02212:1200001400000000
#02216:0000001414000000
#0221a:0014
#02219:0000130000000013
#02217:12
#0241b:00000000000000000000001300000000
#02418:00000000000000000000130000130000
#02415:00000000000000000000000013000013
#02412:0000000000000013
#02516:0000000000000013
#02512:2616000000000013
#02518:1626002600000000
#02513:0000002400140000
#02519:0000000000340000
#02616:0000131300000000
#02618:00000000000000000000130026000013
#02612:00000013
#0261b:000000000013000000000000000000000000000000000000
#02615:00000000000000000000001300001300
#02819:1300001300130000
#02816:000000130000000000001300000013000000000000000000
#02812:0013130000001300
#02817:000000000000001300000000000000000013000000000000
#02814:131313
#0281b:000000000000000000000013001300000000000000000000
#02818:0013
#03118:12000012000013001400001416001600
#03116:1212000000000000
#0311b:00130000
#03115:00000000130000130000000000000000
#03112:0000000014001616
#03114:0000000000140000
#03110:41
#03216:00001200000000000000141400000000
#03212:00000014
#03215:0000000000000013
#03218:00001234000000000000000000001300
#0321a:00000014
#03214:00000034000000000000000000000000
#05612:000000000000000000001c1c1c000000
#0521a:0000000000000012
#05214:0000000000000012
#05218:1616000000000000
#05212:0000000016160000
#05315:0000000000000012
#0531c:1200000012121212
#05312:2212121212000000
#05417:1212
#05419:0012001200000000
#05415:0000000000120000
#0541c:0000000012121212
#05416:0000000000000012
#05412:1212121200000000
#0551a:120000000000001200000000
#05512:000000120000000000000000000000000000001200120000
#05515:0000001200000000
#05519:0000001200000000
#05518:000000120000000000000000001200001200000000000000
#0551c:0012
#05516:0000000000121200
#05514:120000000000000000000000000000000012000012000000
#0571a:24240014
#05712:2400001314000014
#05714:00000000000000000000000000000014
#0571b:0013000000130000
#05718:0023000000130000
#05715:0000002300000000
#0571f:21
#05818:00140000000000000014000000001300
#05815:0000000000000013
#05816:1414
#0581a:0014000000140000
#05812:0000131400001300
#05817:00130013
#05814:00000000000000140000000000000000
#05810:41
#03312:24141414
#03317:24141414
#03315:0014001400140014
#0331a:0014001400140014
#03412:13131313
#03416:13131300
#03417:0013001300001300
#0341b:0013001300000000
#03414:0000000000000013
#03419:0000000000000013
#0381b:0000000013000013
#03817:0000000013001313
#03812:13130013
#03816:13130000
#03915:13
#03912:0013001300000013
#03916:0013001300001300
#03917:0000000013130000
#0391b:00001313
#03918:13
#04017:13
#04014:0000130000180000
#04016:0013001314000000
#0401a:0000001300000000
#04018:00130000
#04015:00000000000000000016000000000000
#04013:00000000000000000000001a00000000
#0401b:13
#04012:0000002c
#04312:13131313
#04313:0013001300130013
#04316:1313
#0431b:00130013
#04412:13131313
#04413:0013001300130013
#04416:1313
#0441b:00130013
#04917:00000012
#04916:0014
#04914:00180000
#04912:1c
#0491f:11
#04612:0013000000130013
#0461b:0000001300000013
#04614:00130000
#04619:00130000
#04716:14
#0471b:0013000000000000
#04712:0013000000340000
#04717:0000000000360000
#06014:0000000000000013
#06019:0000000000000013
#06016:0023130000231300
#0601b:00130013
#06012:0023000000230000
#0271b:1300000000000013
#02717:0000001200000013
#02716:0013000000000000
#02719:00000013000000000000000000000000
#02715:00000000000000160000001616000000
#02712:26
#03015:0000000000130000
#0301b:00000013
#03014:0000000000000013
#03018:00000000000000000000001300000000
#03012:0000001300001300
#03016:00130000
#03017:1300001300000000
#03019:0000000000000013
#07615:12120000
#07612:0012000012000000
#07619:12120000
#0761c:0012000012000000
#07618:0000000000000000000000000000000000000000000000120000000000000000
#07616:0000000000000000000000000000000000000000000000120000000000000000
#07518:00000012
#07512:00120000
#0751c:00120000
#0751a:0012
#07514:0012
#07516:00000012
#07515:1212000000000000
#07519:1212000000000000
#02117:0000000000000012
#02116:24140000
#02115:0013
#02112:00000000000000000000001300000000
#0211a:0000001200000000
#02114:0012000000000000
#0211b:00000000000000000000001300000000
#02118:0013
#0211c:0000000000000012
#02110:41
#00418:0012
#00416:00000000000000000000141400000000
#00417:12
#0041c:0000001200000000
#00412:00001313
#0041b:00000013
#0071b:0013001300000000
#00715:1300000000130000
#00718:13000000000000000000130000140000
#00712:0013001300000000
#0071a:00000014
#00716:0000000000000014
#00714:00000000000000000000000000000014
#0741b:1313000013130000
#07418:00130000000000000013000000000000
#07415:00000016001300160000001600000000
#07412:0000131300002300
#00013:0000000000000000000000000000000000130013001300130013001300130013
#00014:00000000000000000013001300130013
#00012:0000000013131313
#00116:0012001200120012
#00112:00121200
#00118:12121200
#0011c:0012001200000012
#00114:00000000000000000000001200000000
#00216:0012001200000013
#0021b:0012000000000013
#00218:00000000120000000012000000000000
#0021c:0000001200000000
#00212:12120000
#0021a:0000000000120000
#00318:12121200
#0031c:0012001200000012
#0201a:0000130000140000
#02013:00130000
#02015:00000000000000000000000016160000
#02018:0000001200000000
#02016:0000001200000000
#02012:0000000000140000
#0351a:14141414
#03515:14141414
#03517:0014001400140014
#03512:0014001400140014
#03712:13130000
#03716:13130000
#0371b:00001313
#03717:00001313
#03619:0000000000000013
#03614:0000000000000013
#0361b:13131313
#03617:13131300
#03616:0013001300001300
#03612:0013001300000000
#05117:00000012
#05116:0014
#05114:00180000
#05112:1c
#06212:1600001500000000
#06214:00140000000000150000000000000000
#06215:0016
#06217:00000000000000000015000000000000
#06219:0000000000150000
#06218:16140000000000000000000000000000
#06418:0013000000000000
#06415:0013000000000000
#06416:00140000
#0641b:0000001300000000
#06412:000000000000000000000000130000001c3c3c3c000000000000000000000000
#06417:0000000000000000000000000000000000000000123232320000000000000000
#06519:00000015
#06516:26000013000000000000000000000000
#06515:0000001500000000
#06512:1400000000002200002c000015000000
#0651a:00000024000000000000000000000000
#01116:00131313
#01112:0013
#0111b:00130000
#01114:0000001300130000
#01117:0000000000000014
#01218:0013130000000000
#0121b:1300001300000000
#01212:13131318
#01215:00130013000000000000000000000000
#01216:0000001313180000
#01418:00130013000000000000130000000000
#01412:1300131300001300
#01417:0000001313000000
#0141b:13131300
#01416:00000013
#01415:0013000000000000
#0131b:00130013
#01312:0013
#01317:00131300
#01319:2400001300130000
#01315:0000000000000013
#01318:0000000000000013
#01313:24
#01310:41
#06817:0012001300130013
#0681b:1300131300130013
#06812:13131313
#06819:00000012000000000000000000000000
#06815:00120000000000000033003300330033
#06816:0013
#06717:00140014
#06715:0000000013000016
#06712:0013
#0671b:00130000
#06714:0000001300130000
#06713:24
#06719:24
#07012:1300131300161600
#07019:00120000000000001300000000000000
#07014:0013
#07018:0000000000161600
#07017:0012000000000000
#0701b:13130000
#07015:00000012000000000000000000000000
#07016:0000001300000000
#07112:00130013
#0711b:0013
#07117:0013
#07116:00130000
#07114:0000001300130014
#07118:0000000000000014
#07113:24
#07119:24
#04112:0013001300130013
#04115:23131313
#04118:1300001300130000
#0411b:0013000013000013
#04110:41
#04215:13131313
#04212:0013001300130013
#04218:1300001300130000
#0421b:0013000013000013
#0451b:1300000013000013
#04517:1313
#04512:00130013
#04515:0013000000130000
#04514:0000001300000000
#04519:0000001300000000
#02917:0000000000000013
#0291b:0000000000000013
#02918:2616000000000000
#02912:1626000000000000
#04812:001c
#04814:0000000000180000
#04813:0000000000000000001a000000000000
#04815:00000000330000000000001600000000
#04816:00000024
#04819:00330000
#06115:00130000000000000000001800000000
#06114:00001300000000000000180000000014
#06118:00000000000013000000000000000014
#06117:00000013000000000000000000000000
#06119:00000000001300000000000000000000
#0611b:00000000000000130000000000001300
#06112:2300000018000013
#06113:00000000000000000018000000000000
#06116:00130018
#07217:0012000013000000
#07212:1300131300130013
#0721b:13131313
#07219:00000012000000000000000000000000
#07215:00120000000000000000000000000000
#07216:0000001300130013
#07218:00000000000000000033003300330033
#01814:0000140000000013
#0181a:00120000
#01818:1200001200000000
#0181c:0012
#01812:1400001400000000
#01816:0014
#01819:0000000000000013
#0171a:0012001200000000
#01718:00000000120000000000001200000000
#01712:00140014
#01714:0014001400000000
#0171c:2200000012000012
#01716:2400000014000014
#02318:0000001300000000
#02315:000000000000000000130000000000000000360016000000
#02317:000000000000000000000000000000000000001200000000
#02314:000000000000000000000000000000000018000000000000
#01512:00130013
#0151b:0013
#01516:00131300
#01514:0000001300130000
#01518:0000000000000013
#01515:0000000000000013
#0631b:0000001300000000
#06316:0013
#06317:00000013
#06312:0000000000000013
#06612:0000000016260000
#06618:0000000026160000
#06915:0000140000001416
#06918:0013
#0691b:0013
#06912:00130000
#06919:0000001300130000
#0731b:00130013
#07312:0013
#07316:0013
#07317:00130000
#07319:0000001300130000
#07318:0000000000000014
#07314:0000000000000014
#05916:2222
#05918:2222
#0591a:0022002200000000
#05914:0022002200000000
#0591c:00220000
#05912:00220000
#05014:2424000000000000
#05018:2424000026260000
#05012:0000000026260000
#00510:41
#03258:0022460000000000
#03252:00360000
#03256:0022000000000000
#05752:54346400
#0575a:44644400
#05758:0023000000230000
#05755:0000002300000000
#03352:44444444
#03357:44444444
#03452:53535300
#03456:53535300
#03457:0023002300330000
#0345b:0023002300330000
#04352:13131313
#04356:5353
#0435b:00530053
#04452:13131313
#04456:5353
#0445b:00530053
#03952:0000005300000063
#03957:0000000023630000
#0395b:00000023
#04753:0000000000000012
#04759:0000000000000012
#01652:00135600
#01658:0066
#02157:0000000000000052
#0215c:0000000000000052
#02252:2200006400000000
#02256:0000006424000000
#0225a:0024
#02257:22
#0105b:0053
#01056:00000023
#01057:0013
#01052:00000023
#01055:00130000
#00957:00435343
#00952:00230000
#0095b:0043
#00755:53
#00752:0023000000000000
#00758:63
#0075b:0023000000000000
#00857:0053000000000000
#00852:00230000
#05956:3252
#05958:4252
#0595c:00420000
#05952:00320000
#00053:0000000000000000000000000000000000630053006300530063005300630053
#00054:00000000000000000023002300230023
#00052:0000000023232323
#02552:0036000000000053
#02558:4600005600000000
#02556:0000000000000043
#02553:0000000000540000
#00358:0052
#0035c:0000000000000052
#02852:00000033
#03152:0000000034000056
#03158:0000000000004656
#0315b:00430000
#03156:32
#0355a:34343434
#03555:34343434
#03752:5300530000430043
#03756:5300530000430043
#03757:0033003363005300
#0375b:0033003363005300
#04652:0033000000330000
#0465b:0000003300000000
#06259:0000000000450000
#06252:6633000000000000
#06258:56240000000000000000000000000000
#06254:00240000000000000000000000000000
#0625b:0043000000000000
#06559:00000065
#06552:0000000000000000004c000055000000
#06556:36000043000000000000000000000000
#06555:0000003500000000
#0535c:62
#05352:0062
#01156:00336333
#0115b:00230000
#01152:0033
#01352:0053
#01357:00234300
#0135b:00430043
#01457:0053
#01452:00000023
#0145b:00131300
#01456:00000023
#06755:0063
#0675b:00230000
#06757:00340034
#06752:0033
#06852:00006363
#06857:0000000000230023
#06856:00004343
#0685b:0000000000230023
#0715b:0063
#07156:00230000
#07152:00330033
#07157:0033
#07656:0000000000000000000000000000000000000000000000220000000000000000
#07658:0000000000000000000000000000000000000000000000220000000000000000
#07652:0052
#0765c:0052
#0195b:1363
#01952:00135300
#01952:0053
#01957:13
#01956:00130000
#01955:00000000000000000000001300005300
#01955:00000000000000000000001300000000
#01958:00000000000000000000001300006300
#0365b:63636300
#03657:63636300
#03656:0023002300430000
#03652:0023002300430000
#04152:0043000000430000
#04155:3333
#04158:6300000000230000
#0415b:0023000063000000
#04255:3333
#04252:0043000000430000
#04258:6300000000230000
#0425b:0023000063000000
#0455b:3300000033000033
#04552:00330033
#00457:22
#01252:00001338
#01256:0000000000480000
#01258:00130000
#02452:00160000
#02458:00160000
#0265b:000000000023000000000000000000000000000000000000
#02656:0000234300000000
#02657:0033000000000000
#03052:0013000000000000
#03057:0000001300000000
#02957:0000000000000063
#0295b:0000000000000013
#02958:0046000000000000
#02952:36
#04057:23
#04052:0000001c
#04856:00000014
#06152:0000000000000063
#06158:00000000000000000000000000000024
#0615b:0000000000000053
#06154:00000000000000000000000000000024
#06952:33230000
#06956:43
#06955:00440044
#06958:0053
#0695b:0043
#07052:0000000000364600
#07058:0000000000364600
#00158:62626200
#0015c:0062006200000000
#00156:0000000000000052
#02056:0000001200000000
#02052:0013000000140000
#02058:0000001200000000
#0205a:0000000000140000
#0205b:0013000000000000
#01858:2200005200000000
#0185c:0022
#01856:0024
#01852:2400006400000000
#0585a:0044000000440000
#00252:52520000
#00256:0052005200000000
#02355:000000000026
#02357:000000000000000000000000000000000000006200000000
#02354:000000000000000000000000000000000028000000000000
#05552:0000000000000032
#07452:00000033
#01552:00330033
#0155b:0063
#01556:00233300
#0175c:0000000000000062
#01756:0000000000000054
#03852:5300530000430000
#03856:5300530000430000
#03857:0033003363000000
#0385b:0033003363000000
#05258:1616000000000000
#06452:00006c1c
#06457:0000000000220000
#0725b:00005353
#07256:0000000000230023
#07257:00003333
#07252:0000000000230023
#0735b:43430043
#07357:33230000
#07352:0053
#07356:0043
#05652:0000001c
#06052:0043000000430000
#06056:0043000000430000
#02757:0000005242000000
#02755:00000000000000260000000000000000
#0635b:0000003300000033
#06352:0000000000430033
#000320:0000000013333333
#000330:0000000000000000000000000000000000330033003300330033003300330033
#000340:00000000000000000033003300330033
#001320:23
#001381:12323200
#0013c1:00003200000032000000002200000000
#001361:0000000000000012
#002321:3200320000220000
#002361:0032003200000000
#003321:1323000000000000
#003321:0000132300000000
#003381:0012
#0033c1:00000000000000000000002200000000
#003320:0000000013230000
#003321:0000000000001323
#0033c0:0000000000000012
#004370:52
#0043c0:0022000000000000
#004321:1323000000000000
#004321:0000132300000000
#005321:13
#0053b1:0023000000000000
#0053b0:13
#005320:0023000000000000
#005320:00130000
#0053b0:0000002300000000
#0053b1:00130000
#005321:0000002300000000
#005321:0013
#0053b1:0000000000230000
#0053b0:0013
#005320:0000000000230000
#005320:00000013
#0053b0:0000000000000023
#0053b1:00000013
#005321:0000000000000023
#006321:13
#0063b1:0023000000000000
#0063b0:13
#006320:0023000000000000
#006320:00130000
#0063b0:0000002300000000
#0063b1:00130000
#006321:0000002300000000
#006321:0013
#0063b1:0000000000230000
#0063b0:0013
#006320:0000000000230000
#007350:13230000
#007320:0053000000000000
#007381:13230000
#0073b1:0053000000000000
#008371:0013000000000000
#008321:00530000
#008361:0000002300000000
#008390:0000001500000000
#0083b0:000000000000000000000000000000000000000000000000000000000000000000000000000000000000000000000000000000000000000000000000000000000000000000000000000000000000000000000000000000000000000000000000000000000000000000000000000000000000000000000000000000000000000000000000000000000000000000000000000000000000000000000000000000000000000000000000000000000000000000000000005300000000000000000000000000000000000000000000000000000000000000000000000000000000000000000000000000000000000000000000000000000000000000000000000000000000000000000000000000000000000000000000000000000000000000000000000000000000000000000000000000000000000000000000000000000000000000000000000000000000000000000000000000000000000000000000000000000000000000000000000000000000000000000000000000000000000000000000000000000000000000000000000000000000000000000000000000000000000000000000000000000000000000000000000000000000000000000000000000000000000000000000000000000000000000000000000000000000000000000000
#0083a0:0023
#008351:000000000000000000000000000000000000000000000000000000000000000000000000000000000000000000000000000000000000000000000000000000000000000000000000000000000000000000000000000000000000000000000000000000000000000000000000000000000000000000000000000000000000000000000000000000000000000000000000000000000000000000000000000000000000000000000000000000000000000000000000000000000000000000000000000000000000000000000000000000000000000000000000000000000000000000000000000000000000000000000000155300000000000000000000000000000000000000000000000000000000000000000000000000000000000000000000000000000000000000000000000000000000000000000000000000000000000000000000000000000000000000000000000000000000000000000000000000000000000000000000000000000000000000000000000000000000000000000000000000000000000000000000000000000000000000000000000000000000000000000000000000000000000000000000000000000000000000000000000000000000000000000000000000000000000000000000000000000000000000000000
#008341:0000000000230000
#008370:0000000000150000
#008390:000000000000000000000000000000000000000000000000000000000000000000000000000000000000000000000000000000000000000000000000000000000000000000000000000000000000000000000000000000000000000000000000000000000000000000000000000000000000000000000000000000000000000000000000000000000000000000000000000000000000000000000000000000000000000000000000000000000000000000000000000000000000000000000000000000000000000000000000000000000000000000000000000000000000000000000000000000000000000000000000000000000000000000000000000000000000000000000000000000000000000000000000000000000000000000000000000000000000000000000000005300000000000000000000000000000000000000000000000000000000000000000000000000000000000000000000000000000000000000000000000000000000000000000000000000000000000000000000000000000000000000000000000000000000000000000000000000000000000000000000000000000000000000000000000000000000000000000000000000000000000000000000000000000000000000000000000000000000000000000000
#008380:00000023
#008331:000000000000000000000000000000000000000000000000000000000000000000000000000000000000000000000000000000000000000000000000000000000000000000000000000000000000000000000000000000000000000000000000000000000000000000000000000000000000000000000000000000000000000000000000000000000000000000000000000000000000000000000000000000000000000000000000000000000000000000000000000000000000000000000000000000000000000000000000000000000000000000000000000000000000000000000000000000000000000000000000000000000000000000000000000000000000000000000000000000000000000000000000000000000000000000000000000000000000000000000000000000000000000000000000000000000000000000000000000000000000000000000000000000000000000000000000000000000000000000000000155300000000000000000000000000000000000000000000000000000000000000000000000000000000000000000000000000000000000000000000000000000000000000000000000000000000000000000000000000000000000000000000000000000000000000000000000000000000000000000000
#008321:000000000000000000000000000000000000000000000000000000000000000000000000000000000000000000000000000000000000000000000000000000000000000000000000000000000000000000000000000000000000000000000000000000000000000000000000000000000000000000000000000000000000000000000000000000000000000000000000000000000000000000000000000000000000000000000000000000000000000000000000000000000000000000000000000000000000000000000000000000000000000000000000000000000000000000000000000000000000000000000000000000000000000000000000000000000000000000000000000000000000000000000000000000000000000000000000000000000000000000000000000000000000000000000000000000000000000000000000000000000000000000000000000000000000000000000000000000000000000000000000000000000000000000000000000000000000000000000000000000000000000000000000000000000000000000000000000000000000000000000000000000000000000000000000000000000000000000000000000000000000000000000000000000000000000000000000000000000000000000000000000000000000000000000000000000000000000000000000000000000000000000000000000000000000000000000000000000000000000000000000000000000000000000000000000000000000000000000000000000000000000000000000000000000000000000000000000000000000000000000000000000000000000000000000000000000000000000000000000000000000000000000000000000000000000000000000000000000000000000000000000000000000000000000000000000000000000000000000000000000000000000000000000000000000000000000000000000000000000000000000000000000000000000000000000000000000000000000000000000000000000000000000000000000000000000000000000000000000000000000000000000000000000000000000000000000000000000000000000000000000000000000000000000000000000000000000000000000000000000000053260000000000000000000000000000000000000000000000000000000000000000000000000000000000000000000000000000000000000000000000000000000000000000000000000000000000000000000000000000000000000000000000000000000000000000000000000000000000000000000000
#008380:0000000000000016
#0083b0:000000000000000000000000000000000000000000000000000000000000000000000000000000000000000000000000000000000000000000000000000000000000000000000000000000000000000000000000000000000000000000000000000000000000000000000000000000000000000000000000000000000000000000000000000000000000000000000000000000000000000000000000000000000000000000000000000000000000000000000000000000000000000000000000000000000000000000000000000000000000000000000000000000000000000000000000000000000000000000000000000000000000000000000000000000000000000000000000000000000000000000000000000000000000000000000000000000000000000000000000000000000000000000000000000000000000000000000000000000000000000000000000000000000000000000000000000000000000000000000000000000000000000000000000000000000000000000000000000000000000000000000000000000000000000000000000000000000000000000000000005300000000000000000000000000000000000000000000000000000000000000000000000000000000000000000000000000000000000000000000
#0093a0:23
#009341:165300000000000000000000000000000000000000000000000000000000000000000000000000000000000000000000000000000000000000000000000000000000000000000000000000000000000000000000000000000000000000000000000000000000000000000000000000000000000000000000000000000000000000000000000000000000000000000000000000000000000000000000000000000000000000000000000000000000000000000000000000000000000000000000000000000000000000000000000000000000000000000000000000000000000000000000000000000000000000000000000000000000000000000000000000000000000000000000000000000000000000000000000000000000000000000000000000000000000000000000000000000000000000000000000000000000000000000000000000000000000000000000000000000000000000000000000000000000000000000000000000000000000000000000000000000000000000000000000000000000000000000000000000000000000000000000000000000000000000000000000000000000000000000000000000000000000000000000000000000000000000000000000000000000000000000000000000000000000000000000
#009331:0023000000000000
#009360:0015000000000000
#009380:000000000000000000000000000000000000000000000000000000000000000000000000000000000000000000000000000000000000000000000000005300000000000000000000000000000000000000000000000000000000000000000000000000000000000000000000000000000000000000000000000000000000000000000000000000000000000000000000000000000000000000000000000000000000000000000000000000000000000000000000000000000000000000000000000000000000000000000000000000000000000000000000000000000000000000000000000000000000000000000000000000000000000000000000000000000000000000000000000000000000000000000000000000000000000000000000000000000000000000000000000000000000000000000000000000000000000000000000000000000000000000000000000000000000000000000000000000000000000000000000000000000000000000000000000000000000000000000000000000000000000000000000000000000000000000000000000000000000000000000000000000000000000000000000000000000000000000000000000000000000000000000000000000000000000000000000000000000000000000000000
#009370:00230000
#009321:00130023
#009371:0033
#0103b1:0013
#010361:00000053
#0113b1:23
#010320:00000013
#011370:23
#0113b0:00130023
#011360:0033
#013370:00130023
#013320:0033
#014370:0013
#014320:00000053
#015370:23
#014361:00000013
#0153b1:23
#015361:00130023
#0153b1:0033
#016321:0016
#016361:00000022
#016380:00001622
#0173c0:0000000000000012
#018380:52
#0183c0:0022000000000000
#017361:0000000000000014
#018321:54
#018361:0024000000000000
#018381:0000001200220000
#0183c1:0052
#018320:0000001400240000
#018360:0054
#019320:0013
#019350:00000000000000000053002300000000
#019321:0013
#019351:00000000000000000053002300000000
#0193b2:0013
#019382:00000000000000000053002300000000
#019351:0000000000000013
#019321:00000000000000000000000000000053
#020321:0023000000000000
#019382:0000000000000013
#0193b2:00000000000000000000000000000053
#0203b2:0023000000000000
#0213b2:13
#021372:0023000000000000
#021322:00130000
#021362:0000002300000000
#021372:0000000000000012
#022322:52
#022372:0022000000000000
#0213c1:0000000000000012
#022371:52
#0223c1:0022000000000000
#022321:0000001400240000
#022361:0054
#022362:0000001400240000
#0223a2:0054
#023382:16260000
#023321:16260000
#023341:000000000000000000000000000000183838000000000000
#023351:000000000000000000363600
#023371:000000000000000000000000000000000000003200220000
#024321:000000000000000000000000000000000000000000000000000000000000000000000000000000000000000000000000000000000000000000000000000000000000000000000000000000000000000000000000000000000000000000000000000000000000000000000000000000000000000000000000000000000000000000000000000000000000000000000000000000000000000000000000000000000000000000000000000000000000000000000000000000000000000000000000000000000000000000000000000000000000000000000000000000000000000000000000000000000000000000000000130000000000000000000000000000000000000000000000000000000000000000000000000000000000000000000000000000000000000000000000000000000000000000000000000000000000000000000000000000000000000000000000000000000000000000000000000000000000000000000000000000000000000000000000000000000000000000000000000000000000000000000000000000000056000000000000000000000000000000000000000000000000000000000000000000000000000000000000000000000000000000000000000000000000000000000000000000000000000000000000260000000000000000000000000000000000000000000000000000000000000000000000000000000000000000000000000000000000000000000000000000000000000000000000000000000000000000000000000000000000000000000000000000000000000000000000000000000000000000000000000000000000000000000000000000000000000000000000000000000000000000000000000000000000000000000000000000000000000000000000000000000000000000000000000000000000000000000000000000000000000000000000000000000000000000000000000000000000000000000000000000000000000000000000000000000000000000000000000000000000000000000000000000000000000000000000000000000000000000000000000000000000000000000000000000000000000000000000000000000000000000000000000000000000000000000000000000000000000000000000000000000000000000000000000000000000000000000000000000000000000000000000000000000000000000000000000000000000000000000000000000000000000000000000000000000000000000000000000000000000000000000000000000000000000000000000000000000000000000000000000000000000000000000000000000000000000000000000000000000000000000000000000000000000000000000000000000000000000000000000000000000000000000000000000000000000000000000000000000000000000000000000000000000000000000000000000000000000000000000000000000000000000000000000000000000000000000000000000000000000000000000000000000000000000000000000000000000000000000000000000000000000000000000000000000000000000000000000000000000000000000000000000000000000000000000000000000000000000000000000000000000000000000000000000000000000000000000000000000000000000000000000000000000000000000000000000000000000000000000000000000000000000000000000000000000000000000000000000000000000000000000000000000000000000000000000000000000000000000000000000000000000000000000000000000000000000000000000000000000000000000000000000000000000000000000000000000000000000000000000000000000000000000000000000000000000000000000000000000000000000000000000000000000000000000000000000000000000000000000000000000000000000000000000000000000000000000000000000000000000000000000000000000000000000000000000000000000000000000000000000000000000000000000000000000000000000000000000000000000000000000000000000000000000000000000000000000000000000000000000000000000000000000000000000000000000000000000000000000000000000000000000000000000000000000000000000000000000000000000000000000000000000000000000000000000000000000000000000000000000000000000000000000000000000000000000000000000000000000000000000000000000000000000000000000000000000000000000000000000000000000000000000000000000000000000000000000000000000000000000000000000000000000000000000000000000000000000000000000000000000000000000000000000000000000000000000000000000000000000000000000000000000000000000000000000000000000000000000000000000000000000000000000000000000000000000000000000000000000000000000000000000000000000000000000000000000000000000000000000000000000000000000000000000000000000000000000000000000000000000
#024351:000000000053000000000000000000000000000000000000
#024382:000000000000000000000000000000000000000000000000000000000000000000000000000000000000000000000000000000000000000000000000000000000000000000000000000000000000000000000000000000000000000000000000000000000000000000000000000000000000000000000000000000000000000000000000000000000000000000000000000000000000000000000000000000000000000000000000000000000000000000000000000000000000000000000000000000000000000000000000000000000000000000000000000000000000000000000000000000000000000000000000160000000000000000000000000000000000000000000000000000000000000000000000000000000000000000000000000000000000000000000000000000000000000000000000000000000000000000000000000000000000000000000000000000000000000000000000000000000000000000000000000000000000000000565300000000000000000000000000000000000000000000000000000000000000000000000000000000000000000000000000000000000000000000535600000000000000000000000000000000000000000000000000000000000000000000000000000000000000000000000000260000000000000000000000000000000000000000000000000000000000000000000000000000000000000000000000000000000000000000000000000000000000000000000000000000000000000000000000000000000000000000000000000000000000000000000000000000000000000000000000000000000000000000000000000000000000000000000000000000000000000000000000000000000000000000000000000000000000000000000000000000000000000000000000000000000000000000000000000000000000000000000000000000000000000000000000000000000000000000000000000000000000000000000000000000000000000000000000000000000000000000000000000000000000000000000000000000000000000000000000000000000000000000000000000000000000000000000000000000000000000000000000000000000000000000000000000000000000000000000000000000000000000000000000000000000000000000000000000000000000000000000000000000000000000000000000000000000000000000000000000000000000000000000000000000000000000000000000000000000000000000000000000000000000000000000000000000000000000000000000000000000000000000000000000000000000000000000000000000000000000000000000000000000000000000000000000000000000000000000000000000000000000000000000000000000000000000000000000000000000000000000000000000000000000000000000000000000000000000000000000000000000000000000000000000000000000000000000000000000000000000000000000000000000000000000000000000000000000000000000000000000000000000000000000000000000000000000000000000000000000000000000000000000000000000000000000000000000000000000000000000000000000000000000000000000000000000000000000000000000000000000000000000000000000000000000000000000000000000000000000000000000000000000000000000000000000000000000000000000000000000000000000000000000000000000000000000000000000000000000000000000000000000000000000000000000000000000000000000000000000000000000000000000000000000000000000000000000000000000000000000000000000000000000000000000000000000000000000000000000000000000000000000000000000000000000000000000000000000000000000000000000000000000000000000000000000000000000000000000000000000000000000000000000000000000000000000000000000000000000000000000000000000000000000000000000000000000000000000000000000000000000000000000000000000000000000000000000000000000000000000000000000000000000000000000000000000000000000000000000000000000000000000000000000000000000000000000000000000000000000000000000000000000000000000000000000000000000000000000000000000000000000000000000000000000000000000000000000000000000000000000000000000000000000000000000000000000000000000000000000000000000000000000000000000000000000000000000000000000000000000000000000000000000000000000000000000000000000000000000000000000000000000000000000000000000000000000000000000000000000000000000000000000000000000000000000000000000000000000000000000000000000000000000000000000000000000000000000000000000000000000000000000000000000000000000000000000000000000000000000000000000000000000000000000000000000000000000000000000000
#025382:0000001600000000
#025392:0000000000340000
#0253a2:00000022
#025331:00000000000000000000000000000000000000000000000014000000000000000000000000540000340000000000000000000000000000000000000000000000
#025321:000000000000000000000000000000000000000000000000000000000000000000000000000000000000000000000000000000000000000000000000000000000000000000000000000000000000000000000000000000000000000000000000000000000000000000000000000000000000000000000000000000000000000000000000000000000000000000000000000000000000000000000000000000000000000000000000000000000000000000000000000000000000000000000000000000000000000000000000000000000000000000000000000000000000000000000000000000000000000000000000000000000000000000000000000000000000000000000000000000000000000000000000000000000000000000000000000000000000000000000000000000000000000000000000000000000000000000000000000000000000000000000000000000000000000000000000000000000000000000000000000000000000000000000000000000000000000000000000000000000000000000000000000000000000000000000000000000000000000000000000000000000000000000000000000000000000000000000000000000000000000000000000000000000000000000000000000000000000000000000000000000000000000000000000000000000000000000000000000000000000000000000000000000000000000000000000000000000000000000000000000000000000000000000000000000000000000000000000000000000000000000000000000000000000000000000000000000000000000000000000000000000000000000000000000000000000000000000000000000000000000000000000000000000000000000000000000000000000000000000000000000000000000000000000000000000000000000000000000000000000000000000000000000000000000000000000000000000000000000000000005600000000000000000000000000000000000000000000000000000000000000000000000000000000000000000000000000000000000000000000000000000000000000000000000000000000000000000000000000000000000000000000000000000000000000000000000000000000000000000000000000000000000000000000000000000000000000000000000000000000000000000000000000000000000000000000000000000000000000000000000000000000000000000000000000000000000000000000000000000000000000000000000000000000000000000000000000000000000000000000000000000000000000000000000000000000000000000000000000000000000000000000000000000000000000000000000000000000000000000000000000000000000000000000000000000000000000000000000000000000000000000000000000000000000000000000000000000000000000000000000000000000000000000000000000000000000000000000000000000000000000000000000000000000000000000000000000000000000000000000000000000000000000000000000000000000000000000000000000000000000000000000000000000000000000000000000000000000000000000000000000000000000000000000000000000000000000000000000000000000000000000000000000000000000000000000000000000000000000000000000000000000000000000000000000000000000000000000000000000000000000000000000000000000000000000000000000000000000000000000000000000000000000000000000000000000000000000000000000000000000000000000000000000000000000000000000000000000000000000000000000000000000000000000000000000000000000000000000000000000000000000000000000000000000000000000000000000000000000000000000000000000000000000000000000000000000000000000000000000000000000000000000000000000000000000000000000000000000000000000000000000000000000000000000000000000000000000000000000000000000000000000000000000000000000000000000000000000000000000000000000000000000000000000000000000000000000000000000000000000000000000000000000000000000000000000000000000000000000000000000000000000000000000000000000000000000000000000000000000000000000000000000000000000000000000000000000000000000000000000000000000000000000000000000000000000000000000000000000000000000000000000000000000000000000000000000000000000000000000000000000000000000000000000000000000000000000000000000000000000000000000000000000000000000000000000000000000000000000000000000000000000000000000000000000000000000000000000000000000000000000000000000000000000000000000000000000000000000000000000000000000000000000000000000000000000000000000000000000000000000000000000000000000000000000000000000000000000000000000000
#025341:000000000000000000000000000000000000000000000000000000000000000000000000000000000000000000000000000000000000000000000000000000000000000000000000000000000000000000000000000000000000000000000000000000000000000000000000000000000000000000000000000000000000000000000000000000000000000000000000000000000000000000000000000000000000000000000000000000000000000000000000000000000000000000000000000000000000000000000000000000000000000000000000000000000000000000000000000000000000000000000000000000000000000000000000000000000000000000000000000000000000000000000000000000000000000000000000000000000000000000000000000000000000000000000000000000000000000000000000000000000000000000000000000000000000000000000000000000000000000000000000000000000000000000000000000000000000000000000000000000000000000000000000000000000000000000000000000000000000000000000000000000000000000000000000000000000000000000000000000000000000000000000000000000000000000000000000000000000000000000000000000000000000000000000000000000000000000000000000000000000000000000000000000000000000000000000000000000000000000000000000000000000000000000000000000000000000000000000000000000000000000000000000000000000000000000000000000000000000000000000000000000000000000000000000000000000000000000000000000000000000000000000000000000000000000000000000000000000000000000000000000000000000000000000000000000000000000000000000000000000000000000000000000000000000000000000000000000000000000000000000000000000000000000000000000000000000000000000000000000000000000000000000000000000000000000000000000000000000000000000000000000000000000000000000000000000000000000000000000000000000000000000000000000000000000000000000000000000000000000000000000000000000000000000000000000000000000000000000000000000000000000000000000000000000000000000000000000000000000000000000000000000000000000000000000000000000000000000000000000000000000000000000000000000000000000000000000000000000000000000000000000000000000000000000000000000000000000000000000000000000000000000000000000000000000000000000000000000000000000000000000000000000000000000000000000000000000000000000000000000000000000000000000000000000000000000000000000000000000000000000000000000000000000000000000000000000000000000000000000000000005200000000000000000000000000000000000000000000000000000000000000000000000000000000000000000000000000000000000000000000000000000000000000000000000000000000000000000000000000000052000000000000000000000000000000000000000000000000000000000000000000000000000000000000000000000000000000000000000000000000000000000000000000000000000000000000000000000000000000000000000000000000000000000000000000000000000000000000000000000000000000000000000000000000000000000000000000000000000000000000000000000000000000000000000000000000000000000000000000000000000000000000000000000000000000000000000000000000000000000000000000000000000000000000000000000000000000000000000000000000220000000000000000000000000000000000000000000000000000000000000000000000000000000000000000000000000000000000000000000000000000000000000000000000000000000000000000000000000000000000000000000000000000000000000000000000000000000000000000000000000000000000000000000000000000000000000000000000000000000000000000000000000000000000000000000000000000000000000000000000000000000000000000000000000000000000000000000000000000000000000000000000000000000000000000000000000000000000000000000000000000000000000000000000000000000000000000000000000000000000000000000000000000000000000000000000000000000000000000000000000000000000000000000000000000000000000000000000000000000000000000000000000000000000000000000000000000000000000000000000000000000000000000000000000000000000000000000000000000000000000000000000000000000000000000000000000000000000000000000000000000000000000000000000000000000000000000000000000000000000000000000000000000000000000000000000000000000000000000000000
#025321:0000000000000013
#026371:0023000000000000
#0263b2:000000130053000000000000000000000000000000000000
#026392:00230000
#026361:00130000
#026321:0000002300000000
#027321:0000152500000000
#027372:0000001222000000
#027352:00000000000000360000000000000000
#029322:0000000000000000000000001656000000000000000000562600000000000000
#029362:000000000000000000000000000000000000000000000000000000000000000000000000000000000000000000000000000000000000000000000000000000000000000000000000000000000000000000000000000000000000000000000000000000000000000000000000000000000000000000000000000000000000000000000000000000000000000000000000000000000000000000000000000000000000000000000000000000000000000000000000000000000000000000000000000000000000000000000000000000000000000000000000000000000000000000000000000000000000000000000000000000000000000000000000000000000000000000000000000000000000000000000000000000000000000000000000000000000000000000000000000000000000000000000000000000000000000000000000000000000000000000000000000000000000000000000000000000000000000000000000000000000000000000000000000000000000000000000000000000000000000000000000000000000000000000000000000000000000000000000000000000000000000000000000000000000000000000000000000000000000000000000000000000000000000000000000000000000000000000000000000000000000000000000000000000000000000000000000000000000000000000000000000000000000000000000000000000000000000000000000000000000000000000000000000000000000000000000000000000000000000000000000000000000000000000000000000000000000000000000000000000000000000000000000000000000000000000000000000000000000000000000000000000000000000000000000000000000000000000000000000000000000000000000000000000000000000000000000000000000000000000000000000000000000000000000000000000000000000000000000000000000000000000000000000000000000000000000000000000000000000000000000000000000000000000000000000000000000000000000000005200000000000000000000000000000000000000000000000000000000000000000000000000000000000000000000000000000000000000000000000000000000000000000000000000000000000000000000000000000000000000000000000000000000000000000000000000000000000000000000000000000000000000000000000000000000000000000000000000000000000000000000000000000000000000000000000000000000000000000052000000000000000000000000000000000000000000000000000000000000000000000000000000000000000000000000000000000000000000000000000000000000000000000000000000000000000000000000000000000000000000000000000000000000000000000000000000000000000000000000000000000000000000000000000000000000000000000000000000000000000000000000000000000000000000000000000000000000000000000000000000000000000000000000000000000000000000000000000000000000000000000000000000000000000000000000000000000000000000000000003200000000000000000000000000000000000000000000000000000000000000000000000000000000000000000000000000000000000000000000000000000000000000000000000000000000000000000000000000000000000000000000000000000000000000000000000000000000000000000000000000000000000000000000000000000000000000000000000000000000000000000000000000000000000000000000000000000000000000000052000000000000000000000000000000000000000000000000000000000000000000000000000000000000000000000000000000000000000000000000000000000000000000000000000000000000000000000000000000000000000000000000000000000000000000000000000000000000000000000000000000000000000000000000000000000000000000000000000000000000000000000000000000000000000000000000000000000000000000000000000000000000000000000000000000000000000000000000000000000000000000000000000000000000000000000000000000000000000000000000000000000000000000000000000000000000000000000000000000000000000000000000000000000000000000000000000000000000000000000000000000000000000000000000000000000000000000000000000000000000000000000000000000000000000000000000000000000000000000000000000000000000000000000000000000000000000000000000000000000000000000000000000000000000000000000000000000000000000000000000000000000000000000000000000000000000000000000000000000000000000000000000000000000000000000000000000000000000000000000000000000000000000000000000000000000000000000000000000000000000000000000000000000000000000000000000000000000000000000000000
#029332:0000000055550000
#029381:000000000000000000000000000000000000000000000000000000000000000000000000000000000000000000000000000000000000000000000000000000000000000000000000000000000000000000000000000000000000000000000000000000000000000000000000000000000000000000000000000000000000000000000000000000000000000000000000000000000000000000000000000000000000000000000000000000000000000000000000000000000000000000000000000000000000000000000000000000000000000000000000000000000000000000000000000000000000000000000000000000000000000000000000000000000000000000000000000000000000000000000000000000000000000000000000000000000000000000000000000000000000000000000000000000000000000000000000000000000000000000000000000000000000000000000000000000000000000000000000000000000000000000000000000000000000000000000000000000000000000000000000000000000000000000000000000000000000000000000000000000000000000000000000000000000000000000000000000000000000000000000000000000000000000000000000000000000000000000000000000000000000000000000000000000000000000000000000000000000000000000000000000000000000000000000000000000000000000000000000000000000000000000000000000000000000000000000000000000000000000000000000000000000000000000000000000000000000000000000000000000000000000000000000000000000000000000000000000000000000000000000000000000000000000000000000000000000000000000000000000000000000000000000000000000000000000000000000000000000000000000000000000000000000000000000000000000000000000000000000160000000000000000000000000000000000000000000000000000000000000000000000000000000000000000000000000000000000000000000000565200000000000000000000000000000000000000000000000000000000000000000000000000000000000000000000000000000000000000000000000000000000000000000000000000000000000000000000000000000000000000000000000000000000000000000000000000000000000000000000000000000000000000000000000000000000000000000000000000000000000000000000000000000000000000000000000000000000000000000052550000000000000000000000000000000000000000000000000000000000000000000000000000000000000000000000000000000000000000000000000000000000000000000000000000000000000000000000000000000000000000000000000000000000000000000000000000000000000000000000000000000000000000000000000000000000000000000000000000000000000000000000000000000000000000000000000000000000000000000000000000000000000000000000000000000000000000000000000000000000000000000000000000000000000000000000000000000000000000000000553200000000000000000000000000000000000000000000000000000000000000000000000000000000000000000000000000000000000000000000000000000000000000000000000000000000000000000000000000000000000000000000000000000000000000000000000000000000000000000000000000000000000000000000000000000000000000000000000000000000000000000000000000000000000000000000000000000000000000000052560000000000000000000000000000000000000000000000000000000000000000000000000000000000000000000000000000000000000000000000260000000000000000000000000000000000000000000000000000000000000000000000000000000000000000000000000000000000000000000000000000000000000000000000000000000000000000000000000000000000000000000000000000000000000000000000000000000000000000000000000000000000000000000000000000000000000000000000000000000000000000000000000000000000000000000000000000000000000000000000000000000000000000000000000000000000000000000000000000000000000000000000000000000000000000000000000000000000000000000000000000000000000000000000000000000000000000000000000000000000000000000000000000000000000000000000000000000000000000000000000000000000000000000000000000000000000000000000000000000000000000000000000000000000000000000000000000000000000000000000000000000000000000000000000000000000000000000000000000000000000000000000000000000000000000000000000000000000000000000000000000000000000000000000000000000000000000000000000000000000000000000000000000000000000000000000000000000000000000000000
#029371:0000000000000013
#030321:5323000000000000
#030362:0013000000000000
#0303b2:00230000
#031382:0000000000000016
#032382:00003234260000000000000000000000
#031321:0000000000000016
#032361:0032000000000000
#032341:00000034000000000000000000000000
#032321:00260000
#034321:13333300
#034371:0033003300230000
#034362:13333300
#0343b2:0033003300230000
#0363b2:13333300
#036362:0033003300230000
#036371:13333300
#036321:0033003300230000
#037321:13
#037371:0023000000000000
#037362:13
#0373b2:0023000000000000
#037322:00130000
#037372:0000002300000000
#037361:00130000
#0373b1:0000002300000000
#0373b1:0013
#037361:0000000000230000
#037372:0013
#037322:0000000000230000
#0373b2:00000013
#037362:0000000000000023
#037371:00000013
#037321:0000000000000023
#038321:13
#038371:0023000000000000
#038362:13
#0383b2:0023000000000000
#038322:00130000
#038372:0000002300000000
#038361:00130000
#0383b1:0000002300000000
#0383b1:0013
#038361:0000000000230000
#038372:0013
#038322:0000000000230000
#039322:0000001300230000
#039372:0053
#039371:0000000000130023
#0393b1:00000053
#039322:0000000000000013
#040372:53
#040322:0023000000000000
#041382:13230000
#0413b2:0053000000000000
#0413b2:00001323
#041382:0000000000530000
#042382:13230000
#0423b2:0053000000000000
#0423b2:00001323
#042382:0000000000530000
#043362:13
#0433b2:0023000000000000
#0433b2:00130000
#043362:0000002300000000
#043362:0013
#0433b2:0000000000230000
#0433b2:00000013
#043362:0000000000000023
#044362:13
#0443b2:0023000000000000
#0443b2:00130000
#044362:0000002300000000
#044362:0013
#0443b2:0000000000230000
#0443b2:00000013
#044362:0000000000000023
#0453b2:0013000000000000
#045362:00230000
#0453b2:0000000000130000
#045362:00000023
#045372:0000000000000013
#046322:23
#0463b1:13
#046361:0023000000000000
#046351:0000001600000000
#046321:0026
#046382:0016
#046352:0000000000260000
#047322:0000001400340000
#047332:0000000000000022
#047361:0000001800000000
#047371:0000000000360000
#047391:0000000000000022
#048361:0013000000000000
#048391:00330000
#0483b1:0000002300000000
#048322:0013000000000000
#048352:00330000
#048372:0000002300000000
#0533c2:12
#053372:00220000
#053322:0012
#053372:00000022
#057322:14240000
#057382:0053000000000000
#0573a1:00142400
#057351:0000005300000000
#057322:00001424
#057382:0000000000530000
#059362:0012
#059322:00000022
#059381:0012
#0593c1:00000022
#059321:0000000000000013
#060371:33
#060321:0023000000000000
#059362:0000000000000013
#0603b2:33
#060362:0023000000000000
#060322:0000001300230000
#060372:0033
#060361:0000001300230000
#0603b1:0033
#061321:0000000000000013
#061381:00000000000000000000000000000054
#062321:3623000000000000
#062381:00540000000000000000000000000000
#0613b2:0000000000000013
#061342:00000000000000000000000000000054
#062382:36
#062342:00540000000000000000000000000000
#0623b2:0023000000000000
#062372:0000000000000013
#062322:000000000000000000000000000000000000000000000053
#063342:33
#063362:005300000000000000000000000000000000000000000000
#063322:0023000000000000
#0623b1:0000000000000013
#062361:000000000000000000000000000000000000000000000053
#063381:33
#0633a1:005300000000000000000000000000000000000000000000
#063361:0023000000000000
#063321:000000000000000000133333333333230000000000000000
#0633b2:000000000000000000000000000000133333333333230000
#064322:000000000000000000000000000000001c3c3c3c000000002c00000000000000
#064372:0000000000000000000000000000000000000000323232320000000000000000
#065392:00000015
#066382:00220000
#065321:00000015
#066361:00220000
#0673b1:00130023
#067351:0033
#068321:00001333
#068351:00000000000000000033003300330033
#068371:0000000000330033
#069321:23
#0683b2:0000000000130000
#068362:00000023
#0683b2:0000000000000013
#069362:23
#069322:00130023
#069382:0033
#071362:00130023
#0713b2:0033
#0723b2:00001333
#072382:00000000000000000033003300330033
#072362:0000000000330033
#0733b2:23
#072321:0000000000130000
#072371:00000023
#072321:0000000000000013
#073371:23
#073371:00130023
#073321:0033
#076321:00000000000000001200000000000022
#076361:0000000000000000000000000000000000000000000000520000000000000000
#0763c2:00000000000000001200000000000022
#076382:0000000000000000000000000000000000000000000000520000000000000000
