This file was generated by Ched 2.6.2.0.
#TITLE "normal"
#ARTIST ""
#DESIGNER ""
#DIFFICULTY 0
#PLAYLEVEL
#SONGID ""
#WAVE ""
#WAVEOFFSET 0
#JACKET ""
#REQUEST "ticks_per_beat 480"
#00002: 4
#BPM01: 155
#00008: 01
#TIL00: ""
#HISPEED 00
#MEASUREHS 00
#00118:14141400
#00214:14141400
#0091a:14140000
#00914:00001414
#01112:14140000
#01118:00001414
#0131a:1414
#01314:00140014
#01310:41
#01512:1414
#01518:00140014
#0171a:14
#01714:00140000
#01718:0014
#01712:00000014
#0181a:14
#01818:0014
#01814:00140000
#01812:00000014
#03118:14151616
#03114:0014000000000000
#03113:0000001500000000
#03112:0000000000160016
#03110:41
#0391a:14
#03916:00140014
#03912:0014
#0401a:14
#04013:00001414
#04019:00001414
#06619:0000000015150000
#06612:0000000015150000
#0711a:00140000
#07116:0014
#07112:00000014
#07214:14
#07212:00140000
#07513:0014
#07519:00140014
#07614:13130000
#07619:0013000000000000
#0031a:14141400
#00412:14141400
#0051a:1414
#00514:00140000
#00510:41
#00612:1414
#00618:00140000
#00718:1414
#00712:00140000
#00814:1414
#0081a:00140000
#02112:14
#02118:00140000
#02114:0014
#0211a:00000014
#02110:41
#02212:14
#02214:0014
#02218:00140000
#0221a:00000014
#02314:14
#02418:14
#02519:14
#02513:14
#0191a:14
#02012:14
#02718:0000000000000014
#02714:14
#02919:14
#02913:14
#0341a:14140000
#03414:14140000
#03412:00001414
#03418:00001414
#03612:14140000
#03618:14140000
#0361a:00001414
#03614:00001414
#0381a:14140000
#03814:14140000
#03812:00001414
#03818:00001414
#0421a:1414
#04214:1414
#04212:00140014
#04218:00140014
#04412:1414
#04418:1414
#0441a:00140014
#04414:00140014
#04918:14141414
#0491f:11
#05114:14141414
#05312:14141414
#0531a:14141414
#05512:14
#0551a:14
#0581a:1414
#05816:00140000
#05812:00000014
#05810:41
#06012:1414
#06016:00140000
#0601a:00000014
#04614:1414
#04618:00140014
#04612:00140014
#0461a:1414
#04819:00001414
#04813:00001414
#04812:14
#04716:00140014
#0471a:0014
#04712:14
#0621a:1414
#06216:00140014
#06212:1414
#0671a:00000014
#06714:0014
#06718:00140000
#06814:00140000
#06812:14
#06912:00000014
#06918:0014
#06914:00140000
#07018:00140000
#0701a:14
#07312:00140000
#07316:0014
#0731a:00000014
#07418:14
#0741a:00140000
#0501a:1414
#05014:0014000000140000
#05212:1414
#05218:0014000000140000
#0631a:14
#06316:00140014
#06312:0014
#0641a:1414
#06412:14
#06416:00140014
#03318:26
#03312:0026
#04118:26
#04112:0026
#04110:41
#05714:24
#0571a:24
#05718:0024
#05712:0024
#0571f:21
#03512:26
#03518:0026
#03716:26
#03714:0026
#04312:26
#04318:0026
#04516:26
#04514:0026
#05613:00000024
#05619:00000024
#05912:24
#05918:24
#0591a:0024
#05914:0024
#0611a:24
#06114:24
#06112:0024
#06118:0024
#06517:00000000000000000034000000000000
#06518:0000003400000000
#06519:00000034000000000000000000000000
#07254:64
#07252:00240000
#02354:54
#02458:54
#02052:64
#0195a:64
#02754:54
#02758:0000000000000054
#03152:0000000000000016
#04158:56
#04152:0056
#05552:64
#0555a:64
#05558:0000000000000014
#05554:0000000000000014
#06852:54
#06854:00240000
#07058:00240000
#0705a:64
#07458:54
#0745a:00240000
#04352:66
#04358:0066
#04556:56
#04554:0056
#06154:54
#0615a:54
#06158:0054
#06152:0054
#06558:00000014
#0103a0:1424
#012320:1424
#0143a0:14
#014380:0024
#016320:14
#016340:0024
#0193a0:14
#019380:0024
#020320:14
#020340:0024
#023340:14
#023320:0024
#024380:14
#0243a0:0024
#0253a0:0000001400000000
#025370:0000000000000034
#0263a0:0000002400000000
#027340:14
#027320:0024
#027380:0000000000000014
#0283a0:0024
#029320:0000001400000000
#029350:0000000000000034
#030320:0000002400000000
#033380:16
#033350:00260000
#033320:0016
#033350:00000026
#035320:16
#035350:00260000
#035380:0016
#035350:00000026
#037360:16
#037380:00260000
#037340:0016
#037320:00000026
#041380:16
#041350:00260000
#041320:0016
#041350:00000026
#043320:16
#043350:00260000
#043380:0016
#043350:00000026
#045360:16
#045380:00260000
#045340:0016
#045320:00000026
#054380:14240000
#054340:00001424
#0553a0:14
#055380:0000000000000024
#055321:14
#055341:0000000000000024
#0573a1:14
#057381:00240000
#057340:14
#057320:00240000
#057320:0014
#057340:00000024
#057381:0014
#0573a1:00000024
#059321:14
#059341:00240000
#059380:14
#0593a0:00240000
#0593a0:0014
#059380:00000024
#059341:0014
#059321:00000024
#0613a1:14
#061381:00240000
#061340:14
#061320:00240000
#061320:0014
#061340:00000024
#061381:0014
#0613a1:00000024
#0653a1:14
#065391:00000034000000000000000000000000
#065381:0000003400002400
#065371:00000000000000000034000000000000
#068321:1424
#068341:00540000
#0703a1:1424
#070381:00540000
#072341:1424
#072321:00540000
#074381:1424
#0743a1:00540000
#076391:00000000000000001300000000000023
