This file was generated by Ched 2.6.2.0.
#TITLE "easy"
#ARTIST ""
#DESIGNER ""
#DIFFICULTY 0
#PLAYLEVEL
#SONGID ""
#WAVE ""
#WAVEOFFSET 0
#JACKET ""
#REQUEST "ticks_per_beat 480"
#00002: 4
#BPM01: 200
#00008: 01
#TIL00: ""
#HISPEED 00
#MEASUREHS 00
#00919:14
#00910:41
#01013:14
#01119:14
#01213:14
#0131a:14
#01412:14
#01719:14
#01913:14
#06613:14
#06719:14
#06813:14
#0411f:11
#04118:14
#00119:14
#00319:14
#00513:14
#00619:14
#00713:14
#00213:14
#0151a:14
#01612:14
#01819:14
#02013:14
#02119:14
#02110:41
#02313:14
#02219:14
#02413:14
#0251a:14
#02614:14
#02718:14
#02812:14
#0291a:14
#03014:14
#03118:14
#03110:41
#03212:14
#03319:14
#03419:14
#03513:14
#03613:14
#03719:14
#03819:14
#03913:14
#03910:41
#04013:14
#04214:14
#04318:14
#04414:14
#04912:0016
#04918:26
#0491f:21
#05018:16
#05112:16
#05118:0016
#05110:41
#05212:16
#05318:1616
#05418:16
#05512:1616
#05612:16
#05712:0016
#05718:26
#05818:16
#05912:16
#05918:0016
#06012:16
#06118:1616
#06218:16
#06312:1616
#06412:16
#06519:14
#06510:41
#07413:14
#07519:14
#07613:14
#07319:14
#07719:14
#07813:14
#07919:14
#045390:14
#046390:24
#047330:14
#048330:24
#069390:14
#070390:24
#071330:14
#072330:24
#080330:14000024
