This file was generated by Ched 2.6.2.0.
#TITLE "expert"
#ARTIST ""
#DESIGNER ""
#DIFFICULTY 0
#PLAYLEVEL
#SONGID ""
#WAVE ""
#WAVEOFFSET 0
#JACKET ""
#REQUEST "ticks_per_beat 480"
#00002: 4
#BPM01: 200
#00008: 01
#TIL00: ""
#HISPEED 00
#MEASUREHS 00
#00818:0012
#0081a:00000012
#00816:0000000000120000
#00814:00000012
#0091b:0000001200000000
#0091a:00000012
#00912:12121212
#0091c:22
#00910:41
#01019:0012000000000000
#01018:0012
#0101a:00000012
#01012:12121212
#01316:0000001200000000
#01314:00000012
#0131c:12121212
#01312:12
#01412:12
#01416:0000001200000000
#01414:00000012
#0141c:12121212
#01512:12
#0151c:12121212
#04915:0013001300001300
#04918:0000000000130013
#04912:2313
#0491b:0013
#0491f:21
#05015:0013000000000013
#05018:00130013
#0501b:13
#05012:13
#05215:00131313
#05218:0013000000130013
#05212:13
#0521b:13
#0001c:0012
#00019:00000012
#00116:12
#0011a:0000001200000000
#00117:00000012
#00214:12
#00218:0000001200000000
#00215:00000012
#00312:12
#00414:00120000
#00416:0012
#00418:00000012
#0051a:12
#00518:00000012
#00514:12
#0061a:12
#00616:0000001200000000
#0061c:00000012
#00614:12
#02518:0012
#02512:0012000000000000
#0251a:0000120000000012
#02514:0000001200001200
#0251c:0000000000120000
#02516:22
#02618:00120012
#02614:0000000000000012
#02612:00120000
#02616:12
#0261a:0012000000000000
#02815:00000012
#02819:0000000000000012
#02816:00120000
#0281c:00120000
#02818:12
#02814:0012000000000000
#0111c:12
#0111b:0000001200000000
#0111a:00000012
#01112:12121212
#01219:0012000000000000
#0121c:0012
#01218:00000012
#01212:12121212
#05415:0000130000000013
#05418:0013000000001300
#0541b:00130000
#05412:13
#05818:0013130000001300
#05815:0000000000000013
#05812:13130000
#06018:00000013
#06015:0013130000000013
#0601b:13130000
#06118:0013001300000000
#06115:0000000000130013
#06112:23001313
#0611b:23131300
#06219:0013000000000000
#06212:00130000
#06217:00130000
#0621b:13
#06218:0000000000130013
#06215:13001313
#05315:0013000000130013
#0531b:2300130000000013
#05318:0000001313001300
#05312:23
#05715:0013000000000000
#05718:0000000000130000
#05712:0000001313000000
#0571b:2300000013000013
#0411f:11
#04118:0000130000000013
#0411b:0000001300001300
#02414:00001212
#0241a:00001212
#03212:12
#03213:00120000
#03219:00120000
#0321b:00000012
#03218:12
#03214:0012
#03215:00000012
#0321a:0012
#05512:1300130000000013
#0551b:13
#05518:0013000000130013
#05515:0000001313001300
#0651b:12
#0651a:0000001200000000
#06519:00000012
#06515:12
#06514:0000001200000000
#06513:00000012
#06510:41
#06618:0012000000000000
#06612:0012000000000000
#06616:0012
#06818:0012
#06816:0012000000000000
#0681c:0012000000000000
#06713:12
#06714:0000001200000000
#06715:00000012
#06719:12
#0671a:0000001200000000
#0671b:00000012
#01618:12
#01619:00120000
#0161a:0012
#0161b:00000012
#01613:12
#01614:00120000
#01615:0012
#01616:00000012
#01718:00120000
#01714:0012000000120000
#01716:0000001200000000
#0171c:0012
#0171a:22000012
#01712:22
#02018:00000012
#0221c:00000012
#02215:0000000000000012
#05112:1313
#0511b:1313
#05118:0013001300001300
#05115:0000000000130013
#05110:41
#07316:12
#07315:0000001200000000
#07314:00000012
#0731c:12121212
#07413:0012000000000000
#07412:0012
#07414:00000012
#0741c:12121212
#0771c:0000001200000000
#0771a:00000012
#07712:12121212
#07718:12
#07818:12
#0781c:0000001200000000
#0781a:00000012
#07812:12121212
#07918:12120000
#07912:12
#0791c:00001212
#07916:0012
#07516:12
#07515:0000001200000000
#07514:00000012
#0751c:12121212
#07613:0012000012000000
#07612:00000012
#0761c:12121212
#08014:12
#08016:00120000
#08018:0012
#0801a:00000012
#06912:12000012
#06914:00120000
#06918:12
#0711c:1212
#07118:00120012
#07212:1212
#07214:00000012
#07216:00120000
#0701c:12000012
#0701a:00120000
#07016:12
#0191c:12
#01916:00120000
#0191a:0012000000120000
#01918:0000001200000000
#01912:0012
#01914:12000012
#02112:12
#02118:00120000
#02114:0012000000120000
#02116:0000001200000000
#0211c:0012
#0211a:12000012
#02110:41
#02315:00120000
#02312:12
#0231c:0000000000120000
#02318:00000012
#03012:00120012
#03019:0000000000000012
#0301a:12120000
#03015:0012000000000000
#03119:00120000
#0311c:12
#03112:0000000000120000
#03116:00000012
#03110:41
#03312:13
#03318:2300001313000000
#03315:00130013
#03812:1300000000000013
#03815:0000130000130000
#03818:00130013
#0381b:0013
#03814:0033003300000000
#03917:1300000000000013
#03916:0000001313000000
#03912:13
#03910:41
#04017:13
#04016:0000001313000000
#0401b:00000013
#0341b:13
#03415:0000001313000000
#03418:00130013
#03412:13
#03515:13
#03518:0000001313000000
#03513:00000013
#03512:00130000
#0351b:13
#03618:13
#03615:0000001313000000
#0361a:00000013
#0361b:00130000
#03612:13
#03718:13000013
#03712:13
#03715:00130013
#0371b:00131300
#03714:0033003300000000
#03719:0000000000330033
#0421b:0013
#04219:0000000000130000
#04217:00000013
#04412:0013
#04414:0000000000130000
#04416:00000013
#04515:0000000000000013
#04518:0000131300001300
#04615:0000131300001300
#04618:0000000000000013
#04818:13000000001300000000000000333300
#04815:00130000130000000000000000000000
#0481b:00001300000000000033000000000000
#04812:0000001300000000
#04816:0013
#0481a:0000000000330000
#04819:00000000000000000000003333000000
#04817:00000000000000000000000000000033
#04712:1300001300001300
#0471b:1300001300001300
#04718:00131300
#04715:0013000000130013
#0291c:0012
#02914:00000012
#02912:00120000
#04315:0000130000000013
#04312:0000001300001300
#02716:0012
#0271c:0012000000000000
#02714:0000120000000012
#0271a:0000001200001200
#02712:0000000000120000
#02718:12
#05618:00130000
#05612:00000000130000000033000000000000
#0561b:13
#05614:00001300000000000000003333000000
#05617:0013
#05613:0000000000330000
#05615:00000000000000000000000000333300
#05616:00000000000000000000000000000033
#05918:0013000000000000
#05915:0000000000130000
#0591b:1300001313000000
#05912:1300000013000013
#06315:0013001300000000
#06318:0000000000130013
#0631b:13001313
#06312:13131300
#06414:0013000023000000
#0641b:00130000
#06416:00130000
#06412:13000023
#06418:13
#06419:0023
#06417:00000023
#05058:00130000
#06252:00130000
#06257:00130000
#0545b:00130000
#05858:00130000
#05852:00130000
#03352:53
#03358:0053
#03355:00230000
#03957:63
#03956:0053
#04057:63
#04056:0053
#0405b:00000013
#04052:00000013
#0345b:63
#03455:0063
#03458:00230013
#03555:53
#03558:0053
#03552:00230000
#03658:63
#03655:0063
#0365b:00230000
#0365a:00000013
#04257:00000013
#04456:00000013
#03752:53
#03755:00630000
#0375b:0063
#03758:00000053
#03156:00000012
#02358:00000012
#03852:53
#03855:00630000
#05255:00130000
#05652:00130000
#06055:00130000
#0605b:00130000
#0645b:00130000
#06456:00130000
#007350:12
#008350:22
#007391:12
#008391:22
#017321:0000000000000012
#018321:22
#018380:1222000000000000
#018351:0012000022000000
#0183c0:00122200
#0193c0:0000000000000012
#0203c0:22
#020361:1222000000000000
#020390:0012000022000000
#020321:00122200
#021321:0000000000000012
#022321:22
#022380:1222000000000000
#022351:0012000022000000
#0223c0:00122200
#023390:1200002200000000
#023321:0000001200002200
#0253c1:1222000000000000
#025321:0000000012220000
#027321:1222000000000000
#0273c1:0000000012220000
#0293c1:12220000
#029361:0000001222000000
#029381:0000000000122200
#029321:0000000000000012
#030321:22
#031351:1200002200000000
#0313c0:0000001200002200
#033320:1323
#033350:00530000
#033381:0013
#0333b1:00000023
#0343b1:1323
#034381:00530000
#034350:0013
#034320:00000023
#035350:1323
#035320:00530000
#035381:0013
#0353b1:00000023
#036381:1323
#0363b1:00530000
#036350:0013
#036320:00000023
#037320:1323
#037340:0033003300000000
#037350:00530000
#0373b1:0013
#037391:0000000000330033
#037381:00000053
#0383b1:23
#038320:1323
#038340:0033003300000000
#038350:00530000
#039370:13
#0393b0:00532300
#039361:0013
#039321:00000053
#040321:23
#040370:13
#0403b0:00532300
#040361:0013
#040321:00000023
#041321:14343434
#041331:0052000000000052005200000000005200520000000000520052000000000052
#042321:34343424
#042331:0052000000000052005200000000005200520000000000520000000000000000
#0413b0:1323000000000000
#041380:0000000013230000
#0423b0:1323000000000000
#042380:0000132300000000
#0433a1:14343434
#0433b1:0052000000000052005200000000005200520000000000520052000000000052
#0443a1:34343424
#0443b1:0052000000000052005200000000005200520000000000520000000000000000
#043320:1323000000000000
#043350:0000000013230000
#044320:1323000000000000
#044350:0000132300000000
#045321:14343424
#045331:0052000000000052005200000000005200520000000000520000000000000000
#0453b0:1323000000000000
#0453b0:0000000013230000
#0463a1:14343424
#0463b1:0052000000000052005200000000005200520000000000520000000000000000
#046320:1323000000000000
#046320:0000000013230000
#0483b1:00000000000000001333000000000000
#0483a1:0000000000330000
#048391:00000000000000000000003333000000
#048381:00000000000000000000000000333300
#048371:00000000000000000000000000000033
#049371:23
#049381:0000132300000000
#051351:0000132300000000
#053321:0000001323000000
#0553b1:0000001323000000
#056321:00000000000000001333000000000000
#056331:0000000000330000
#056341:00000000000000000000003333000000
#056351:00000000000000000000000000333300
#056361:00000000000000000000000000000033
#057361:23
#057381:0000132300000000
#057351:0000000000001323
#059351:0000132300000000
#059381:0000000000001323
#061351:0000132300000000
#061381:0000000000001323
#063381:0000132300000000
#063351:0000000000001323
#0663c1:00001222
#068321:00001222
#069381:0000001200002200
#070361:0000001200002200
#071341:12000022
#0723a1:12003222
