This file was generated by Ched 2.6.2.0.
#TITLE "hard"
#ARTIST ""
#DESIGNER ""
#DIFFICULTY 0
#PLAYLEVEL
#SONGID ""
#WAVE ""
#WAVEOFFSET 0
#JACKET ""
#REQUEST "ticks_per_beat 480"
#00002: 4
#BPM01: 200
#00008: 01
#TIL00: ""
#HISPEED 00
#MEASUREHS 00
#04915:0013000000130013
#04918:00130000
#0491b:23001313
#04912:0000001300000000
#0491f:21
#05218:00001313
#05215:1300130000130000
#05212:0000000000000013
#0521b:0013000000000000
#0001a:0012
#00014:00000012
#00118:12
#0011a:0000001200000000
#00114:00000012
#00219:12
#0021a:0000001200000000
#00214:00000012
#0031a:12
#00414:00120000
#00419:0012
#00415:00000012
#0051a:12
#00514:00000012
#00619:12
#00616:0000001200000000
#0061b:00000012
#02615:00000013
#02618:0000000000000013
#02619:0033000000000000
#05018:1300130000000013
#05012:0013000000001300
#05312:0013000000000000
#05318:23130000
#05315:0000001300130013
#0531b:00001313
#05418:1300130000000013
#05412:0013000000000000
#05415:00000013
#0411f:11
#04118:00001313
#0411b:13130000
#04112:13131313
#03212:13
#03213:00130000
#03219:00130000
#0321b:00000013
#03218:13
#03214:0013
#03215:00000013
#0321a:0013
#00714:12
#07318:0000001300000000
#0731b:13000013
#07315:00131300
#07312:13
#07418:0013000000000000
#07412:0013
#07415:13130000
#0741b:00000013
#07712:1300001300000000
#07718:00131300
#07715:00000013
#0771b:13000013
#0781b:0000001300000000
#07815:00131300
#07818:13000013
#07812:13000013
#06912:13
#06918:13
#07215:0013
#07218:00000013
#00818:00001313
#00815:0000000000130000
#0091b:2300001300001300
#00915:00131300
#00912:23
#00910:41
#01015:13131300
#01018:00000013
#0101b:0013000013000000
#01012:00000013
#01312:13131300
#01318:0000001300000000
#0131b:13000013
#01518:00130000
#01515:0013
#0151b:13
#01512:00000013
#01412:13000013
#0141b:00131300
#01415:0000001300000000
#01618:13
#01619:00130000
#0161a:0013
#0161b:00000013
#01613:00130000
#01614:0013
#01615:00000013
#01612:13
#01715:0013001300000000
#0171b:23130000
#01718:00001313
#01712:0000000000130013
#0181b:13
#01815:0013000000000000
#01818:00130000
#01918:0013001300000000
#01912:13130000
#01915:00001313
#0191b:0000000000130013
#02012:13
#02018:0013000000000000
#02015:00130000
#02014:00000013
#02019:00000013
#02115:0013000000130000
#02118:00130013
#02112:0000001300000013
#0211b:1313
#02110:41
#0221b:13
#02215:0013000000001300
#02218:0000130000000013
#02312:00000013
#02418:0013
#02415:00000013
#02515:0013001300000000
#02518:00130013
#0251b:2313
#02512:0000000000130013
#02712:1313
#02718:0013001300000000
#02715:00130013
#0271b:0000000000130013
#02818:00000013
#02815:0000000000000013
#02814:0033000000000000
#0291b:1313
#02915:0013001300000000
#02918:00130013
#02912:0000000000130013
#0331a:14
#03318:00140014
#03312:00000014
#0371a:14
#03717:00140000
#03719:00000014
#03713:00000014
#03412:14
#03414:00140014
#0341a:00000014
#03518:14000014
#0351a:00140000
#03512:00000014
#03614:14000014
#03612:00140000
#0361a:00000014
#03812:14
#03815:00140000
#03819:00000014
#03813:00000014
#03917:14
#03915:0014
#03910:41
#04014:0014
#04017:14
#04518:13
#0451b:00131313
#04512:13131300
#04515:00000013
#04718:1313
#04715:0013000000130000
#0471b:00130013
#04712:0000001300000013
#04819:13
#04814:13
#04818:00001313
#04815:0000000000130013
#05112:13001313
#05118:0013000000130013
#05115:00130000
#0511b:0000001300000000
#05110:41
#05515:13130000
#0551b:0013000000000000
#05518:0000001300130013
#05512:00001313
#05712:0013000000130000
#05718:00130013
#05715:0000001300000013
#0571b:2313
#0581b:13
#05815:0013000000000000
#05818:0000130000000013
#05812:00000013
#0561b:0013000013000000
#05615:1300130000130000
#05618:00000013
#05612:0000000000000013
#06112:0013000000130000
#06118:00130013
#06115:0000001300000013
#0611b:2313
#0621b:1300000000000013
#06215:0013000000001300
#06218:0000130000130000
#06212:0013
#06018:0013000000001300
#06012:1300000000000013
#06015:00130000
#0631b:0013000000130000
#06315:00130013
#06318:0000001300000013
#06312:1313
#06412:13
#06418:0013000023000000
#06415:00130023
#06615:00001313
#0661b:00001313
#06818:0013
#06812:0013
#06815:00000013
#0681b:00000013
#07012:13
#07018:13
#07515:0000001300000000
#07512:13000013
#07518:00131300
#0751b:13
#07615:0013000000000000
#07612:0013
#07618:13130000
#0761b:00000013
#07915:13
#07918:00130000
#07912:0013
#0791b:13000013
#08012:13
#08015:00130000
#08018:0013
#0801b:00000013
#04315:00001313
#04312:13130000
#0431b:13131313
#01112:1300001300001300
#0111b:13
#01118:00131300
#01215:00000013
#0121b:00000013
#01212:0013000013000000
#01218:13131300
#03018:00000013
#03015:0000000000000013
#03019:0033000000000000
#0311b:00000013
#03110:41
#05912:1313
#0591b:0013000000130000
#05915:00130013
#05918:0000001300000013
#06519:00000033
#0651a:0000003300000000
#06510:41
#06714:00000033
#06713:0000003300000000
#05458:00130000
#0335a:64
#03358:00240000
#0375a:64
#03757:00540000
#03452:54
#03454:00240000
#03558:54
#0355a:00240000
#03654:64
#03652:00240000
#03852:54
#03855:00640000
#03957:64
#03955:0054
#04054:0054
#04057:64
#04052:00000014
#04255:00000013
#04652:00000013
#04658:00000013
#04859:53
#04854:63
#05058:00130000
#05858:00130000
#06258:00130000
#06455:00130000
#04458:00000013
#02352:00000013
#0315b:00000013
#05255:00130000
#05655:00130000
#06055:00130000
#023350:13230000
#0233b0:0000001300230000
#0263b0:13
#026390:0033000000000000
#026380:00230000
#028320:13
#028340:0033000000000000
#028350:00230000
#0303b0:13
#030390:0033000000000000
#030380:00230000
#031380:13230000
#031320:0000001300230000
#0333a0:1424
#033380:00540000
#034320:1424
#034340:00540000
#035380:1424
#0353a0:00540000
#036340:1424
#036320:00540000
#0373a0:1424
#037370:00540000
#038320:1424
#038350:00540000
#039370:14
#0393a0:0000002400000000
#039350:0014
#039320:0000000000000024
#040370:14
#0403a0:0000002400000000
#040340:0014
#040320:00000024
#0423b0:13230000
#042350:00001323
#044320:13230000
#044380:00001323
#0463b0:13230000
#046351:13230000
#046321:00001323
#046380:00001323
#048390:13
#0483b0:00230000
#048341:13
#048321:00230000
#0653b1:13
#0653a1:0000003300000000
#065391:00000033
#066381:0023000000000000
#067321:13
#067331:0000003300000000
#067341:00000033
#068351:0023000000000000
#0693b1:0000001300000000
#069381:00000023
#070321:0000001300000000
#070351:00000023
#071341:13
#072341:23
#071390:13
#072390:23
