This file was generated by Ched 2.6.2.0.
#TITLE "master"
#ARTIST ""
#DESIGNER ""
#DIFFICULTY 0
#PLAYLEVEL
#SONGID ""
#WAVE ""
#WAVEOFFSET 0
#JACKET ""
#REQUEST "ticks_per_beat 480"
#00002: 4
#BPM01: 200
#00008: 01
#TIL00: ""
#HISPEED 00
#MEASUREHS 00
#00818:0013
#0081b:00000013
#00812:00000013
#00815:0000000000130000
#00915:0000001200000000
#00914:00000012
#00917:22
#00910:41
#01013:0012000000000000
#01012:0012
#01014:00000012
#01317:0000001200000000
#01313:00000012
#01312:12
#02314:00130000
#0231b:13000013
#02317:00000013000000000000000000000000
#02319:0000000000130000
#02312:0000001300000000
#02316:00000000000000000013000000000000
#05218:0000000013130000
#0521b:0000000000000013
#05215:1300000000001313
#05212:0013130013000000
#0001c:0012
#00018:00000012
#00116:12000012
#0011b:12
#0011a:0000001200000000
#00413:00120000
#00415:0012
#00417:00120012
#00419:0012
#0041b:00000012
#0041b:00000012
#0051a:12
#00519:00000012
#00514:12
#00515:00000012
#0061b:12
#00615:0000001200000000
#0061c:00000012
#00613:12
#00619:0000001200000000
#00612:00000012
#06614:12000012
#0661b:0000001200000000
#06516:12
#06514:00120000
#0651a:0000000000120000
#06510:41
#06917:12
#06912:00000012
#03914:0000001200000000
#03916:12
#03912:00120000
#0391a:0000000000000012
#0391c:00000012
#03910:41
#02618:00000013
#02615:0000000000000013
#02818:00000013
#02815:0000000000000013
#0111c:0000001200000000
#0111b:00000012
#01117:12
#0121a:0012000000000000
#01219:0012
#01218:00000012
#04815:13000000001300000000000000000000
#04818:00130000130000000000000000000000
#04812:0013001300000000
#0481b:0013001300000000
#0421a:0012
#04218:0000000000120000
#0421c:00000012
#00718:12
#00716:12
#0071c:0012
#00712:0012
#02212:00001313
#02218:0013
#02213:12
#02216:0012000000000000
#0221c:00120000
#02219:12000012000000000000000000000000
#02214:00120000
#04518:00120012
#0451a:0000000000120000
#04513:0000000000000012
#07112:12
#07116:0000120000000012
#07114:0000001200001200
#05014:0013
#05019:0013
#05012:00000013
#0501b:0013130000000013
#05018:13000013
#07318:0000001200000000
#07312:1212
#07316:00120012
#0741c:0012000000001200
#07418:0012
#07412:1212
#07416:00120012
#0411c:0012
#0411a:0000000000000012
#0411f:11
#00318:12
#00312:12
#0021a:12
#00214:12000012
#00218:0000001200000000
#01618:1313000000000000
#01614:0000131300000000
#0161a:0000000013130000
#01612:0000000000001313
#04718:0000120000120012
#0471c:12001212
#04712:12121200
#04716:0012001200001200
#04616:00120012
#04614:0000000000120000
#0141c:0000001200000000
#0141a:00000012
#01418:12
#01812:0013
#01817:0013
#01813:12
#01816:0012000000000000
#0181c:00120000
#01819:12000012000000000000000000000000
#01814:00120000
#0251b:2313000013000013
#02519:00130000
#02512:2300001313130000
#02517:0000001300000000
#02514:00000013
#02516:0000000000000013
#02515:0013000000000000
#02518:0000000000130000
#02712:1313000000001313
#02716:00120000
#02718:0000000000120000
#0271b:0000001313000000
#0291b:1313130013000000
#02912:1300000013131300
#02916:0000001300000000
#02917:0000000000000013
#0311b:0000131300000000
#03112:1300000000131300
#03116:00000013000000000000000000000000
#03117:00000000000000000013000000000000
#03110:41
#0301b:0032000000001300
#03016:12
#03018:12
#03013:0032000000000000
#03414:00000000000000000012000000000000
#03418:1212
#0341c:0000001200001200
#03416:00000000120000000000001200000000
#03412:12
#0341a:0000000000120000
#03318:2212000000000000
#0331a:0000121200000000
#03316:0000000012120000
#03314:0000000000001212
#0361a:00000000120000000012000000000000
#03618:00000000000000000000001200000000
#03616:0012
#03614:0012000000120000
#03612:0000001200001200
#0361c:12
#03617:12
#03512:1212000000000000
#03516:0000121200000000
#03518:0000000012120000
#0351c:0000000000001212
#03815:00000000000000000012000000000000
#03813:00000000000000000000001200000000
#03818:1212
#0381a:0012000000120000
#0381c:0000001200001200
#03816:00120000
#03812:12
#03814:0000000000000012
#03718:0012000000000000
#0371a:22120000
#0371c:0000001200000000
#03714:00001212
#03716:0000000000120000
#03712:0000000000000012
#04012:00120000
#04014:0000001200000000
#0401c:00000012
#01718:0012000000120000
#01714:00120000
#01719:0000001200000000
#0171c:2200120012000012
#0171a:00000012
#01716:2200000000000012
#01712:00001212
#04414:0012
#04416:0000000000120000
#04412:00000012
#04312:0012
#04314:0000000000000012
#01918:1200000000000012
#01912:1200120012000012
#01916:0012000000120000
#0191a:00120000
#01915:0000001200000000
#01914:00000012
#0191c:00001212
#05414:0013000013001300
#05419:00001313
#05412:1300000000000013
#05418:13
#05416:00130000
#0541a:0013000000000000
#0541b:00130000
#05818:00130013000000000000000013000000
#05815:1313000000000013
#0581b:0000130000000013
#05814:0012
#0581a:0012
#05812:00130013
#0571b:0013001313000000
#05718:2600130000000013
#05712:0000000016130013
#05715:0000001300001300
#06014:0012
#0601a:0012
#06018:1313000000001300
#06012:00130013
#0601b:0000130000000013
#06015:00130013000000000000000000001300
#0681a:12000012
#06813:0000001200000000
#06718:12
#0671a:00120000
#06714:0000000000120000
#07017:12
#0701c:00000012
#07516:0000001200000000
#0751c:1212
#07518:00120012
#07612:0012000000001200
#07616:0012
#0761c:1212
#07618:00120012
#07712:12
#07718:00120000
#0771c:0012
#07716:00000012
#07717:12
#07812:12000012
#0781c:00120000
#07819:0012
#07915:1212
#07919:00120012
#08014:12
#08016:00120000
#08018:0012
#0801a:00000012
#0611b:0013130000000013
#06115:2600130016000013
#06118:0000001300001300
#06112:0000001300131300
#06212:13130000
#0621b:00130000130000000000000000000000
#06215:0013000000000000
#06218:00000013000000000000000000000000
#04912:0013000000000000
#04915:0000130013000013
#04918:2300001300001300
#0491b:0000000000130000
#0491f:21
#05315:0013000013000013
#05312:13130000
#0531b:00001313
#05318:2300001300130000
#01515:1313
#01518:00130013
#0201b:1213
#02018:0012000000000000
#02012:00120000
#02015:12000012000000000000000000000000
#0201a:00120000
#02016:0013
#0561b:13001313
#05618:00000000000000000013000000130000
#05615:1300000000130013
#05612:00000000130000000000001300000013
#05619:0013000000000000
#05617:00130000
#05613:0013000000000000
#02116:1200000000000012
#0211c:1200120012000012
#02118:0012000000120000
#02114:00120000
#02119:0000001200000000
#0211a:00000012
#02112:00001212
#02110:41
#0511b:0013000000000000
#05118:0000130013000013
#05115:1300001300001300
#05112:0000000000130000
#05110:41
#05518:0013000013000013
#0551b:13130000
#05512:00001313
#05515:1300001300130000
#05912:1613001313000000
#05915:0000130000000013
#05918:0000001316001300
#0591b:0000000000130013
#06312:0013130000000013
#06318:0000130000000013
#06315:1600001316001300
#0631b:0000001300131300
#0641b:13130000
#06412:00130000130000000000000025000000
#06418:0013000000000000
#06415:00000013000000000000000000000000
#06419:00002325
#06414:0023
#0721c:12
#07218:0000120000000012
#0721a:0000001200001200
#0321b:0000000000320000
#0321a:0000003232000000
#03219:00320000
#03218:0032000000000000
#03215:0000000000320000
#03214:0000003232000000
#03213:00320000
#03212:0032000000000000
#0425c:00000012
#00758:62
#00756:52
#00752:0022
#0075c:0022
#04558:00000012
#0235b:6300004300000000
#02357:00000023000000000000000000000000
#02352:0000005300003300
#02356:00000000000000000023000000000000
#04656:00000012
#01852:0053
#01857:0053
#03152:5300003300000000
#03156:00000023000000000000000000000000
#0315b:0000006300004300
#03157:00000000000000000023000000000000
#0345c:00000012
#03652:00000012
#0385c:00000012
#04052:00000012
#0405c:00000012
#04452:00000012
#04852:0033000000000000
#0485b:0000004300000000
#0505b:00130000
#04958:43
#04955:0033
#05355:0033
#05358:43
#05752:0036
#05758:46
#0585b:00430000
#05852:00330000
#06155:4636
#03056:52
#03058:62
#06252:00330000
#0625b:00430000
#0205b:0063
#02056:0063
#05252:00130000
#05158:0043
#05155:33
#0545b:00130000
#05558:0043
#05555:33
#05652:00130000
#06052:00330000
#0605b:00430000
#05958:0046
#05952:36
#06355:3646
#0645b:00430000
#06452:00330000
#007380:12
#0073c0:0052
#008380:22
#007361:12
#007321:0052
#008361:22
#0093c1:1200005232000052
#009381:0052320000523200
#0103c1:3200005232000000
#010381:0052320000522200
#011321:1200005232000052
#011361:0052320000523200
#012321:3200005232000000
#012361:0052320000522200
#013381:1252000032520000
#0133c1:0000325200002200
#014361:1252000032520000
#014321:0000325200002200
#016351:1323000000000000
#016391:0000132300000000
#016331:0000000013230000
#0163b1:0000000000001323
#018321:0013
#018361:00000023
#018370:0013
#0183b0:00000023
#0203b0:0013
#020370:00000023
#020361:0013
#020321:00000023
#0223b1:00000013
#022381:0000000000000023
#022350:0000000000000013
#023320:23
#0233b1:1300002300000000
#023371:00000053000000000000000000000000
#023320:0000001300002300
#023360:00000000000000000053000000000000
#024390:00001222
#024351:00001222
#026361:12220000
#026321:0032000000000000
#0263c0:12220000
#026380:0032000000000000
#027380:1222000000000000
#027360:0000001222000000
#027380:0000000000001222
#028380:12220000
#0283c0:0032000000000000
#028321:12220000
#028361:0032000000000000
#029361:0013230000000000
#029371:0000000000132300
#030361:12
#030331:0032000000000000
#030321:00220000
#030380:12
#0303b0:0032000000000000
#0303c0:00220000
#030320:00000013
#030350:0000000000000023
#030381:0000000000000013
#0313b1:23
#031320:1300002300000000
#031360:00000053000000000000000000000000
#0313b1:0000001300002300
#031371:00000000000000000053000000000000
#032381:1232000000000000
#032391:00320000
#0323a1:0000003232000000
#0323b1:0000000000320000
#0323c1:00000022
#032320:1232000000000000
#032330:00320000
#032340:0000003232000000
#032350:0000000000320000
#032360:00000022
#033320:1200002200000000
#0333c0:0000000012000022
#0353c0:1200002200000000
#035320:0000000012000022
#037320:1200002200000000
#0373c0:0000000012000022
#039380:1222
#0393c0:0052005200000000
#039361:0012
#039321:0000000000520052
#040361:22
#040380:1222
#0403c0:0052005200000000
#040361:0012
#040321:0000000000522200
#041321:1434
#041331:0052000000000000000000000000005200520000000000000000000000000052
#041351:0000000000000052005200000000000000000000000000520052000000000000
#041341:00340034
#042321:3434
#042331:0052000000000000000000000000005200520000000000000000000000000000
#042351:0000000000000052005200000000000000000000000000520000000000000000
#042341:00340024
#0413c0:12
#0413a0:0022000000000000
#041380:00120000
#0413a0:0000002200000000
#0413c0:0000000000120000
#0413a0:00000022
#042380:12
#0423a0:0022000000000000
#0423c0:00120000
#0423a0:0000002200000000
#0433a1:1434
#0433b1:0052000000000000000000000000005200520000000000000000000000000052
#043391:0000000000000052005200000000000000000000000000520052000000000000
#043381:00340034
#0443a1:3434
#0443b1:0052000000000000000000000000005200520000000000000000000000000000
#044391:0000000000000052005200000000000000000000000000520000000000000000
#044381:00340024
#043320:12
#043340:0022000000000000
#043360:00120000
#043340:0000002200000000
#043320:0000000000120000
#043340:00000022
#044360:12
#044340:0022000000000000
#044320:00120000
#044340:0000002200000000
#045321:1434
#045331:0052000000000000000000000000005200520000000000000000000000000000
#045351:0000000000000052005200000000000000000000000000520000000000000000
#045341:00340024
#0453c0:12
#0453a0:0022000000000000
#0453a0:0000001200000000
#0453c0:0022
#0463a1:1434
#0463b1:0052000000000000000000000000005200520000000000000000000000000000
#046391:0000000000000052005200000000000000000000000000520000000000000000
#046381:00340024
#046320:12
#046340:0022000000000000
#046340:0000001200000000
#046320:0022
#0483b1:00000000000000001323000000000000
#048350:00000000000000000013230000000000
#048381:00000000000000000000132300000000
#048320:00000000000000000000001323000000
#0483b1:00000000000000000000000013230000
#048350:00000000000000000000000000132300
#048381:00000000000000000000000000001323
#048320:00000000000000000000000000000013
#049320:23
#0493b0:0013230000000000
#049320:0000000000132300
#050320:1333000000000000
#050350:00230000
#051320:0013230000000000
#0513b0:0000000000132300
#0523b0:1333000000000000
#052380:00230000
#053380:0013230000000000
#053350:0000000000132300
#055350:0013230000000000
#055380:0000000000132300
#057320:0013230000000000
#0573b0:0000000000132300
#0593b0:0013230000000000
#059320:0000000000132300
#061320:1323000000000000
#0613b0:0000000013230000
#0623b0:00001333
#062370:0000000000330023
#062361:00001333
#062321:0000000000330023
#0633b1:1323000000000000
#063321:0000000013230000
#0653c1:1200002200000000
#065381:00320000
#065320:0000001200002200
#065360:0000000000320000
#065381:00000012
#0663c1:32
#066381:0022000000000000
#066360:0012000022000000
#066320:0000003200000000
#066381:0012
#0663c1:0000000000522200
#067321:1200002200000000
#067361:00320000
#0673c0:0000001200002200
#067380:0000000000320000
#067361:00000012
#068321:32
#068361:0022000000000000
#068380:0012000022000000
#0683c0:0000003200000000
#068361:0012
#068321:0000000000522200
#0693c1:12220000
#069320:0000122200000000
#069371:0000001200002200
#070321:12220000
#0703c0:0000122200000000
#070371:0000001200002200
#0713c1:1222000000000000
#071381:0000122200000000
#0713c1:0000000012220000
#071381:0000000000001222
#072321:1222000000000000
#072361:0000122200000000
#072321:0000000012220000
#072361:0000000000001222
#073381:12
#0733c1:0052220000000000
#0733c1:00000012
#073381:0000000000000052
#074381:22
#075361:12
#075321:0052220000000000
#075321:00000012
#075361:0000000000000052
#076361:22
#077361:0000001222000000
#077381:0000000000000012
#078381:22
#078371:0000001222000000
#078371:0000000000000012
#079371:22
