This file was generated by Ched 2.6.2.0.
#TITLE "normal"
#ARTIST ""
#DESIGNER ""
#DIFFICULTY 0
#PLAYLEVEL
#SONGID ""
#WAVE ""
#WAVEOFFSET 0
#JACKET ""
#REQUEST "ticks_per_beat 480"
#00002: 4
#BPM01: 200
#00008: 01
#TIL00: ""
#HISPEED 00
#MEASUREHS 00
#00114:14
#00118:0014
#00214:14
#00218:0014
#0091a:14
#00918:0000001400000000
#00916:00000014
#00910:41
#01012:0014
#01014:0014000000000000
#01016:00000014
#0111a:14
#01118:0000001400000000
#01116:00000014
#01214:0014000000000000
#01212:0014
#01218:00000014
#01312:14
#0131a:0000001400000000
#01314:00000014
#01712:1414
#01718:00140014
#0191a:1414
#01914:00140014
#02114:1414
#0211a:00140014
#02110:41
#0291a:14
#02914:00140000
#02918:0014
#02912:00000014
#00812:0014
#00816:00000014
#01612:14
#01618:00140000
#0161a:00000014
#01614:0014
#03512:14
#0361a:14
#04114:14
#0411f:11
#04118:00000014
#04813:0015001500000000
#04818:15151500
#01512:14
#05014:00000014
#05012:14140000
#04918:0014000000000000
#0491a:00001414
#04914:0000000000140000
#04912:24140000
#0491f:21
#0511a:14140000
#05114:0014000000000000
#05112:00001414
#05118:0000000000140000
#05110:41
#05218:00000014
#05212:0014
#0521a:14140000
#05612:0014
#05618:00140014
#0561a:14
#06914:14
#06912:0000003400000000
#07018:14
#0701a:0000003400000000
#07112:14
#0711a:14
#07212:0014
#07216:00000014
#07912:14
#0791a:14
#08012:14
#08018:00140000
#08014:0014
#0801a:00000014
#0571a:0014000000140000
#05714:24141414
#05918:14141414
#05912:0014000000140000
#0581a:00000014
#05814:00000014
#05812:14
#05816:00140000
#06012:00000014
#06018:00000014
#0601a:14
#06016:00140000
#06114:00001414
#06118:0014000000000000
#06112:24140000
#0611a:0000000000140000
#06212:14002424
#06216:00140000
#0621a:00002424
#0631a:14140000
#06318:00001414
#06314:0014000000000000
#06312:0000000000140000
#0641a:14
#06416:00140000
#01412:14
#0141a:0000001400000000
#01414:00000014
#02318:1414
#02312:00140014
#03112:14
#03118:00140000
#03114:0014
#0311a:00000014
#03110:41
#02518:14
#0251a:0014
#02514:00000014
#02512:00140000
#02714:14
#02712:0014
#02718:00000014
#0271a:00140000
#04314:00150000
#04312:15
#04319:00000015
#04417:00150000
#04419:15
#04414:00000015
#04619:00150000
#04617:15
#04612:00000015
#04512:00150000
#04514:15
#04517:00000015
#04714:00000014
#04718:14
#04712:00140000
#0471a:0014
#05412:14000014
#05414:00140000
#05314:0000140000140000
#0531a:0014
#05318:0014000000001400
#05312:24
#0551a:14
#05518:0000140000140000
#05512:0014
#05514:0014000000001400
#0241a:14001414
#02414:00001414
#03212:14
#03218:00140000
#03214:0014
#0321a:00000014
#07412:0014
#07416:00000014
#07414:0014000000000000
#07612:0014
#07614:0014000000000000
#0761a:00000014
#06512:14
#06514:0000001400000000
#06516:00000014
#06510:41
#06618:0014000000000000
#0661a:0014
#06616:00000014
#06712:14
#06714:0000001400000000
#06716:00000014
#06818:0014000000000000
#0681a:0014
#06816:00000014
#0731a:14
#07318:0000001400000000
#07316:00000014
#0751a:14
#07518:0000001400000000
#07516:00000014
#01812:14140000
#0201a:14140000
#02212:14140000
#04218:14
#04212:00000015
#00518:14
#00514:0014
#00618:14
#00614:0014
#07714:14
#07712:0000003400000000
#07818:14
#0781a:0000003400000000
#00018:0014
#03910:41
#0365a:64
#03552:64
#04154:54
#06954:54
#07058:64
#07152:64
#0715a:64
#07952:64
#0795a:64
#04354:00250000
#04352:55
#04457:00250000
#04459:65
#04659:00250000
#04657:55
#04552:00250000
#04554:65
#04258:64
#07754:54
#07858:64
#03954:0014
#04058:0014
#04858:0015
#003320:14
#004320:24
#0073a0:14
#0083a0:24
#0263a0:14240000
#028320:14240000
#030380:14240000
#033320:14
#033340:0024
#0343a0:14
#034380:0024
#035320:14
#035340:0024
#0363a0:14
#036380:0024
#037340:14
#037320:0024
#038380:14
#0383a0:0024
#039340:1400003424000000
#040380:1400003424000000
#041340:14
#041320:0024
#042380:14
#0423a0:0024
#043320:1525
#043340:00550000
#044390:1525
#044370:00550000
#045340:1525
#045320:00550000
#046370:1525
#046390:00550000
#069340:14
#069320:0000003400002400
#070380:14
#0703a0:0000003400002400
#071320:14
#072340:24
#0713a1:14
#072381:24
#077341:14
#077321:0000003400002400
#078381:14
#0783a1:0000003400002400
#079321:14
#079341:00000024
#0793a0:14
#079380:00000024
