This file was generated by Ched 2.6.2.0.
#TITLE ""
#ARTIST ""
#DESIGNER ""
#DIFFICULTY 0
#PLAYLEVEL
#SONGID ""
#WAVE ""
#WAVEOFFSET 0
#JACKET ""
#REQUEST "ticks_per_beat 480"
#00002: 4
#BPM01: 160
#00008: 01
#TIL00: ""
#HISPEED 00
#MEASUREHS 00
#00519:14
#00510:41
#00613:14
#00719:14
#01719:14
#01913:14
#02013:14
#02010:41
#03319:14
#03313:0014
#03818:16
#03812:0016
#03810:41
#03918:16
#04819:1414
#04913:1414
#05619:14
#05613:0014
#05719:14
#05713:0014
#05818:1414
#05914:1414
#06018:16
#0291f:11
#00119:14
#00313:14
#00813:14
#01319:14
#01413:14
#01519:14
#01613:14
#01819:14
#02119:14
#02213:14
#02319:14
#02413:14
#04212:16
#04218:0016
#04312:16
#0521a:1414
#05314:1414
#05418:1414
#05410:41
#05512:1414
#06112:16000025
#06119:00000025
#03618:2626
#0361f:21
#03712:2626
#04012:2626
#04118:2626
#01210:41
#02710:41
#009390:14
#010390:24
#011330:14
#012330:24
#0253a0:14
#0263a0:24
#027340:14
#028340:24
#029380:14
#030380:24
#031320:14
#032320:24
#034390:14
#035390:24
#044380:16
#045380:26
#046320:16
#047320:26
#050390:14
#051390:24
