This file was generated by Ched 2.6.2.0.
#TITLE ""
#ARTIST ""
#DESIGNER ""
#DIFFICULTY 0
#PLAYLEVEL
#SONGID ""
#WAVE ""
#WAVEOFFSET 0
#JACKET ""
#REQUEST "ticks_per_beat 480"
#00002: 4
#BPM01: 160
#00008: 01
#TIL00: ""
#HISPEED 00
#MEASUREHS 00
#01015:00130000
#0101b:0000131313000000
#01018:1313000000000000
#01012:13
#01016:0013
#01013:0000000000330000
#01019:0000000000330000
#0091b:00130013
#00917:1313
#00916:0000001300000013
#00912:1313000000130000
#0141b:1300000000000013
#01415:00000000000000000000000000000013
#01412:0013
#01518:1300000013000013
#01512:0013000013000013
#0151b:00000013000000000000001300000000
#01515:0000001300000000
#0161b:1300001300002300
#01612:00000013000000000000000023000000
#01618:0000000013130000
#01615:00000000000000000013001300000000
#02512:1300000000130000
#02518:2300000000130013
#02515:0013000000001300
#0261b:1300000000130000
#02615:23000013
#02618:0013000000000013
#02818:0000000013000013
#0281b:00000000130000000000003300000000
#02812:0000000013000013
#02815:00000000130000000000003300000000
#0281a:00000000003300000000000000000000
#02819:00000000000033330033330000000000
#02814:00000000003300000000000000000000
#02813:00000000000033330033330000000000
#03812:1300000013000013
#03818:1300001300000000
#0381b:00131300
#0381a:00000000000000000000001200000000
#03815:0000000000121200
#03817:0000000000000013
#03810:41
#03918:00131313
#0391b:0000001300130000
#04212:0000130000001313
#04215:1300000000130000
#0421b:0000130000001313
#04218:0013000013000000
#04315:0000000000131300
#04312:0000130013000023
#0431b:00131300
#04316:0000001400000000
#0581b:13132313
#05815:0013000000000000
#05814:00130000
#05813:0000001300000000
#0581a:0013001300130013
#05812:00001313
#05816:2300000000130013
#01712:0013001313000000
#01715:0000130000330000
#01718:00000013000000001300000000001300
#0171b:2300001300131300
#01716:00000000000000000000001300000000
#01714:00000033
#0211a:0000000000000014
#02112:00000000130000000000000000000014
#02114:0013000000000000
#0211b:00130000
#02119:0013000000000000
#02116:14
#02115:0013
#02118:0000001300000000
#02315:13
#02312:0013000000130000
#0231b:0000001300000013
#02417:0013
#02419:0000000000130000
#0241b:00000013
#02414:0000000000000013
#02416:00000013
#02412:0013
#02418:13
#01218:00130000
#01212:0000131313000000
#01215:1313000000000000
#0121b:13
#01217:0013
#0121a:0000000000330000
#01214:0000000000330000
#01210:41
#01112:00130013
#01116:1313
#01117:0000001300000013
#0111b:1313000000130000
#02915:1300000000000013
#02912:0000000000130000
#02918:00000013
#0291b:1300000000130000
#0291f:11
#03015:00130000
#03018:0000001300000000
#03012:13
#0301b:13
#0321b:0000001300130013
#03212:0000001300000000
#03218:13130013
#03215:0013000000000000
#0361b:0000000000130000
#03612:24242413
#03618:0000240000000013
#0361a:0024
#03616:24
#0361f:21
#0051b:00131300
#00512:13000013
#00516:0013
#00517:23
#00510:41
#00412:0000130000130000
#00415:0000001300000013
#0041a:0000003300000000
#00212:0000001300000000
#00215:0013
#00218:0000000000000000001400000000000000000000000000000000140000000000000014000000000000001400000000000000000000000000000000000000000000000000000000000000000000000000130000000000000000000000000000000000000000000000000000000000000000000000000000000000000000000000
#0021b:00000013
#00219:00001400000000140000000014001400140014001400140000000000000000000000000000000000000000000000000000000000000000000000000000000000
#0021a:0000000000000000000000000000000000000014000000000000000000001400000000000000140000000000000014000000000000000000000000000000000000000000000000000000000000000000000000000000000000000000000000000000000000000000000000000000000000000000000000000000000000000000
#00317:00130000
#0031b:0013
#00314:0013
#00312:14
#0031a:14
#00113:00140000
#00119:25000000000000000000000000000000140014001400140014001400140014001400140014001400140014001400140014001400140014001400000000140000
#00118:0000000000000000000000000000000000000000000000000000000000000000000014000000000000001400000000000000140000000000000014000000000000001400000000000000140000000000000014000000000000001400000000000000140000000000000014000000000000000000001400000000000000000000
#0011a:0000000000000000000000000000000000000000000000000000000000000000000000000000140000000000000014000000000000001400000000000000140000000000000014000000000000001400000000000000140000000000000014000000000000001400000000000000140000000000000000000000000000000014
#00112:25
#0131b:0013000013000000
#01312:0013
#01315:0013001300001300
#01318:0000130000130013
#0221b:0000130000000013
#02212:0000130000000013
#02219:0013000000000000
#02214:0013000000000000
#02216:14
#02218:0013
#02215:0000001300000000
#01818:1200000013000023
#01812:1200000013000023
#01815:0012000000000000
#01819:00120000
#01816:0000001200000000
#0181c:0000001200000000
#05615:00130000
#05614:00000013
#05619:0013
#05618:23
#05713:00130000
#05712:00000013
#0571b:0013
#0571a:23
#06012:1c
#06018:00130000
#06015:000000000000000000000000000000130000000000000000000000000000000000000000000033003300000033003300
#0601a:0000000013130000
#06013:00000000000000000013000000000000
#06118:13001300130013000000001326000000
#06115:00130013001300000000001300000000
#06112:00000026
#03517:00000012
#0351b:13
#04418:0013130000000000
#04412:0000000000131300
#0441b:0000002300000000
#04415:0000000000000023
#04512:0000000000130023
#04515:00000013
#0451b:0013130000000000
#04518:0000002300000000
#04617:0000000000120000
#04616:00000014
#0461b:0013002300000000
#04618:00130000
#04615:0000000000000026
#0471b:0013000000001300
#04719:0000140000000013
#04712:0013000000001300
#04714:0000000000000013
#04713:00140000
#05512:1300001300000000
#05515:0013130000000000
#05518:00000013000000000000000013000000
#0551b:1300001313000000
#0531b:0013130000000000
#05317:13
#05312:00000013000000000000000000000000
#05316:0000001300000000
#00617:00131300
#00616:13000013
#00612:0013
#0061b:23
#0371b:00000013
#03715:0000000000000013
#03712:0000000024130000
#03714:00240000
#03716:24
#0371a:24242400
#05119:0013130000000000
#05112:0000001300000000
#05114:0013130000000000
#0511b:0000001300000000
#02712:1313000000000000
#02715:0000131300000000
#02718:0000000013130000
#0271b:0000000000001313
#02710:41
#04812:0014
#0481a:0014
#04815:13
#04818:13
#04912:00000013
#04916:0012
#0491b:00000013
#04918:0012
#05015:1300330033000000330033003300330033333333333333333300000000000000
#05018:13
#05014:0000000000000000000000000000000000000000000000000033333333333333
#05016:00000033000000000000000000000000
#05019:00333333333333330000000000000000
#0501a:0000000000000000000000000000000033333333333333333333333333333333
#03418:0013230000130013
#03412:00000000130000000013000000130000
#03415:13000000000013000000001300000013
#0341b:23002323
#04012:24241212
#04019:00001212
#04015:0000000000120012
#0401c:0000000000120012
#04016:24240000
#00715:00120012000000000012001200000000
#00719:2212000022120000
#0071c:0000121200000000
#00712:00000000001200120000000023000000
#0071b:00000023
#05917:1300000000130013
#05918:0013000000000000
#0591a:0000001300000000
#05913:0013001300130013
#05912:23132313
#0591b:00001323
#05919:00230000
#0191b:0013001313000000
#01918:0000130000330000
#01915:00000013000000001300000000001300
#01912:0000001300131300
#01917:00000000000000000000001300000000
#01919:00000033
#02015:00121300
#0201b:0013
#02016:12
#0201c:12
#02019:0012000000000000
#02018:0000001200000000
#02012:0000001200000000
#02010:41
#0311b:13
#03118:0013000000000000
#0311a:00130000
#03117:0000001300000000
#03116:0013
#03113:0000000000130000
#03115:00000013
#03112:0000000000000013
#03312:0000001300130013
#0331b:0000001300000000
#03315:13130013
#03318:0013000000000000
#0411c:00001212
#04115:00001212
#04119:0000000000120012
#04112:0000000000120012
#0411a:24240000
#04116:24240000
#05214:00230000
#05219:00230000
#05410:41
#00956:0000003300000033
#00952:0033000000330000
#02552:53330000
#02555:0023000000000000
#01157:0000004300000043
#0115b:0043000000430000
#02858:0063
#0285b:00630000
#02852:0063
#02855:00630000
#02955:63
#0295b:63
#02952:00130000
#02958:00130000
#0055b:0063
#00552:53
#00357:00530000
#0035b:0063
#0215b:00530000
#02155:0033
#02158:0000002300000000
#0155b:00000063000000000000000000000000
#01552:0053
#01652:00000053000000000000000033000000
#0165b:53000043
#01858:0063
#01852:0063
#05655:0033000000000000
#05658:0000004300000000
#05654:0000000000330000
#05659:0000000000000043
#05753:0033000000000000
#0575a:0000004300000000
#05752:0000000000330000
#0575b:0000000000000043
#06052:1c
#06158:00000000000000000000002346000000
#06155:00000000000000000000002300000000
#06152:00000036
#03857:0000000000000053
#03852:53
#03557:00000012
#0355b:43
#05558:00000043
#04759:00640000
#04753:00540000
#00656:63
#00657:0053
#01056:0053
#0105b:0053
#0145b:0013
#01452:0013
#03658:00440000
#0365a:0044
#03656:44
#03958:00000013
#05252:13
#0525b:13
#04852:0054
#0485a:0064
#04855:63
#04858:63
#04956:0052
#04952:00000023
#0495b:00000023
#04958:0062
#05055:53
#05058:63
#00158:0000000000000000000000000000000000000000000000000000000000000000000024000000000000002400000000000000240000000000000024000000000000002400000000000000240000000000000024000000000000002400000000000000240000000000000024000000000000000000002400000000000000000000
#00159:00000000000000000000000000000000640054006400540064005400640054006400540064005400640054006400540064005400640054006400000000640000
#0015a:0000000000000000000000000000000000000000000000000000000000000000000000000000240000000000000024000000000000002400000000000000240000000000000024000000000000002400000000000000240000000000000024000000000000002400000000000000240000000000000000000000000000000024
#00259:00006400000000640000000064005400640054006400540000000000000000000000000000000000000000000000000000000000000000000000000000000000
#00258:0000000000000000002400000000000000000000000000000000240000000000000024000000000000002400000000000000000000000000000000000000000000000000000000000000000000000000000000000000000000000000000000000000000000000000000000000000000000000000000000000000000000000000
#0025a:0000000000000000000000000000000000000024000000000000000000002400000000000000240000000000000024000000000000000000000000000000000000000000000000000000000000000000000000000000000000000000000000000000000000000000000000000000000000000000000000000000000000000000
#04052:44440000
#0415a:34340000
#02055:0053
#0205b:0053
#02252:00630000
#02258:0043
#02255:0000002300000000
#0335b:0000001300000000
#03754:00340000
#03752:0034
#03756:34
#00752:00000053
#0075b:00000053
#01257:0063
#01252:0063
#01756:00000000000000000000002300000000
#01752:0053
#0195b:0063
#01957:00000000000000000000002300000000
#0265b:63430000
#02658:0023000000000000
#03252:0000001300000000
#04252:0000000000000063
#0425b:0000000000000063
#04352:0000000000000013
#0445b:0000001300000000
#04455:0000000000000013
#04558:0000001300000000
#04552:0000000000000013
#0465b:0000001300000000
#04655:0000000000000016
#001390:00000000000000000000000000000000140054005400540054005400540054005400540054005400540054005400540054005400540054003400000000540000
#001380:0000000000000000000000000000000000000000000000000000000000000000000054000000000000005400000000000000540000000000000054000000000000005400000000000000540000000000000054000000000000005400000000000000540000000000000054000000000000000000005400000000000000000000
#0013a0:0000000000000000000000000000000000000000000000000000000000000000000000000000540000000000000054000000000000005400000000000000540000000000000054000000000000005400000000000000540000000000000054000000000000005400000000000000540000000000000000000000000000000054
#002390:00003400000000540000000034005400540054005400540024000000000000000000000000000000000000000000000000000000000000000000000000000000
#002380:0000000000000000005400000000000000000000000000000000540000000000000054000000000000005400000000000000000000000000000000000000000000000000000000000000000000000000000000000000000000000000000000000000000000000000000000000000000000000000000000000000000000000000
#0023a0:0000000000000000000000000000000000000054000000000000000000005400000000000000540000000000000054000000000000000000000000000000000000000000000000000000000000000000000000000000000000000000000000000000000000000000000000000000000000000000000000000000000000000000
#003370:00130023
#0033b0:0033
#004380:00130000
#0043a0:0000003300000000
#0043b0:0023
#005320:13
#005360:00230000
#0053b0:0013
#005370:00000023
#006360:13
#006320:00230000
#006370:0013
#0063b0:00000023
#0073b0:00000013
#008380:0023
#007321:00000013
#008351:0023
#0103b1:0013
#010391:0000000000330000
#010371:00000023
#010360:0013
#010330:0000000000330000
#010320:00000023
#012320:0013
#012340:0000000000330000
#012360:00000023
#012371:0013
#0123a1:0000000000330000
#0123b1:00000023
#014321:1323000000000000
#014380:0013230000000000
#014351:0000132300000000
#0143b0:0000001323000000
#0153b0:00000013000000000000000000000000
#015380:0000002300000000
#015320:0013
#015350:00000023
#0163b0:13
#016370:00000023000000000000000000000000
#016321:00000013000000000000000000000000
#016361:0000002300000000
#017321:0000000013000023
#017351:0000000000330000
#017361:00000000000000000000005300000000
#017341:00000033
#018321:0013
#018351:00000023
#018380:0013
#0183b0:00000023
#0193b0:0000000013000023
#019380:0000000000330000
#019370:00000000000000000000005300000000
#019390:00000033
#0203b0:0013
#020380:00000023
#020351:0013
#020321:00000023
#0213b1:00132300
#021381:0000005300000000
#022321:00132300
#022351:0000005300000000
#023381:13
#0233b1:0033230000000000
#023350:00130000
#023320:0000003323000000
#023381:0013
#0233b1:0000000000332300
#023350:00000013
#023320:0000000000000033
#024320:23
#0243b0:0013002300000000
#024351:0013002300000000
#025321:13230000
#025351:0053000000000000
#0263b1:13230000
#026381:0053000000000000
#0273b1:13000053000023000000000000000000
#027321:00000000000000001300005300002300
#0283b1:00000000130000000000003323000000
#0283a1:00000000003300000000000000000000
#028391:00000000000033330033330000000000
#028381:0033
#028350:00000000130000000000003323000000
#028340:00000000003300000000000000000000
#028330:00000000000033330033330000000000
#028320:0033
#029350:13
#029320:00230000
#0293b1:13
#029381:00230000
#030341:0000000000120022
#0303a0:0000000000120022
#031320:13000053000023000000000000000000
#0313b0:00000000000000001300005300002300
#032350:0000000000130023
#032320:00000033
#033380:0000000000130023
#0333b0:00000033
#036320:14
#036360:0024000000000000
#036320:00140000
#036360:0000002400000000
#036320:0014
#036360:0000000000240000
#0373a0:14
#037360:0024000000000000
#0373a0:00140000
#037360:0000002400000000
#0373a0:0014
#037360:0000000000240000
#038320:13
#038350:00230000
#038370:0000000000000013
#0393b0:0023000000000000
#039351:0013003300330000
#039321:00333323
#040361:14
#0403a1:0024000000000000
#040361:00140000
#0403a1:0000002400000000
#041361:14
#041321:0024000000000000
#041361:00140000
#041321:0000002400000000
#042321:0000000000000013
#043351:0023000000000000
#0423b0:0000000000000013
#043380:0023000000000000
#0433b0:0000000000130000
#043380:0000000000003323
#044320:0013000000000000
#044350:0000332300000000
#044380:0000000000130000
#0443b0:0000000000003323
#045350:0013000000000000
#045320:0000332300000000
#045380:0000000000130023
#0453b0:00000033
#046350:0013002300000000
#046320:00330000
#047390:00140000
#0473a0:0022
#047331:00140000
#047341:0022
#048351:13
#048321:0034
#048361:0000000000000052
#049361:0032
#049321:00000053
#050351:3300330033000000330033003300330033333333333333333300000000000000
#050361:00000033000000000000000000000000
#050341:0000000000000000000000000000000000000000000000000033333333333333
#051321:24
#048380:1300000000000052
#0483a0:0034
#049380:0032
#0493b0:00000053
#050380:33
#050390:00333333333333330000000000000000
#0503a0:0000000000000000000000000000000033333333333333333333333333333333
#0513a0:24
#051320:0000000013000053
#051350:0000000000533300
#052320:23
#0513b1:0000000013000053
#051381:0000000000533300
#0523b1:23
#052321:0000000000000000000000000000000013535300000000000000000000000000
#052331:00000000000000000000000000000000000000000000000000000000000000000053005300005300530000000000000000000000000000000000000000000000
#052341:00000000000000000000000000000000000000000000000000000000000000000000000000530053000053005300530000000000000000000000000000000000
#052351:00000000000000000000000000000000000000000000000000000000000000000000000000000000005300530053005323000000000000000000000000000000
#0523b0:0000000000000000000000000000000013535300000000000000000000000000
#0523a0:00000000000000000000000000000000000000000000000000000000000000000053005300005300530000000000000000000000000000000000000000000000
#052390:00000000000000000000000000000000000000000000000000000000000000000000000000530053000053005300530000000000000000000000000000000000
#052380:00000000000000000000000000000000000000000000000000000000000000000000000000000000005300530053005323000000000000000000000000000000
#0533a0:0014
#053380:0000000000000000000000000000000000540000540000000000000000000000
#053390:00000000000000000054000000000000
#053370:0000000000000000000000000000000000000054000054000000000000000000
#053360:0000000000000000000000000000000000000000005400002400000000000000
#053350:0000000000000000000000000000000000000000000000540000000000000000
#053321:0000000000000000000000000000000013535353535353532300000000000000
#053331:00000000000000000000000000000000000000000000000000000000000000000053005300530053005300530053005300000000000000000000000000000000
#054321:14
#054341:0054000054000000000000000000000000000000000000000000000000000000
#054331:00540000000000000000000000000000
#054351:0000005400005400000000000000000000000000000000000000000000000000
#054361:0000000000540000240000000000000000000000000000000000000000000000
#054371:0000000000000054000000000000000000000000000000000000000000000000
#0543b0:1353535353535353230000000000000000000000000000000000000000000000
#0543a0:00530053005300530053005300530053000000000000000000000000000000000000000000000000000000000000000000000000000000000000000000000000
#0543a0:0014
#054380:0000000000000000000000000000000000540000540000000000000000000000
#054390:00000000000000000054000000000000
#054370:0000000000000000000000000000000000000054000054000000000000000000
#054360:0000000000000000000000000000000000000000005400002400000000000000
#054350:0000000000000000000000000000000000000000000000540000000000000000
#054321:0000000000000000000000000000000013535353535353532300000000000000
#054331:00000000000000000000000000000000000000000000000000000000000000000053005300530053005300530053005300000000000000000000000000000000
#055361:0000000000000000000000000000000014545400000000000000000000000000
#055351:00000000000000000000000000000000000000000000000000000000000000000054005400005400540000000000000000000000000000000000000000000000
#055341:00000000000000000000000000000000000000000000000000000000000000000000000000540054000054005400000000000000000000000000000000000000
#055331:00000000000000000000000000000000000000000000000000000000000000000000000000000000005400540000540024000000000000000000000000000000
#055321:00000000000000000000000000000000000000000000000000000000000000000000000000000000000000000054005400000000000000000000000000000000
#056351:1323000000000000
#056381:0000132300000000
#056341:0000000013230000
#056391:0000000000001323
#057331:1323000000000000
#0573a1:0000132300000000
#057321:0000000013230000
#0573b1:0000000000001323
#060351:000000000000000000000000000000000000000000000000000000000000000000000000000000000000000000000000000000000000000000000000000000000000000000000000130000533300530033530000330000533300530033530000
#060341:00000000000000000000000000000000000000000000000000000000000000000000000000000000000000000000000000530053005300530053005300530053
#061351:23
#061351:00000000000000130000005300000000
#061321:00000026
#061380:00000000000000001300005326000000
