This file was generated by Ched 2.6.2.0.
#TITLE ""
#ARTIST ""
#DESIGNER ""
#DIFFICULTY 0
#PLAYLEVEL
#SONGID ""
#WAVE ""
#WAVEOFFSET 0
#JACKET ""
#REQUEST "ticks_per_beat 480"
#00002: 4
#BPM01: 160
#00008: 01
#TIL00: ""
#HISPEED 00
#MEASUREHS 00
#01418:0000000000000013
#01415:00000000000000000000000000000013
#01518:13000013000000000000000000001300
#01515:0013000000000000
#01512:0000001313000013
#0151b:00000000000000000000001300000000
#01612:13
#01613:00000013000000000000000000000000
#01614:0000001300002300
#01618:13
#01619:00000013000000000000000023000000
#0161a:0000001300000000
#02518:00000013
#02515:1300000000000013
#0251b:0000000000130000
#0261b:0000000000130013
#02615:00000013
#02618:13
#03815:0000001300130000
#03818:00130013
#0381b:1313
#03812:1300000000000014
#03810:41
#04215:1300130000130013
#04218:0013000013001300
#01712:0013000000000000
#01718:00130000
#0171b:0013
#01715:0000001300000000
#01815:0013000000001300
#01812:13
#01818:0000130000000023
#0181b:0000001300000000
#02118:0013000000000013
#02115:13000000000000000000000000000013
#0211b:00130000
#02315:1313
#02312:0013000000130000
#0231b:0000001300000013
#02318:00130013
#02418:00000013
#02415:1300000000130000
#02412:0013
#0241b:0000000000000013
#02912:0000130000130000
#02918:0013000000001300
#02915:1300000000000013
#0291f:11
#03015:00130000
#03018:0000001300000000
#0301b:13
#03014:00000000000000000000130000130000
#03019:00000000000000000000130000130000
#03215:0013001300130000
#03218:1300130000000013
#0321b:0000000000130000
#03212:0000000000000013
#0281b:0000000000000013
#02815:0000131313000000
#0031b:00130000
#0031a:14
#00312:14
#00318:0033
#01312:0000000013130000
#0131b:0013000000000000
#01318:0000130000000013
#01315:0000001300001300
#0221b:0000000000000013
#02212:0000130000000013
#02215:0013000000000000
#02218:13
#05618:0013000000000000
#0561b:0000000000130000
#05615:0000001300000000
#05612:1300000000000013
#05718:0013000000000000
#0571b:0000000000130000
#05715:0000001300000000
#05712:0000000000000013
#06018:000000140014000000000000
#06012:13
#0601b:13
#06014:000014140000
#04315:0000001300130023
#0431b:0013
#04318:00130013
#0471b:0013000000000000
#04715:0000000013000013
#04712:0013000000000000
#04718:00130013
#05518:0013130000000000
#05515:00000013000000000000000000000000
#05512:1300001300000000
#05315:0013130000000000
#0531b:1300001300000000
#05318:00000013000000000000000000000000
#05118:0013001300000000
#05115:00130013
#02712:1313
#02718:0013000000130000
#02715:00130013
#0271b:0000001300000013
#02710:41
#0501b:13
#05012:13
#04918:0013
#04915:0013
#05818:0013000000130000
#0581b:2300000000000013
#05812:0000001323001300
#05815:00130000
#05915:0013000000130000
#05918:00130000
#0591b:0000001323001300
#05912:2300000000000013
#0311b:1313001300000000
#03118:00130000
#03112:0000000013130013
#03115:00000013
#03318:0013001300130000
#03315:1300130000000013
#03312:0000000000130000
#0331b:0000000000000013
#00415:00130000
#00414:0000003300000000
#0191b:0013000000000000
#01915:00130033
#01912:0013
#01918:0000001300000000
#01914:0000000000330000
#0201b:13
#02018:0013000000000000
#02015:00130000
#02012:0000001300000000
#02010:41
#0341b:0013
#03415:0013
#04012:2413
#04018:24001313
#04015:0000000000130000
#04014:00240000
#0401a:00240000
#0411b:0013
#04115:00001313
#04118:0000240000130000
#0411a:24
#04114:24
#04112:00240000
#0481b:0013
#04812:0013
#0011a:24140000
#00116:00000014
#00112:24
#00215:0000001300130000
#00218:00001313
#00715:0013000000130000
#00718:00130000
#00712:0000001300000000
#0071b:2313
#0071a:00000023
#00713:00000023
#01015:00131300
#0101b:0000001300000000
#01018:0013000000000000
#01012:13
#00918:0000001300000013
#00915:0013000000130000
#0091b:13
#04412:0000000000130000
#04418:0013002300001300
#04415:0000130000000023
#0451b:0013000000000000
#04515:0000130000130000
#04518:0000002300001300
#04512:0000000000000023
#04615:0000130000130000
#04618:0013000000001300
#0461b:0000002300000023
#04612:0000000000000023
#03715:0000000000000013
#03718:00002413
#03719:00240000
#03712:0024
#03713:00240000
#03714:24
#0371a:24
#03618:24000014
#03612:24000014
#0361f:21
#03613:00240000
#03614:0024
#0361a:0024
#03619:00240000
#06119:00001325
#06114:0013
#06112:00000025
#01218:00131300
#01212:0000001300000000
#01215:0013000000000000
#0121b:13
#01210:41
#01115:0000001300000013
#01118:0013000000130000
#01112:13
#05218:00230000
#00510:41
#05410:41
#0035b:00530000
#0215b:00530000
#02158:0013
#04255:0000000000000053
#0175b:0063
#0505b:53
#05052:63
#04958:0053
#04955:0063
#00455:00530000
#01952:0053
#02252:00630000
#02255:0013
#02555:23
#02552:00130000
#02658:23
#0265b:00130000
#0345b:0053
#03455:0053
#03852:0000000000000054
#04052:14
#04058:14
#0405a:00140000
#04054:00140000
#0415a:14
#04158:00140000
#04154:14
#04152:00140000
#0485b:0063
#04852:0053
#05155:00000053
#06159:00002345
#06152:00000035
#06154:0023
#0015a:00640000
#00156:00000024
#00958:0000001300000013
#00955:0013000000130000
#01055:0063
#03658:14000064
#03652:14000064
#03653:00140000
#03654:0014
#0365a:0014
#03659:00140000
#03759:00140000
#03758:0014
#03752:0014
#03753:00140000
#03754:14
#0375a:14
#02855:0053
#05658:0013000000000000
#05655:0000001300000000
#0565b:0000000000130000
#05652:0000000000000013
#05758:0013000000000000
#05755:0000001300000000
#0575b:0000000000130000
#05752:0000000000000013
#01654:00000013
#01659:00000013
#04355:0000000000000013
#04458:0000001300000000
#04455:0000000000000013
#04558:0000001300000000
#04552:0000000000000013
#0465b:0000001300000013
#04652:0000000000000013
#01155:0000001300000013
#01158:0013000000130000
#01258:0053
#02952:00130000
#03255:0000001300000000
#03358:0000001300000000
#05252:13
#0013a0:00140000
#001360:00000054
#0023a0:00240000
#0033b0:00130000
#003380:00003323
#004350:13330000
#004340:0000003300000000
#004320:00000023
#0053b0:13
#005380:00230000
#005320:0013
#005350:00000023
#006380:13
#0063b0:00230000
#006350:0013
#006320:00000023
#0073a0:00000013
#0083a0:0023
#007331:00000013
#008331:0023
#010351:0013
#010321:00000023
#012381:0013
#0123b1:00000023
#014341:14342400
#014321:0034003400000000
#0143a0:14342400
#014380:0034003400000000
#016340:00000000000000001333333323000000
#016391:00000000000000001333333323000000
#0173b1:0013
#017381:00000023
#019321:0013
#019341:0000000000330000
#019351:0000000000003323
#0213b1:00130000
#021381:0023
#022321:00130000
#022351:0023
#025351:13
#025321:00230000
#026381:13
#0263b1:00230000
#028351:0013
#028321:00000023
#0343b1:1333
#035381:23
#034350:1333
#035320:23
#036380:00000014
#0373a0:24
#036321:00000014
#037341:24
#038321:0000000000000014
#039341:0034003400340000
#039321:00343424
#042351:0000000000000013
#043321:0023000000000000
#0483b1:1333
#049381:5333
#0503b1:33
#051381:24
#048320:1333
#049350:5333
#050320:33
#051340:24
#051350:00001333
#052320:23
#052340:0000000000000000000000000000000014545454545454542400000000000000
#052350:00000000000000000000000000000000000000000000000000000000000000000054005400540054005400540054005400000000000000000000000000000000
#053340:0000000000000000000000000000000014545454545454542400000000000000
#053350:00000000000000000000000000000000000000000000000000000000000000000054005400540054005400540054005400000000000000000000000000000000
#054380:1454545454545454240000000000000000000000000000000000000000000000
#054370:00540054005400540054005400540054000000000000000000000000000000000000000000000000000000000000000000000000000000000000000000000000
#054340:0000000000000000000000000000000014545454545454542400000000000000
#054350:00000000000000000000000000000000000000000000000000000000000000000054005400540054005400540054005400000000000000000000000000000000
#055380:0000000000000000000000000000000014545454545454542400000000000000
#055370:00000000000000000000000000000000000000000000000000000000000000000054005400540054005400540054005400000000000000000000000000000000
#061390:13333333333333333300000025000000
#061341:13333333333333333300000000000000
#061321:00000025
