This file was generated by Ched 2.6.2.0.
#TITLE ""
#ARTIST ""
#DESIGNER ""
#DIFFICULTY 0
#PLAYLEVEL
#SONGID ""
#WAVE ""
#WAVEOFFSET 0
#JACKET ""
#REQUEST "ticks_per_beat 480"
#00002: 4
#BPM01: 160
#00008: 01
#TIL00: ""
#HISPEED 00
#MEASUREHS 00
#01016:0012001200130013
#01012:12121313
#01018:12120000
#0101c:0012001200000000
#01316:0013001300160000
#0131b:0013001300000000
#01312:13131600
#01317:00130000
#01314:00000016
#01318:0000000000000016
#01412:1300000000000013
#01418:00000000000000000000000000000013
#01417:0013001300000000
#01416:13130014
#0141b:0013
#0151b:0013001300000000
#01512:00000013000000000000001300000000
#01514:0013
#01516:00000013
#01517:00000013000000001300000000000000
#01515:13
#01519:0000000000000013
#0161b:1300001300002300
#01612:00000013000000000000000023000000
#01612:00000023
#01616:1300000012120000
#01618:00000000000000000012001200000000
#02512:1300000000130000
#02518:0000000000130013
#02515:00000013
#0251b:00130000
#02519:0013000000000000
#02516:0013000000000000
#02517:23
#02817:000000000000130000000000000000003333000000000000
#02816:000000000000000000003333130000000000000000130000
#0281b:000000000000000000003333130000000000000000130000
#02812:000000000000130000000000000000003333000000000000
#02813:000000000000003300000000000000000000000000000000
#02814:000000003300003300000000
#02815:000000000000000000000000003300000000000000000000
#02819:000000000000003333000000000033000000000000000000
#0281a:000000000000000000000000003300000000000000000000
#03812:1300000013000013
#03814:0000001300000000
#0381b:0000130000130000
#03815:00003300000000000000001300000000
#03817:1300000000000013
#03818:00000013
#03819:0013003300000000
#03810:41
#04212:00130000
#04214:000000130000000000000000000034003400000000000000
#04216:14
#0421b:00130000
#04219:000000130000000000000000000000003434000000000000
#04218:000000000000000000000000003434000000000000130000
#04215:0000000000000013
#04213:000000000000000000000000003400000034000000000000
#01716:0012000000120012
#0171c:00120012
#01719:00000012000000000000000000000000
#0171a:0000001200000000
#01718:0012
#01712:22121212
#02118:0000000000000013
#02115:00000000000000000000000000000013
#02117:13
#0211b:0013000000001300
#02112:13000013
#02116:0013000000000000
#0221b:13
#02217:0013000000000000
#02212:0013000000001400
#02214:0000000000000013
#0221a:00000014
#0241b:1313000000001300
#02417:0013000013000000
#02416:13000013
#02412:0013
#02414:0000000000130000
#02419:0000000000000013
#02912:13000013
#02915:0000000000130013
#02917:13
#02918:0000000000130000
#0291f:11
#0291b:00000013
#03012:13130000
#03015:0000001300000000
#0301b:1300130000130000
#03016:0000000000130000
#03018:0013000000000000
#03216:0000000000130000
#0321b:1300130000130000
#03217:0013001300000000
#03212:13130000
#03213:0013001300000000
#03317:0000000000130000
#03312:1300130000130000
#03316:0013001300000000
#0331b:13130000
#0331a:0013001300000000
#00417:0000130000000013
#0041b:0000001313130000
#00212:0000001300000000
#00213:0000000000140000
#0021b:00000013
#00219:00001400000000140000000014001400140014001400140014001400140014000000000000000000000000000000000000000000000000000000000000000000
#00218:0000000000000000001400000000000000000000000000000000140000000000000014000000000000001400000000000000140000000000000014000000000000000000000000000000000000000000000000000000000000000000000000000000000000000000000000000000000000000000000000000000000000000000
#0021a:0000000000000000000000000000000000000014000000000000000000001400000000000000140000000000000014000000000000001400000000000000140000000000000000000000000000000000000000000000000000000000000000000000000000000000000000000000000000000000000000000000000000000000
#00312:1400000013000013
#0031a:14
#00316:00130013
#01812:0013
#01817:0000001313000000
#01816:1300000000130024
#0181b:0000000000130000
#06012:1c00000013130000
#06015:00130000
#06018:000000000000000000000000000000130000000000000000000000000000000000000000120000001200000012000000
#0601b:0000000013130000
#06016:000000000000000000000000000000000000001200120012
#06118:00001300000013000000001326000000
#06115:00000013000000000000001300000000
#06112:00130000001300000000000026000000
#0611b:13130000
#03515:00000012
#03519:00000012
#03512:13
#0351b:13
#04712:0000001300001300
#04719:0000000000000013
#04714:0000000000000013
#0471b:0000001300001300
#04718:0000000013130000
#04715:00000000000000000013000000000000
#05517:1200001300000000
#05516:0013000000000000
#05519:00000013000000000000000000000000
#05515:00120000
#05512:1200001300000000
#0551c:00120000
#0511a:00000014
#05112:00001314
#0511b:0013
#05119:00130000
#05114:00130000
#05117:0012001200000000
#00119:00000000000000000000000000000000140014001400140014001400140014001400140014001400140014001400140014001400140014001400000000140000
#00118:0000000000000000000000000000000000000000000000000000000000000000000014000000000000001400000000000000140000000000000014000000000000001400000000000000140000000000000014000000000000001400000000000000140000000000000014000000000000000000001400000000000000000000
#0011a:2400000000000000000000000000000000000000000000000000000000000000000000000000140000000000000014000000000000001400000000000000140000000000000014000000000000001400000000000000140000000000000014000000000000001400000000000000140000000000000000000000000000000014
#00112:24
#0091b:1300001313000013
#00915:00130000130000000013000013000000
#00918:00001300001300000000130000130000
#00912:1300001313000013
#02316:1313
#0231b:1313
#02319:0013000000130000
#02312:00130013
#02317:00130013
#02314:0000001300000013
#02618:00000013
#02615:0000000000130013
#0261b:13
#02612:00130000
#02614:0013000000000000
#02617:0013000000000000
#02616:23
#02717:0013000000000013
#0271a:00130000
#02716:0000001300130000
#02713:00000013
#02712:0013
#0271b:13
#02710:41
#03616:00000014000000140000130000000000
#0361b:0000000000000013
#0361a:2414240024000000
#03612:2400241424000000
#0361f:21
#04018:0013001313000000
#04015:00000013000000130000000000000000
#0401b:2300230000130000
#04012:0000230000000013
#04016:23000013
#04316:0000140000131300
#04314:0000001800000000
#04312:1300000015000023
#04319:0015
#0431b:13
#05615:00130000130000000013000013000000
#05612:0013000000130000
#05618:23000000001300002300000000130000
#0561b:0000001300000013
#05613:00000000000000330000000000000033
#0561a:00000033000000000000003300000000
#05317:1212131200000000
#05315:00000012000000000000000000000000
#05312:00130000
#0531c:1200001200000000
#00515:0013000000000000
#00513:00130000
#00517:0000001300000000
#00518:0000000000130000
#0051a:00000013
#00516:0000000000000013
#0051b:0013
#00512:23
#00510:41
#01218:0012001200000000
#0121c:12120000
#01216:12120000
#01212:0012001200000000
#0121b:00001313
#01217:0000000000130013
#01210:41
#01118:00130000130000000013000013000000
#01115:00001300001300000000130000130000
#0111b:1300001313000013
#01112:0000001313000013
#0441b:1300002300000000
#04416:13000013
#04417:0013130013000000
#04412:0000000013130023
#0451b:1313002300000000
#04516:1300000000130023
#04517:00131300
#04512:00001313
#04617:0013002300000000
#0461b:0000130000130000
#04619:1313
#04614:1313
#04612:0000000000000023
#04813:001a0000
#04815:00000016
#04814:0018
#04812:1c
#04917:00120000
#04916:1414
#04915:0000000000160000
#04914:00000018
#04913:000000000000001a
#03717:0000000000130000
#03712:2414240024000013
#03716:00000014000000140000000000000000
#0371a:2400241424000000
#03116:1313
#03114:0013000000130000
#03112:00130013
#0311b:1313
#03117:00130013
#03119:0000001300000013
#01918:0012000000120012
#01912:00120012
#01914:0000001200000000
#01916:0012
#0191c:12121212
#01915:00000012000000000000000000000000
#02016:0000001313000000
#02017:1300000000130000
#0201b:0013
#02012:0000000000130000
#02010:41
#00718:00120000001200000012000000120000
#00714:0012001200120012
#0071a:00000012000000000000001200000000
#00716:00120012
#00719:00000000000000120000000000000012
#00712:2222
#0071c:2222
#00815:00130000000013000000000000000000
#00812:23000013000000002c00000000000000
#00818:00001300001300000000000000000000
#0081b:13000000230000130000000000000000
#04115:0013001313000000
#04118:00000013000000130000000000000000
#04112:2300230000130000
#0411b:0000230000000013
#04117:23000013
#03412:0013001313002300
#03415:00000000000000000013001300001300
#03418:00000000000000000000130000130013
#0341b:23132313
#03417:0013001300000000
#03416:13230000
#00613:0013000000000000
#00615:00130000
#00612:0000001300000000
#0061a:0000000000130000
#00618:00000013
#0061b:0000000000000013
#00616:0013
#00617:23
#05715:00130000130013000013000013001300
#05712:00001300000000130000130000000013
#05718:23001300001300002300130000130000
#0571b:00000013000013000000001300001300
#05815:0016000000160000
#0581a:0000141200000000
#05812:0012001612001400
#05816:24132400
#0581c:0000000000120000
#05818:0000000000000016
#05814:0000000000000012
#05817:00000013
#05915:00000000000000000000000000000013
#05012:1c00003c00003c00003c00003c00003c00003c00003c00003c003c003c003c003c003c003c003c003c003c003c003c00
#05214:00230000
#05219:00230000
#05410:41
#02552:53330000
#02556:0023000000000000
#03256:0000000000630000
#0325b:4300430000630000
#03357:0000000000530000
#03352:3300330000530000
#02857:00630000
#02852:00630000
#02856:0053
#0285b:0053
#02952:63
#02957:63
#02958:0000000000630000
#0295b:00130023
#02955:0000000000000053
#02956:00130000
#00352:0013
#0245b:4363000000000000
#02457:0063000000000000
#01552:00000063000000000000000000000000
#01556:00000053
#01557:0063
#01652:00000053000000000000000033000000
#01652:00000033
#0165b:53000043
#01852:0053
#01857:0053
#0185b:0000000000230000
#01856:0000000000230000
#06052:1c
#06158:00000000000000000000002346000000
#06155:00000000000000000000002300000000
#06152:00000036
#03852:5300000000000053
#03857:0000000000000053
#0385b:00530000
#03555:00000012
#03559:00000012
#03552:33
#0355b:43
#01456:53530000
#01457:0053005300000000
#01452:0013
#0145b:0013
#05252:13
#0525b:13
#00158:0000000000000000000000000000000000000000000000000000000000000000000024000000000000002400000000000000240000000000000024000000000000002400000000000000240000000000000024000000000000002400000000000000240000000000000024000000000000000000002400000000000000000000
#00159:00000000000000000000000000000000640054006400540064005400640054006400540064005400640054006400540064005400640054006400000000640000
#0015a:0000000000000000000000000000000000000000000000000000000000000000000000000000240000000000000024000000000000002400000000000000240000000000000024000000000000002400000000000000240000000000000024000000000000002400000000000000240000000000000000000000000000000024
#00259:00006400000000640000000064005400640054006400540064005400640054001400000000000000000000000000000000000000000000000000000000000000
#00258:0000000000000000002400000000000000000000000000000000240000000000000024000000000000002400000000000000240000000000000024000000000000000000000000000000000000000000000000000000000000000000000000000000000000000000000000000000000000000000000000000000000000000000
#0025a:0000000000000000000000000000000000000024000000000000000000002400000000000000240000000000000024000000000000002400000000000000240000000000000000000000000000000000000000000000000000000000000000000000000000000000000000000000000000000000000000000000000000000000
#00252:0000001300000000
#0025b:00000013
#00253:0000000000140000
#0235b:4343
#02352:00330033
#0365a:4444
#03652:00343400
#05652:0033000000330000
#0565b:0000004300000043
#00457:0000131300000000
#0045b:0000000000130000
#00452:0000000000000013
#00857:00000012
#00852:005c
#02157:0013
#0095b:0000004300000043
#00958:0043000000430000
#01155:0033000000330000
#01152:0000003300000033
#05152:00002354
#0515b:0023
#0515a:00000054
#0405b:33330000
#04052:00330000
#01758:0052
#0175c:00000052
#01956:0062
#01952:00000062
#0205b:0063
#02056:0063
#02052:0000000000230000
#02057:0000000000230000
#04356:0000000000130000
#04352:2300000000000033
#0435b:23
#04457:0013000000000000
#04452:0000000000130033
#0445b:0000004300000000
#0455b:0013004300000000
#04556:0000000000130033
#04657:0013004300000000
#0465b:0000000000430000
#04652:0000000000000033
#02256:0013
#0305b:0000230000530000
#03056:0000000000530000
#03052:23
#03058:0063000000000000
#03752:3434
#0375a:00444400
#04152:43430000
#0415b:00430000
#01056:0000000000000023
#01052:00000053
#01257:0000000000000023
#0125b:00000063
#05557:00000033
#05552:00000033
#05752:0033000000330000
#0575b:0000004300000043
#05052:6c
#0265b:63430000
#02657:0023000000000000
#04258:0000000000000063
#04255:0000000000000053
#001390:00000000000000000000000000000000140054005400540054005400540054005400540054005400540054005400540054005400540054003400000000540000
#001380:0000000000000000000000000000000000000000000000000000000000000000000054000000000000005400000000000000540000000000000054000000000000005400000000000000540000000000000054000000000000005400000000000000540000000000000054000000000000000000005400000000000000000000
#0013a0:0000000000000000000000000000000000000000000000000000000000000000000000000000540000000000000054000000000000005400000000000000540000000000000054000000000000005400000000000000540000000000000054000000000000005400000000000000540000000000000000000000000000000054
#002390:00003400000000540000000034005400540054005400540054005400540054002400000000000000000000000000000000000000000000000000000000000000
#002380:0000000000000000005400000000000000000000000000000000540000000000000054000000000000005400000000000000540000000000000054000000000000000000000000000000000000000000000000000000000000000000000000000000000000000000000000000000000000000000000000000000000000000000
#0023a0:0000000000000000000000000000000000000054000000000000000000005400000000000000540000000000000054000000000000005400000000000000540000000000000000000000000000000000000000000000000000000000000000000000000000000000000000000000000000000000000000000000000000000000
#0033b0:00130000
#003360:0000002300000000
#003360:0013
#0033b0:0000000000230000
#0033b0:00000013
#003360:0000000000000023
#004320:00130000
#004370:0000002300000000
#004370:0013
#004320:0000000000000023
#005380:1323000000000000
#0053b0:0000132300000000
#005350:0000000013230000
#005320:0000000000001323
#0063b0:1323000000000000
#006380:0000132300000000
#006320:0000000013230000
#006350:0000000000001323
#008320:001c
#008370:00000022
#010370:00001323
#0103b0:0000000000330000
#010321:00000013
#010361:0000000000000053
#011321:23
#012361:00001323
#012321:0000000000330000
#0123b0:00000013
#012370:0000000000000053
#0133b0:23
#014360:13
#0143b0:0023000000000000
#014371:0013000000000000
#014321:00230000
#014360:00130000
#0143b0:0000002300000000
#014371:0000001300000000
#014321:0023
#015321:00000013000000000000000000000000
#015371:0000002300000000
#015371:0013
#0153b1:00000000000000000000002300000000
#015361:00000013
#015321:0000000000000023
#0163b1:13
#016361:00000023000000000000000000000000
#016320:00000013000000000000000000000000
#016370:0000002300000000
#017380:0012
#0173c0:0000000000220000
#0173c0:00000012
#017380:0000000000000022
#0183b0:13230000
#018370:0033000000000000
#018321:0013002300000000
#018361:00330000
#018371:00001323
#0183b1:0000000000530000
#018320:00001323
#018360:0000000000530000
#019360:0012
#019320:0000000000220000
#019320:00000012
#019360:0000000000000022
#020320:13230000
#020360:0033000000000000
#0203b1:0013002300000000
#020371:00330000
#020361:00001323
#020321:0000000000530000
#0203b0:00001323
#020370:0000000000530000
#021320:00000000130000532300000000000000
#021360:00000000005333000000000000000000
#021371:00000000130000532300000000000000
#0213b1:00000000005333000000000000000000
#0223b1:00000000130000532300000000000000
#022371:00000000005333000000000000000000
#022360:00000000130000532300000000000000
#022320:00000000005333000000000000000000
#0243b0:0013000000000000
#024360:0000532300000000
#024371:0013000000000000
#024321:0000532300000000
#025321:13230000
#025361:0033000000000000
#0263b1:13230000
#026371:0033000000000000
#027371:13
#027331:0033000000000000
#027361:00330000
#027321:0000002300000000
#027361:0013
#0273a1:0000000000330000
#027371:00000033
#0273b1:0000000000000023
#028371:000000000000130000000000000000333333230000000000
#028391:000000000000003333000000000033000000000000000000
#0283b1:000000000000000000333333330000000000000000000000
#0283a1:000000000000000000000000003300000000000000000000
#028320:000000000000130000000000000000333333230000000000
#028330:000000000000003300000000000000000000000000000000
#028340:000000003300003300000000
#028360:000000000000000000333333330000000000000000000000
#028350:000000000000000000000000003300000000000000000000
#029320:13
#029360:0053230000000000
#029371:13
#0293b1:0053230000000000
#029381:0000000000130023
#0293b1:00000033
#029350:0000000000000013
#030320:33
#030350:0023000000000000
#030381:0013002300000000
#0303b1:00330000
#0303b1:0000000000130000
#030371:0000000000005323
#030360:0000000000130000
#030320:0000000000005323
#032360:0000000000130000
#032320:0000000000000023
#0323b1:0000000000130000
#032371:0000000000000023
#033371:0000000000130000
#0333b1:0000000000000023
#033320:0000000000130000
#033360:0000000000000023
#036320:1424000000000000
#0363a0:0000142400000000
#0363b0:0000000000130000
#036370:00000023
#036321:00000013
#036361:0000000000000023
#0373a1:1424000000000000
#037321:0000142400000000
#037321:0000000000130000
#037361:00000023
#0373b0:00000013
#037370:0000000000000023
#038320:13
#038350:0033000000000000
#038360:00230000
#0383b1:00130000
#038391:0000003300000000
#038371:0023
#038321:0000000000000013
#039361:23
#038370:0000000000000013
#0393b0:23
#039360:0013003300330000
#039320:00333323
#0393b1:0013003300330000
#039371:00333323
#040361:13
#040321:0023000000000000
#040321:0013
#040361:0000000000230000
#0403b1:00000013
#040371:0000000000000023
#041371:13
#0413b1:0023000000000000
#0413b1:0013
#041371:0000000000230000
#041321:00000013
#041361:0000000000000023
#0423a1:0014
#042381:000000000000000000000000003434000000000000000000
#042341:000034
#042331:000000000000000000000000000000000034000000000000
#042321:00000024
#042320:0014
#042330:000000000000000000000000003400000000000000000000
#042340:000000000000003400000000
#042360:0000000000340000
#042390:000000000000000000000000000000003434000000000000
#0423a0:00000024
#042380:0000000000000013
#0433b0:53
#043380:0023000000000000
#042351:0000000000000013
#043321:53
#043351:0023000000000000
#0433b1:0000000000133300
#043371:0000000000000023
#044321:0013330000000000
#044361:0000002300000000
#044371:0000000000130000
#0443b1:0000000000003323
#045361:0013000000000000
#045321:0000332300000000
#0453b1:0000000000130023
#045371:00000033
#046321:0013002300000000
#046361:00330000
#046361:0000000000130000
#046321:00000023
#0463b0:00000013
#046370:0000000000000023
#047330:14543454345434543454345434543454240000000000000000000000000000000000000000000000000000000000000000000000000000000000000000000000
#047340:0052005200520052005200520052005200520052005200520052005200520052000000000000000000000000000000000000000000000000000000000000000000000000000000000000000000000000000000000000000000000000000000000000000000000000000000000000000000000000000000000000000000000000
#047391:14543454345434543454345434543454240000000000000000000000000000000000000000000000000000000000000000000000000000000000000000000000
#0473a1:0052005200520052005200520052005200520052005200520052005200520052000000000000000000000000000000000000000000000000000000000000000000000000000000000000000000000000000000000000000000000000000000000000000000000000000000000000000000000000000000000000000000000000
#050321:1c00003c00003c00003c00003c00003c00003c00003c00003c003c003c003c003c003c003c003c003c003c003c003c00
#051371:22
#051321:0013
#0513a1:00000034
#052321:23
#0513b0:0013
#051320:00000034
#0523b0:23
#052320:0000000000000000000000000000000013535300000000000000000000000000
#052330:00000000000000000000000000000000000000000000000000000000000000000053005300005300530000000000000000000000000000000000000000000000
#052340:00000000000000000000000000000000000000000000000000000000000000000000000000530053000053005300530000000000000000000000000000000000
#052350:00000000000000000000000000000000000000000000000000000000000000000000000000000000005300530053005323000000000000000000000000000000
#0523b1:0000000000000000000000000000000013535300000000000000000000000000
#0523a1:00000000000000000000000000000000000000000000000000000000000000000053005300005300530000000000000000000000000000000000000000000000
#052391:00000000000000000000000000000000000000000000000000000000000000000000000000530053000053005300530000000000000000000000000000000000
#052381:00000000000000000000000000000000000000000000000000000000000000000000000000000000005300530053005323000000000000000000000000000000
#053371:0000000000000000000000000000000013535300000000000000000000000000
#053381:00000000000000000000000000000000000000000000000000000000000000000053005300005300530000000000000000000000000000000000000000000000
#053391:00000000000000000000000000000000000000000000000000000000000000000000000000530053000053005300000000000000000000000000000000000000
#0533a1:00000000000000000000000000000000000000000000000000000000000000000000000000000000005300530000530000000000000000000000000000000000
#0533b1:00000000000000000000000000000000000000000000000000000000000000000000000000000000000000000053005323000000000000000000000000000000
#053320:0000000000000000000000000000000013535300000000000000000000000000
#053330:00000000000000000000000000000000000000000000000000000000000000000053005300005300530000000000000000000000000000000000000000000000
#053340:00000000000000000000000000000000000000000000000000000000000000000000000000530053000053005300000000000000000000000000000000000000
#053350:00000000000000000000000000000000000000000000000000000000000000000000000000000000005300530000530000000000000000000000000000000000
#053360:00000000000000000000000000000000000000000000000000000000000000000000000000000000000000000053005323000000000000000000000000000000
#054360:1353530000000000000000000000000000000000000000000000000000000000
#054350:00530053000053005300000000000000000000000000000000000000000000000000000000000000000000000000000000000000000000000000000000000000
#054340:00000000005300530000530053000000000000000000000000000000000000000000000000000000000000000000000000000000000000000000000000000000
#054330:00000000000000000053005300005300000000000000000000000000000000000000000000000000000000000000000000000000000000000000000000000000
#054320:00000000000000000000000000530053230000000000000000000000000000000000000000000000000000000000000000000000000000000000000000000000
#0543b1:1353530000000000000000000000000000000000000000000000000000000000
#0543a1:00530053000053005300000000000000000000000000000000000000000000000000000000000000000000000000000000000000000000000000000000000000
#054391:00000000005300530000530053000000000000000000000000000000000000000000000000000000000000000000000000000000000000000000000000000000
#054381:00000000000000000053005300005300000000000000000000000000000000000000000000000000000000000000000000000000000000000000000000000000
#054371:00000000000000000000000000530053230000000000000000000000000000000000000000000000000000000000000000000000000000000000000000000000
#054371:0000000000000000000000000000000013535300000000000000000000000000
#054381:00000000000000000000000000000000000000000000000000000000000000000053005300005300530000000000000000000000000000000000000000000000
#054391:00000000000000000000000000000000000000000000000000000000000000000000000000530053000053005300000000000000000000000000000000000000
#0543a1:00000000000000000000000000000000000000000000000000000000000000000000000000000000005300530000530000000000000000000000000000000000
#0543b1:00000000000000000000000000000000000000000000000000000000000000000000000000000000000000000053005323000000000000000000000000000000
#054320:0000000000000000000000000000000013535300000000000000000000000000
#054330:00000000000000000000000000000000000000000000000000000000000000000053005300005300530000000000000000000000000000000000000000000000
#054340:00000000000000000000000000000000000000000000000000000000000000000000000000530053000053005300000000000000000000000000000000000000
#054350:00000000000000000000000000000000000000000000000000000000000000000000000000000000005300530000530000000000000000000000000000000000
#054360:00000000000000000000000000000000000000000000000000000000000000000000000000000000000000000053005323000000000000000000000000000000
#055360:0000000000000000000000000000000013535300000000000000000000000000
#055350:00000000000000000000000000000000000000000000000000000000000000000053005300005300530000000000000000000000000000000000000000000000
#055340:00000000000000000000000000000000000000000000000000000000000000000000000000530053000053005300000000000000000000000000000000000000
#055330:00000000000000000000000000000000000000000000000000000000000000000000000000000000005300530000530000000000000000000000000000000000
#055320:00000000000000000000000000000000000000000000000000000000000000000000000000000000000000000053005323000000000000000000000000000000
#0553b1:0000000000000000000000000000000013535300000000000000000000000000
#0553a1:00000000000000000000000000000000000000000000000000000000000000000053005300005300530000000000000000000000000000000000000000000000
#055391:00000000000000000000000000000000000000000000000000000000000000000000000000530053000053005300000000000000000000000000000000000000
#055381:00000000000000000000000000000000000000000000000000000000000000000000000000000000005300530000530000000000000000000000000000000000
#055371:00000000000000000000000000000000000000000000000000000000000000000000000000000000000000000053005323000000000000000000000000000000
#056381:0013000000000000
#0563a1:00000033000000000000000000000000
#0563b1:00230000
#056351:0000001300000000
#056331:00000000000000330000000000000000
#056321:0023
#056381:0000000000130000
#0563a1:00000000000000000000003300000000
#0563b1:00000023
#056351:0000000000000013
#056331:00000000000000000000000000000033
#057321:23
#0593b1:13230000000000000000000000000000
#059320:00132300000000000000000000000000
#059381:00001323000000000000000000000000
#059350:00000013230000000000000000000000
#059381:00000000132300000000000000000000
#059320:00000000001323000000000000000000
#0593b1:00000000000013230000000000000000
#059350:00000000000000132300000000000000
#059381:00000000000000001323000000000000
#059320:00000000000000000013230000000000
#0593b1:00000000000000000000132300000000
#059350:00000000000000000000001323000000
#0593b1:00000000000000000000000013230000
#059320:00000000000000000000000000132300
#059381:00000000000000000000000000001323
#061351:00000000000000130000005300000000
#061321:00000026
#061380:00000000000000001300005326000000
