This file was generated by Ched 2.6.2.0.
#TITLE ""
#ARTIST ""
#DESIGNER ""
#DIFFICULTY 0
#PLAYLEVEL
#SONGID ""
#WAVE ""
#WAVEOFFSET 0
#JACKET ""
#REQUEST "ticks_per_beat 480"
#00002: 4
#BPM01: 160
#00008: 01
#TIL00: ""
#HISPEED 00
#MEASUREHS 00
#0051a:14140000
#00514:00001414
#00510:41
#00618:14140000
#00612:00001414
#0071a:14
#00712:00140000
#00718:0014
#0091a:1414
#00914:00140014
#0131a:1414
#01312:00000014
#01314:00140000
#01412:00150000
#01419:1515
#01612:15
#01619:00150000
#01719:15
#01716:00150015
#01713:0015
#01819:15
#02112:1414
#02118:00140000
#02714:00140000
#0271a:1414
#02712:00000014
#02718:0000000000000014
#02710:41
#03214:14140000
#03212:0000000000150000
#03219:0000000000000015
#03218:0014001400000000
#03314:14140000
#03319:0000000000000015
#03312:0000000000150000
#03318:0014001400000000
#03414:14001414
#03418:0000140000140014
#03514:14
#03112:14
#0311a:0014
#02312:14
#02318:00140000
#02313:0014
#02319:00000014
#02414:14
#0221a:1414
#02214:00140000
#03912:14000014
#03918:0014000000140000
#03914:00141400
#0391a:0000001400000000
#03818:14
#03812:14
#0381a:0014
#03814:0014
#03810:41
#0431a:14141400
#04314:0014001400000000
#04312:00000014
#04318:00000014
#04214:14
#0421a:14
#04212:0014
#04218:0014
#0441a:00140000
#04412:00000014
#04414:00140000
#04418:00000014
#0451a:00140000
#04512:0000000000140014
#04518:00000014
#04514:00140000
#0461a:0014001400000000
#04614:00140000
#04612:0000000000140014
#04618:00000014
#04718:0014000014000000
#0471a:00000014
#04712:00000014
#04714:00140000
#04818:16
#04815:0016
#04912:0016
#05015:16
#05114:00141400
#0511a:00000014
#05112:00000014
#05118:0014001400000000
#05318:0014
#05314:00000014
#0561a:14140000
#05612:00001414
#0571a:14140000
#05712:00001414
#05718:00001414
#05714:14140000
#05414:0014
#0541a:0014
#05410:41
#0581a:14141414
#05814:0014001400140014
#05918:14140000
#05912:0014001400000000
#00318:1414
#00312:00140000
#00414:1414
#0041a:00140000
#0291f:11
#02912:14140000
#01112:1414
#01118:00140014
#01512:1414
#0151a:00000014
#01518:00140000
#02012:15
#02010:41
#0251a:14
#02612:14
#0301a:14140000
#01912:15
#01915:00150015
#01918:0015
#05212:0014
#0521a:0014
#0011a:00140000
#00112:00140000
#06119:14001424
#06113:00140024
#00814:0014
#05518:0014
#05512:0014
#03612:24
#03618:24
#03619:00240000
#03613:00240000
#03614:0024
#0361a:0024
#0361f:21
#0371a:24
#03714:24
#03713:00240000
#03719:00240000
#03718:0024
#03712:0024
#0401a:24
#04014:24
#04013:00240000
#04019:00240000
#04018:0024
#04012:0024
#04112:24
#04118:24
#04119:00240000
#04113:00240000
#04114:0024
#0411a:0024
#01210:41
#01459:0015
#01859:55
#02152:0014
#03152:54
#0315a:0054
#0225a:0014
#03654:0014
#0365a:0014
#03758:0014
#03752:0014
#0385a:0054
#03854:0054
#03858:54
#03852:54
#04254:64
#0425a:64
#04252:0064
#04258:0064
#04058:0014
#04052:0014
#04154:0014
#0415a:0014
#04952:0066
#04858:66
#04855:0056
#05354:00000014
#05358:0014
#05454:0054
#0545a:0054
#06153:00000034
#06159:00000044
#02052:65
#02952:00540000
#0305a:00540000
#05055:56
#05252:0024
#0525a:0024
#0015a:00540000
#00152:00540000
#02454:14
#00854:0024
#05956:00000018
#05558:0064
#05552:0064
#001320:14340000
#001340:00000054
#002340:00240000
#0013a1:14340000
#001381:00000054
#002381:00240000
#007341:00000014
#008341:34343400
#008321:00000028
#010381:16
#010351:0026
#012321:16
#012351:0026
#016321:0000000015352500
#018391:15
#018361:0025
#020321:15
#020351:0025
#0253a1:00140000
#025381:00000024
#026321:00140000
#026341:00000024
#029321:00140000
#029341:00000024
#0303a1:00140000
#030381:00000024
#031321:14
#031341:00240000
#0313a1:0014
#031381:00000024
#038381:14
#0383a1:00240000
#038320:14
#038340:00240000
#0383a0:0014
#038380:00000024
#038341:0014
#038321:00000024
#042341:14
#042321:00240000
#0423a0:14
#042380:00240000
#042320:0014
#042340:00000024
#042381:0014
#0423a1:00000024
#048381:16
#048351:0036
#049381:26
#049321:0016
#050351:36
#051321:26
#052321:1454
#053341:24
#0523a0:1454
#053380:24
#054340:14343400
#054320:00000024
#0543a1:14343400
#054381:00000024
#055381:14343400
#0553a1:00000024
#055320:14343400
#055340:00000024
#059360:00001828
