This file was generated by Ched 2.6.2.0.
#TITLE "easy"
#ARTIST ""
#DESIGNER ""
#DIFFICULTY 0
#PLAYLEVEL
#SONGID ""
#WAVE ""
#WAVEOFFSET 0
#JACKET ""
#REQUEST "ticks_per_beat 480"
#00002: 4
#BPM01: 128
#00008: 01
#TIL00: ""
#HISPEED 00
#MEASUREHS 00
#00319:14
#00310:41
#00413:14
#00519:14
#00613:14
#00719:14
#01214:14
#01318:14
#01310:41
#0151a:14
#01614:14
#01719:14
#0191a:14
#01910:41
#02112:14
#04312:0016
#04318:26
#0431f:21
#04310:0041
#04418:1616
#04512:16
#04518:0016
#04612:1616
#04719:1414
#06113:14
#06219:14
#00813:14
#00919:14
#01013:14
#01412:14
#01813:14
#0201a:14
#02212:14
#04913:1414
#05118:0016
#05112:26
#05212:1616
#05318:16
#05312:0016
#05418:1616
#05513:1414
#05719:1414
#06313:14
#06419:14
#06519:14
#06613:14
#02718:14
#02914:14
#02910:41
#02818:14
#03014:14
#03519:14
#0351f:11
#03613:14
#03719:14
#03813:14
#0111a:24
#06713:24
#06719:24
#05910:41
#023380:14
#024380:24
#025340:14
#026340:24
#0313a0:14
#0323a0:24
#033320:14
#034320:24
#039390:14
#040390:24
#041330:14
#042330:24
#048390:1424
#050330:1424
#056330:1424
#058390:1434
#059390:34
#060390:24
