This file was generated by Ched 2.6.2.0.
#TITLE "expert"
#ARTIST ""
#DESIGNER ""
#DIFFICULTY 0
#PLAYLEVEL
#SONGID ""
#WAVE ""
#WAVEOFFSET 0
#JACKET ""
#REQUEST "ticks_per_beat 480"
#00002: 4
#BPM01: 128
#00008: 01
#TIL00: ""
#HISPEED 00
#MEASUREHS 00
#0031b:1300001300000000
#00312:0013000000130013
#00315:0000001300000000
#00318:0000130000000013
#00316:00000014
#00310:41
#00612:0000000000130013
#00616:0000001300001300
#0061b:0013001300001300
#00617:0000000000000013
#0111b:0000001300000013
#01116:0000001300000013
#01112:2300000000130000
#01118:23
#02315:0000130000130000
#0231b:00130000000000000000001300000000
#02316:0013000000000000
#0231a:00000013000000000000000000000000
#02319:00000000001300000000000000000000
#02318:00000000000000130000000000000000
#02312:00000000000000000000000000130013
#02314:0000001300000000
#02313:0013
#02417:13
#02413:00130000000000000000000000000000
#02418:0013000000130000
#02414:00000013000000000000000000000000
#02419:00130000
#02415:00000000001300000000000000000000
#0241a:0000001300000000
#02416:00000000000000130000000000000000
#0241b:0013
#02412:00000000000000000000001300001300
#02512:13
#0251b:00000000000013001300000000130000
#02515:0000000000000013
#02518:00000000000000000000000000000013
#02517:13
#02516:0013
#0391b:13
#03917:0013001300000000
#03913:00130000
#03912:00000000000000130000000000000000
#03915:0000000000000013
#03918:00000000000000000000000000000013
#0421a:00000013
#04213:00000013
#04219:00000013000000000000000000001300
#04214:00000013000000000000000000001300
#04212:0000000000000000000000130000000000000000130000000000000000000000
#0421b:0013000000000000000000000000000000000000130000000000000000000000
#04216:0013000000000000000000000000000000000000000000000000000000000000
#04217:0000000000000000000000130000000000000000000000000000000000000000
#04516:0000001300000000
#0451b:13000000000000130000000000001300
#04512:1300000000131300
#04518:0013000000000000
#04716:0000000000130000
#04712:0013130000000013
#04718:00001300130000130000000000000000
#04715:0000001300000000
#0471b:0000000000130000
#04717:0000000000000013
#04815:14
#04814:0013000000000000
#04817:0000140000000013
#0481b:0000001300131300
#04819:0013000000000000
#04816:0000001300131300
#04812:00000000000000000000000000000013
#04916:0000131300000000
#04917:0000000000131300
#0491b:0013131300000000
#04912:0000000000131300
#06612:00130013
#06616:1300000000000013
#06617:00130013
#0661b:1300000000000013
#0041b:0013001300130000
#00415:00000000000013000000001300000000
#00419:00000013
#00413:00000000000000000000000000130000
#00417:0000000000000013
#00416:00140000
#01212:00131300
#01215:0013001300001300
#01218:0000000000130013
#0121b:00001313
#01312:0000001300000013
#01317:0000001300000013
#0131b:2300000000131300
#01316:00000013
#01315:23
#01310:41
#0141b:00131300
#01418:0013001300001300
#01415:0000000000130013
#01412:00001313
#01517:0000001300000000
#01512:2300001300000013
#01516:0000000000130000
#01518:2300000000000013
#03118:0000131300130000
#03115:00130013000000130013000000000000
#0311b:00001300000000001300000000130013
#03112:00000000001300000000001300000000
#03215:1300001300130000
#0321b:00130000001300130000001300001300
#03212:0013130013000000
#03218:00000013000000000013000000000000
#0331b:1300000000131300
#03316:1300000000131300
#03312:0000001300000000
#03317:00000000000000130000000000000000
#03315:00000000000000000000000000000013
#03318:0000000000000013
#03415:0013001300000000
#03418:00130000
#0341b:13
#03412:0013
#03417:0013
#03815:00000000000000000000000000000013
#03818:0000000000000013
#03819:0013000000000000
#0381b:0000131300000000
#04012:1300000000000013
#04016:0013001300000000
#0401a:00130000
#0401b:00000000000000130000000000001300
#04312:0000000000000013
#04317:0000000000000013
#04318:2313000000000000
#04315:2313000000000000
#0431f:21
#04310:0041
#04416:13
#0441b:1313
#04418:0000001300000013
#04415:0000001300130013
#04412:0013
#04615:00000000000000000000130013000013
#04618:0013000000000013
#0461b:0000000000131300
#04612:0013000000000000
#05012:0000000000130000
#0501b:0000000000130000
#05013:00000013
#0501a:00000013
#05014:0000001300000013
#05019:0000001300000013
#0551b:00001300000000130000000000001300
#05516:0000001300000013
#05512:0000130000130000
#05517:0000000000130000
#05515:0013000000000000
#05518:00130000
#05617:1400001300131300
#05619:0013000000000000
#05615:00140000
#05612:0000001300131300
#05614:0013000000000000
#0511b:0000000000000013
#05116:0000000000000013
#05118:2313000000000000
#05115:2313000000000000
#05217:13
#05212:1300001300000013
#05215:0013
#0521b:0000001300130013
#05218:0013
#05712:0000000000130013
#0571b:0013130000000000
#05716:0013130000000000
#05717:0000000000130000
#05814:00000000000024140000000000001300
#05819:0000000000000013
#05813:0000000000000000000000000016000000000000000000000000000000000000
#05818:00000000000000000000241400000000
#05817:0000000000000000000000000000000000000000001600000000000000000000
#05919:13131313
#05917:0013000000130000
#0591b:0000001300000013
#05914:13131313
#05912:0013000000130000
#05916:0000001300000013
#05910:41
#01615:00131300
#0161b:0000000000131313
#01618:0013
#01616:00000000000000000000000000130000
#01612:0013001300000000
#03616:0000000000001413
#03612:00000000130000130000130000000000
#0361b:0000000000000013
#03617:0000001300130000
#03614:0013000000000000
#0351b:13000000000000000000000013000013
#03512:00000000130000130000000000000000
#03514:0013000000000000
#03517:0000001300000000
#03519:0000000000130000
#03516:2300000000000013
#0351f:11
#03712:00001300000000000000130000000013
#0371b:00000000130000130000000000000000
#03716:0000001300000000
#03717:00000000000000000013000000001300
#05418:0000000000130000
#0541b:0013000000001300
#05417:0000000000000013
#05412:00000000000000000000130000000013
#05415:0013000000001300
#00512:1300001300130000
#0051b:0013000000000013
#00515:0000130000000013
#00516:00000014
#00518:0000001300000000
#01012:0000001300001300
#01018:0013000000001300
#01015:0000000000000013
#01017:0000001300000000
#0101b:0000000000130000
#01016:13
#02017:0000130000130000
#0201b:0013001300001300
#02015:00000000000000130000000000000000
#02012:0000130000130000
#02016:0013000000001300
#01918:00000000130000000000000013000013
#01912:0000000000000013
#01915:0013001300130000
#0191b:00130000000000130000000000000000
#01910:41
#04115:0000131300001300
#04118:1300000013130000
#0411b:0013001300000000
#04114:0000000000000013
#04119:0000000000000013
#04112:0013000000130000
#0601b:0013000000000000
#06016:0013000000000000
#06014:00130000
#06019:00130000
#06017:0000001300131313
#06012:0000000000000013
#0631b:2300130000131300
#06317:0000000013000013
#06312:0000000013000013
#06316:23000000130000000000001300000000
#06412:0013000000000000
#06414:00130000
#06416:0000001313000000
#0641b:00001313
#06417:0000000000130000
#06415:00000000000000000000000000130000
#06418:0000000000000013
#06512:0013000013000000
#06518:00000013000000000000000000000000
#06515:00130000
#06517:0013
#06519:24000013
#06514:00000013
#06513:24
#00712:1300001300000000
#0071b:0013000000000013
#00718:0000001300130000
#00716:00001314
#00715:0000130000000013
#00812:0000001300130000
#00815:0013000000000000
#00817:13
#00818:00000000000013000000001300000000
#00816:0000140000000013
#00814:00000013
#0081a:00000000000000000000000000130000
#02616:0013
#0261b:0013
#02618:0013001300000000
#02615:00130000
#02612:13
#02116:00130000
#02117:0013000000000000
#02112:00001300000000130000000000000000
#02118:0000001300130000
#02115:00000000000000000000000013000013
#0211b:0000130000000013
#02217:0013000000001300
#0221b:0000130000130000
#02212:0013001300001300
#02218:00000000000000130000000000000000
#02216:0000130000130000
#01712:2500131300000000
#01717:00000000001300000000000000000000
#0171b:0000000000001313
#01716:00000000000000000000000000130000
#01719:0025
#0181b:00000013
#01814:0000000000000000000000000000000013000000000000000000003333000000
#01817:00130000
#01812:2500000000000000130000000000000000000000000000000000000000000033
#01819:0013
#01815:0000000000000000000000000000000000000000000000000033330000000000
#01813:0000000000000000000000000000000000000000000000000000000000333300
#05318:13
#05315:13
#05312:00001300000000130000000000001300
#05317:0000001300000000
#0531b:0000000000131300
#06116:00000000001300000000000000001300
#0611b:0000000000000013
#06217:00000000000000130000000000000000
#06214:0013000000000013
#06213:00130000
#06212:0000001313001300
#00015:00000013
#00018:00000013
#00019:0000000000000013
#00016:0000000000000013
#00115:13001300131313000000000000000000
#00118:13001300131313000000000000000000
#00117:0000130000000000001300000013000000000000000000000000000000000000
#00114:0000130000000000001300000013000000000000000000000000000000000000
#00119:0000000000001300000000130000000000000000000000000000000000000000
#00116:0000000000001300000000130000000000000000000000000000000000000000
#0091b:1300001300000000
#00912:0013000000000013
#00915:0000001300130000
#00917:0013
#00918:0000130000000013
#00916:00000014
#02816:0000130000130000
#02812:0013001300001300
#02818:00000000000000130000000000000000
#0281b:0000130000130000
#02817:0013000000001300
#02715:00000000130000000000000013000013
#0271b:2300000000000013
#02718:0013001300130000
#02712:00130000000000130000000000000000
#02917:00130000
#02916:0013000000000000
#0291b:00001300000000130000000000000000
#02915:0000001300130000
#02918:00000000000000000000000013000013
#02912:0000130000000013
#02910:41
#03016:0013000000001300
#03012:0000130000130000
#0301b:0013001300001300
#03015:00000000000000130000000000000000
#03017:0000130000130000
#06713:24
#06719:24
#0035b:0000006300000000
#00352:0000000000000053
#0115b:0000005300000053
#01158:13
#01152:13
#01252:0053
#01352:0000006300000063
#01355:13
#0135b:13
#0145b:0063
#01557:0000005300000000
#01558:1300000000000063
#01552:13
#02557:53
#02556:0063
#02552:00000000000000000000001300000000
#0255b:00000013000000000000000000000000
#03356:63
#03352:00000013000000000000000000000000
#03956:0000000000130000
#03952:00000000000000530000000000000000
#0405b:00000000000000630000000000000000
#04057:0000000000130000
#04359:00450000
#04352:0000350000000053
#04357:0000000000000053
#04358:0023000000000000
#04355:0023000000000000
#04456:23
#0445b:2323
#04458:0000005300000000
#04455:0000000000000063
#0515b:0000000000000063
#05156:0000000000000063
#05152:00350000
#05159:00450000
#05158:0023000000000000
#05155:0023000000000000
#05257:23
#05252:2300005300000000
#05255:0023
#0525b:0000000000000063
#05652:00000053
#05657:00000053
#0575b:00530000
#05756:00530000
#05959:53535353
#05957:0023000000230000
#0595b:0000002300000023
#05954:53535353
#05952:0023000000230000
#05956:0000002300000023
#05854:00000000000054640000000000000000
#05853:0000000000000000000000000026000000000000000000000000000000000000
#05858:00000000000000000000545400000000
#05857:0000000000000000000000000000000000000000002600000000000000000000
#02355:0000000000130000
#0235b:00000000000000000000001300000000
#02458:0000000000130000
#02452:00000000000000000000001300000000
#03158:0000000000130000
#03152:00000000000000000000001300000000
#03255:0000000000130000
#0325b:00000000000000000000001300000000
#01655:0053
#0355b:53000000000000000000000000000053
#03552:00000000000000530000000000000000
#03752:00000000000000000000000000000063
#05054:0000001300000000
#05059:0000001300000000
#0205b:00000053
#04154:0000000000000053
#04159:0000000000000053
#04256:0023000000000000000000000000000000000000000000000000000000000000
#04254:00000053000000000000000000000000
#04252:0000000000000000000000230000000000000000000000000000000000000000
#0425b:0023000000000000000000000000000000000000000000000000000000000000
#04259:00000053000000000000000000000000
#04257:0000000000000000000000230000000000000000000000000000000000000000
#0455b:00000000000000230000000000002300
#04552:23
#00558:0000002300000000
#00555:0000000000000023
#06357:0000000000000053
#06356:13
#0635b:13
#06456:0053
#0665b:53
#06656:53
#06657:00230000
#06652:00230000
#00752:0000005300000000
#00756:0023
#0075b:0000000000000063
#00857:23
#02656:0053
#0265b:0053
#03452:0063
#03457:0063
#02252:00000063
#0065b:0000005300000000
#04652:0053000000000000
#04658:0053000000000000
#05358:23
#05352:00000000000000230000000000002300
#06052:0000000000000053
#06156:00000000002300000000000000000000
#0615b:0000000000000053
#06257:00000000000000230000000000000000
#00058:00000053
#00055:00000053
#00059:0000000000000023
#00056:0000000000000023
#00154:0000230000000000002300000023000000000000000000000000000000000000
#00157:0000230000000000002300000023000000000000000000000000000000000000
#00159:0000000000002300000000230000000000000000000000000000000000000000
#00156:0000000000002300000000230000000000000000000000000000000000000000
#00158:53005300535353000000000000000000
#00155:53005300535353000000000000000000
#0025a:00000014
#00252:00000014
#0385b:0000005300000000
#03857:0000000000130000
#04852:00000000000000000000000000000053
#0545b:0063000000000000
#05455:0063000000000000
#06753:14
#06759:14
#06553:14
#06559:14
#01752:35
#01759:0045
#01852:35
#01052:0000005300000000
#01056:23
#0095b:0000006300000000
#00957:0023
#00952:0000000000000053
#02852:00000063
#0305b:00000053
#0003a0:00140000
#000380:00000053
#000390:0000000000000053
#001380:530000000000530000000000530000530000530000535300560053000000530055005300000053005400530000000000
#001370:0000530000000000005300000053000000000000000000000000000000000000
#001390:0000000000005300000000530000000000000000000000000000000000000000
#002380:00530000
#0023a0:00000024
#000321:00140000
#000351:00000053
#000361:0000000000000053
#001351:530000000000530000000000530000530000530000535300000053000000530000005300000053000000530000000000
#001341:000000000000530000000000000000000000000000000000000000530000000000000000000000530000000000000000000000000000000000000000000000000000000000000000000000000000000054000000000000000000000000000000
#001361:0000000000005300000000530000000000000000000000000000000000000000
#001321:0056
#001331:000055
#002351:00530000
#002321:00000024
#0033b1:0000001300000000
#003381:0000000000230000
#003321:0000000000000013
#004351:0023000000000000
#005381:0000001300000000
#0053b1:0000000000230000
#005351:0000000000000013
#006321:0023000000000000
#0063b1:0000001300000000
#006371:0000000000230000
#007321:0000001300230000
#007361:0053
#0073b1:0000000000000013
#008371:53
#0083b1:0023000000000000
#0093b1:0000001300230000
#009371:0053
#009321:0000000000000013
#010361:53
#010321:0023000000000000
#010321:0000001300000000
#010361:0000000000230000
#0113b1:0000001300000000
#011371:0000000000230000
#0113b1:0000000000000013
#012381:0033002300000000
#0123b1:00330000
#012321:0013
#012351:0000000000230000
#013321:0000001300000000
#013361:0000000000230000
#013321:0000000000000013
#014351:0033002300000000
#014321:00330000
#0143b1:0013
#014381:0000000000230000
#015371:0000001300000000
#0153b1:0000000000230000
#015381:0000000000000013
#0163b1:0033002300000000
#016381:00330000
#016351:0013
#016321:0000000000230000
#018361:00000013
#018351:0000000000000000000000000000000000000000000000000033330000000000
#018341:0000000000000000000000000000000000000000000000000000003333000000
#018331:0000000000000000000000000000000000000000000000000000000000333300
#018321:0000000000000000000000000000000000000000000000000000000000000033
#019321:23
#0203b1:00000013
#021371:23
#022321:00000013
#023351:23
#025371:13
#0253b1:00003323000000000000000000000000
#025361:0013
#025321:00000000000000000000332300000000
#026361:0013
#026321:00000023
#0263b0:0013
#026370:00000023
#028320:00000013
#029360:23
#0303b0:00000013
#031380:23
#033360:13
#033320:00003323000000000000000000000000
#034320:0013
#034360:00000023
#034371:0013
#0343b1:00000023
#0353b1:13
#035371:00230000
#035321:00000000000000130000000000000000
#035361:00000023
#0353b1:00000000000000000000000000000013
#036371:00230000
#037321:00000000000000000000000000000013
#038361:00230000
#0383b1:0000001300000000
#038371:00000000000000000033230000000000
#039321:00000000000000130000000000000000
#039361:0000000000230000
#0403b1:00000000000000130000000000000000
#040371:0000000000230000
#041341:0000000000000013
#042361:0053000000000000000000000000000000000000000000000000000000000000
#042341:00000053000000002300000000000000
#042321:0000000000000000000000530000000000000000000000000000000000000000
#041390:0000000000000013
#0423b0:0053000000000000000000000000000000000000000000000000000000000000
#042390:00000053000000002300000000000000
#042370:0000000000000000000000530000000000000000000000000000000000000000
#043380:1353000000000000
#043390:00250000
#043351:1353000000000000
#043321:00250000
#0433b1:0013
#043381:0000000000230000
#043350:0000000000130000
#043320:00000023
#043320:0000000000000013
#044360:53
#044320:0023000000000000
#043371:0000000000000013
#0443b1:53
#044371:0023000000000000
#044381:0000001300230000
#0443b1:0053
#044351:0000000000000013
#045321:53
#045351:0023000000000000
#0453b1:00000000000000130000000000000000
#045371:0000000000230000
#0453b1:0000000000000013
#046381:0033000000000000
#0463b1:00230000
#046320:0013000000000000
#046350:00230000
#048320:00000000000000000000000000000013
#049360:0023000000000000
#049350:0000000000000013
#050320:23
#0493b1:0000000000000013
#050381:23
#050381:0013000000000000
#0503b1:00230000
#050320:0013000000000000
#050350:00230000
#051350:1333000000000000
#051320:00250000
#051381:1333000000000000
#051391:00250000
#0513b1:0013
#051381:0000000000230000
#051350:0000000000130000
#051320:00000023
#0513b0:0000000000000013
#052370:53
#0523b0:0023000000000000
#051361:0000000000000013
#052321:53
#052361:0023000000000000
#052321:0000001300230000
#052351:0053
#0523b1:0000000000000013
#053381:53
#0533b1:0023000000000000
#053321:00000000000000130000000000000000
#053361:0000000000230000
#053321:0000000000000013
#054351:0033000000000000
#054321:00230000
#0543b0:0013000000000000
#054380:00230000
#056320:00000013
#056360:00000000000000000000000000003323
#056371:00000013
#0563b1:00000000000000000000000000003323
#0573b1:00130000
#057371:00000000000033230000000000000000
#057360:00130000
#057320:00000000000033230000000000000000
#057380:0000000000000013
#0583b0:23
#058351:13
#058321:0023000000000000
#058380:0013000000000000
#0583b0:00230000
#058340:00000000000014540000000000000000
#058330:0000000000000000000000000056000000000000000000000000000000000000
#058350:0022
#058380:00000000000000000000145400000000
#058370:0000000000000000000000000000000000000000005600000000000000000000
#058390:00000022
#059390:13535353
#059370:0053000000530000
#0593b0:0000005300000053
#060390:23
#059341:13535353
#059321:0053000000530000
#059361:0000005300000053
#060341:23
#060321:00000000000000130000330033003300
#061361:00000000005300000000000000000000
#061321:00000023
#0613b1:0000000000000013
#062371:00000000000000530000000000000000
#0633b1:23
#063371:0000000000000013
#0643b1:0053002300000000
#064361:0013
#064321:0000000000230000
#0663b1:1323
#066371:00530000
#066360:1323
#066320:00530000
