This file was generated by Ched 2.6.2.0.
#TITLE "hard"
#ARTIST ""
#DESIGNER ""
#DIFFICULTY 0
#PLAYLEVEL
#SONGID ""
#WAVE ""
#WAVEOFFSET 0
#JACKET ""
#REQUEST "ticks_per_beat 480"
#00002: 4
#BPM01: 128
#00008: 01
#TIL00: ""
#HISPEED 00
#MEASUREHS 00
#0031b:13
#00315:0013000000000000
#00310:41
#02315:00000000000013001300000000000013
#0231b:00000000001300130000000000000000
#02318:00130013000000000000130000130000
#02312:00001300130000000000001300000000
#02415:00130000000000130000130000000000
#0241b:13001300000000001300001300000000
#02412:00000013001300000000000000001300
#02418:0000131300000000
#0251b:00000000000013000000000000130013
#02515:0000000013000013
#02518:13
#02615:13
#02618:0013001300000000
#02612:00130000
#0391b:13
#03912:0013000000000000
#03918:00000000130000130000000000000013
#03915:0000001300000013
#0421a:0014000000000000000000000000000000000000130000001300000013000000
#04213:00000014000000000000130013001300
#04219:00000014000000000000000000000000
#04218:0000000000000000000000140000000000000000000000000000000000000000
#04214:0014000000000000000000000000000000000000000000000000000000000000
#04212:0000000000000000000000140000000000000000000000000000000000000000
#04518:0000001300130013
#04515:00000000000000130000000013000000
#04512:1300000000130013
#0451b:00000013
#04712:0013130000130000
#0471b:0013130000130013
#04715:0000001300000013
#04718:00000000000000130000000000000000
#06614:0000001300001313
#06619:0000001300001313
#06618:16
#0661b:00131300
#06612:00131300
#01115:0000001300000000
#01112:2300000000000013
#0111b:0000001300000000
#01119:23
#01818:00150000
#01813:0015
#01819:00000015
#01812:00000015
#01814:28
#03118:00001300130000000000130000130000
#03112:00130013000000000013001300000000
#03115:00000000001300130000000000000000
#0311b:00000000000013001300000000000013
#03215:1313000013130000
#0321b:00130000000000130013001300001300
#03218:00000013001300000000000000000000
#03212:0000131300000000
#0331b:0000001300000013
#03315:13000000000000130000000000000013
#03318:0000000000131300
#03312:0000000000131300
#03815:00000000000000000000000013000013
#03818:1300000000130013
#03812:0013
#04315:2613
#04312:0000000000001313
#04318:0000000000001313
#0431b:0013
#04316:0000000000140000
#0431f:21
#04310:0041
#05013:0000000000131313
#0501a:0000000000131313
#05012:13
#05014:0013000000000000
#0501b:0000131300000000
#05015:0000001300000000
#05019:0013000000000000
#05612:0013000000131300
#05618:0000130000130000
#05615:1300001300000000
#0561b:0013001300000000
#05715:0013000000130013
#0571b:0013130000000013
#05813:00000000000024140000000000001300
#05812:1300000013000000000000000016000000000000000000000000000000000000
#05819:00000000000000000000241400000000
#05818:0000000013000000000000000000000000000000001600000000000000000000
#0581b:00130000
#0581a:0000000000000013
#01612:00000013
#0161b:00000013
#01618:0000000013000013
#01615:0000000000130000
#03418:13
#03415:0013001300000000
#0341b:00130000
#04815:00000000000000000000130013000013
#04818:0000001300000013
#0481b:1300000000131300
#04819:0013000000000000
#04812:0000131300000000
#04814:0013000000000000
#05512:0000130000130013
#05518:0000131300130013
#0551b:0013000000000000
#05515:00001300000000130000000000000000
#00019:00150000
#00012:00150000
#00215:00130000
#00218:00130000
#0101b:00000013
#01014:00000013
#01013:0000000000000013
#0101a:0000000000000013
#02215:0000001300130000
#02218:00000000130000130000000000000000
#0221b:0013000000130000
#02212:00000013
#0211b:00130000
#02115:00001300000013000000000013000013
#02118:00000000000000130000000000001300
#02112:0000000000130000
#02018:0000001300130000
#02015:00000000130000130000000000000000
#02012:0013000000130000
#0201b:00000013
#01918:00001300000013000000000013000013
#01915:00130000000000130000000000001300
#0191b:0000000000130000
#01912:00130000
#01910:41
#04115:0013000000130000
#04118:0000001300000000
#0411b:00130013
#04119:0000000000000014
#04113:0000000000000014
#04112:1313
#04018:0000001300000013
#04012:13
#0401b:0013000000000000
#04015:00000000130000130000000000000000
#0601b:0013000000000013
#06015:0013001300000000
#06012:0000130000130000
#06018:00000000130000130000000000000000
#06013:00000013
#06019:0000000000130000
#0601a:00000013
#06315:2300130000131313
#06318:00000000000000001300001300000000
#0631b:2300130000000013
#06312:0013
#06418:0000131300001313
#06415:00000000000000000000000000130000
#06412:0000131300000000
#06512:0016
#06515:00000016
#06513:24
#06519:24
#00518:0013000000000000
#00512:13
#0171b:00130000
#01712:26130000
#01715:0000001300000000
#01719:00000013
#01714:00000013
#01716:0000000000000014
#01718:0026
#02812:0000130000130000
#02815:00001300000000130000000013000000
#02818:0000001300130000
#02718:23001300000013000000130000000013
#02715:0000130000000013
#0271b:00000013
#02712:00130000000000130000000000000000
#0301b:0000130000130000
#03018:00001300000000130000000013000000
#03015:0000001300130000
#02918:0000130000000013
#02915:00001300000013000000130000000013
#0291b:00000000000000130000000000000000
#02912:00000013
#02910:41
#0441b:0013
#04418:0000001300000000
#04415:0000000000000013
#05118:0013
#0511b:0000000000001313
#05115:2636000000001313
#05112:0013
#05116:0000000000140000
#05315:0000001300130013
#05318:00000000000000130000000013000000
#0531b:1300000000130013
#05312:00000013
#0611b:0000000000000013
#06115:0000000000000013
#06118:0000001300000000
#03515:13
#03518:0013
#0351f:11
#03615:1300000000130000
#03618:00000013
#03612:0000000000000013
#0361b:0013
#0461b:0000000000131300
#04618:0000000000000013
#04615:00000000000000000000000000000013
#04612:0000000000131300
#05412:0000000000130000
#05415:0000000000001313
#05418:00000000000000000000130000000013
#0541b:00000013
#03718:13
#03715:0013
#05212:0013
#05215:0000001300000000
#05218:0000000000000013
#05913:14141414
#05912:0014000000140000
#05914:0000001400000014
#05919:14141414
#05918:0014000000140000
#0591a:0000001400000014
#05910:41
#06212:0013000000000000
#06218:0013000000000000
#0621b:0000001300000000
#06215:0000001300000000
#06219:0000000000000033
#06213:0000000000000033
#04918:0000130000130013
#04915:0000001300001300
#04912:0000000000000013
#00418:0000001300131313
#00415:00000000000000000000001300130000
#00412:0000001300000000
#00612:00000013
#00618:0000000000000013
#00712:13
#00718:0013000000000000
#00915:0013000000000000
#0091b:13
#00815:0000001300131313
#00818:00000000000000000000001300130000
#0081b:0000001300000000
#01218:0013
#01215:0000000000130000
#01212:00000013
#01219:00000013
#0121a:0000000000000013
#01213:0000000000000013
#01318:0000001300000000
#0131b:2300000000000013
#01312:0000001300000000
#01314:23
#01310:41
#01415:0013
#01418:0000000000130000
#0141b:00000013
#01414:00000013
#01413:0000000000000013
#0141a:0000000000000013
#01515:0000001300000000
#01512:2300000000000013
#0151b:0000001300000000
#01519:23
#06712:24
#0671a:24
#01155:0000005300000000
#01152:1300000000000063
#0115b:0000005300000000
#01159:13
#0395b:0000000000130000
#03958:00000000000000530000000000000000
#04352:00001c0000000053
#04358:0000000000000053
#04355:26
#05652:00000053
#0575b:00530000
#05853:00000000000054640000000000000000
#05852:0000000000000000000000000026000000000000000000000000000000000000
#05859:00000000000000000000545400000000
#05858:0000000000000000000000000000000000000000002600000000000000000000
#00059:00250000
#00052:00250000
#00255:00230000
#00258:00230000
#0025a:00000014
#00252:00000014
#02252:00000063
#0205b:00000053
#02558:53
#02555:0063
#0255b:00000013000000000000000000000000
#02552:00000000000000000000001300000000
#02855:00000063
#03058:00000053
#03355:63
#03352:00000013000000000000000000000000
#04055:00000000000000630000000000000000
#04052:0000000000130000
#04458:0000005300000000
#0445b:0023
#04455:0000000000000063
#0515b:0000000000000063
#05155:2600000000000063
#05152:001c0000
#0615b:0000000000000053
#06155:0000000000000053
#06158:0000002300000000
#03555:53
#03558:0053
#03655:53
#04558:0000000000000053
#04552:2300000000000053
#0635b:1300000000000063
#06355:1300000000000063
#03758:63
#03755:0063
#03858:63
#05252:0023
#05255:0000006300000000
#05258:0000000000000053
#0535b:2300000000000063
#05355:0000000000000063
#05953:54545454
#05952:0024000000240000
#05954:0000002400000024
#05959:54545454
#05958:0024000000240000
#0595a:0000002400000024
#04159:0000000000000054
#04153:0000000000000054
#04259:00000054000000000000000000000000
#0425a:0024000000000000000000000000000000000000000000000000000000000000
#04258:0000000000000000000000240000000000000000000000000000000000000000
#04254:0024000000000000000000000000000000000000000000000000000000000000
#04253:00000054000000000000000000000000
#04252:0000000000000000000000240000000000000000000000000000000000000000
#0605b:0000000000000053
#06252:0053000000000000
#06258:0053000000000000
#0625b:0000002300000000
#06255:0000002300000000
#04855:00000000000000000000000000000053
#01358:0000006300000000
#0135b:1300000000000053
#01352:0000006300000000
#01354:13
#01555:0000005300000000
#01552:1300000000000063
#0155b:0000005300000000
#01559:13
#0675a:44
#06752:34
#01854:18
#01752:16
#01758:0016
#06553:14
#06559:14
#0505b:0000001300000000
#05055:0000001300000000
#000390:00150000
#000380:00000053
#002380:00530000
#0023a0:00000024
#000321:00150000
#000351:00000053
#002351:00530000
#002321:00000024
#003321:0000001300000000
#003351:0000000000230000
#0033b1:0000000000000013
#004381:0023000000000000
#005351:0000001300000000
#005321:0000000000230000
#005381:0000000000000013
#0063b1:0023000000000000
#006351:0000001300000000
#006321:0000000000230000
#0073b1:0000001300000000
#007381:0000000000230000
#007321:0000000000000013
#008351:0023000000000000
#009381:0000001300000000
#0093b1:0000000000230000
#009351:0000000000000013
#010321:0023000000000000
#010381:0000001300000000
#0103b1:0000000000230000
#011351:0000001300000000
#011321:0000000000230000
#0113b0:0000001300000000
#011380:0000000000230000
#011320:0000000000000013
#012350:0033332300000000
#013380:0000001300000000
#0133b0:0000000000230000
#013321:0000001300000000
#013351:0000000000230000
#0133b1:0000000000000013
#014381:0033332300000000
#015351:0000001300000000
#015321:0000000000230000
#0153b0:0000001300000000
#015380:0000000000230000
#015320:0000000000000013
#016350:0033332300000000
#0203b0:00000013
#021380:23
#022320:00000013
#023350:23
#025380:13
#0253b0:00003323000000000000000000000000
#025350:0013
#025320:00000000000000000000332300000000
#0263b0:00001323
#026351:00001323
#028351:00000013
#029321:23
#030381:00000013
#0313b1:23
#033351:13
#033321:00003323000000000000000000000000
#034321:00001323
#034380:00001323
#035350:13
#035340:00000053230000000000000000000000
#035380:0013
#0353a0:0000000000532300
#036350:13
#036320:0053230000000000
#037380:13
#037390:00000053230000000000000000000000
#037350:0013
#037330:0000000000532300
#038380:13
#0383b0:0053230000000000
#039380:00000000000000130000000000000000
#0393b0:0000000000230000
#040350:00000000000000130000000000000000
#040320:0000000000230000
#041390:0000000000000014
#0423a0:0054000000000000000000000000000000000000000000000000000000000000
#042390:00000054000000002400000000000000
#042380:0000000000000000000000540000000000000000000000000000000000000000
#041331:0000000000000014
#042341:0054000000000000000000000000000000000000000000000000000000000000
#042331:00000054000000002400000000000000
#042321:0000000000000000000000540000000000000000000000000000000000000000
#043351:16
#043321:002c0000
#043321:0000000000000013
#044351:0023000000000000
#043380:0000000000000013
#0443b0:0023000000000000
#044380:0000001300230000
#0443b0:0053
#044350:0000000000000013
#045320:53
#045350:0023000000000000
#045380:0000000000000013
#0463b0:0033230000000000
#045321:0000000000000013
#046351:0033230000000000
#048351:00000000000000000000000000000013
#049321:0023000000000000
#051351:1636000000000000
#051321:002c0000
#0513b1:0000000000000013
#052381:0023000000000000
#051350:0000000000000013
#052320:0023000000000000
#052350:0000001300230000
#052320:0053
#052380:0000000000000013
#0533b0:53
#053380:0023000000000000
#053350:0000000000000013
#054320:0033230000000000
#0533b1:0000000000000013
#054381:0033230000000000
#056321:00000013
#056351:00000000000000000000000000003323
#0573b1:00130000
#057381:00000000000033230000000000000000
#058331:00000000000014540000000000000000
#058321:0000000000000000000000000056000000000000000000000000000000000000
#058341:0022
#058391:00000000000000000000145400000000
#058381:0000000000000000000000000000000000000000005600000000000000000000
#0583a1:00000022
#059331:14545454
#059321:0054000000540000
#059341:0000005400000054
#060331:24
#059390:14545454
#059380:0054000000540000
#0593a0:0000005400000054
#060390:24
#0603b0:0000000000000013
#061380:0000005300000000
#0613b0:0000000000000033
#062380:0053000000533300
#0623b0:0000005300000000
#062390:0000000000000033
#0633b0:23
#061351:0000000000000013
#062321:0053000000533300
#062351:0000005300000000
#062331:0000000000000033
#063351:23
#0633b1:0000000000000013
#064381:0023000000000000
#063350:0000000000000013
#064320:0023000000000000
#064380:0013
#0643b0:0000000000230000
#064321:0013
#064351:0000000000230000
