This file was generated by Ched 2.6.2.0.
#TITLE "normal"
#ARTIST ""
#DESIGNER ""
#DIFFICULTY 0
#PLAYLEVEL
#SONGID ""
#WAVE ""
#WAVEOFFSET 0
#JACKET ""
#REQUEST "ticks_per_beat 480"
#00002: 4
#BPM01: 128
#00008: 01
#TIL00: ""
#HISPEED 00
#MEASUREHS 00
#00319:14141414
#00310:41
#00413:14141414
#0051a:14140000
#00518:00001414
#00612:14140000
#00614:00001414
#0071a:1414
#00714:00140014
#01114:00140000
#01118:0014
#01112:00000014
#0111a:24
#01719:1400001400000000
#01714:00141400
#01718:00000014
#01713:1400000000000014
#01818:1414
#01814:00140014
#01912:00140014
#0191a:1414
#01910:41
#02019:14140000
#02312:00000014
#0231a:1414
#02314:00140000
#0251a:14
#02514:00140000
#02518:0014
#02512:00000014
#04219:00000014
#04213:00000014
#0421a:14
#04214:14
#04312:00001414
#04318:0000000000140000
#04313:24240000
#04319:24240000
#0431f:21
#04310:0041
#04712:1414
#04718:00140000
#04714:0000000000000014
#0471a:00000014
#04818:14140000
#04814:0014001400000000
#04912:16
#04915:00160016
#05715:00000016
#05717:15
#05719:00150000
#05018:16
#05015:00160000
#05013:00000014
#05019:00000014
#05815:00000016
#05814:15
#05812:00150000
#05914:14
#05912:0014
#0591a:14
#05918:0014
#05910:41
#06018:00001414
#06012:0014
#0601a:00140000
#06214:00001414
#0621a:0014
#06212:00140000
#06412:0014
#06418:0014
#0641a:00140014
#06612:0000000014000016
#0661a:0014
#06618:00000016
#00912:1414
#00918:00140014
#02618:14
#02614:00140000
#03518:0000341434000000
#0351a:14
#0351f:11
#03614:0000341434000000
#03612:14
#0371a:0000341434000000
#03718:14
#03812:0000341434000000
#03814:14
#0411a:1414
#04118:00140014
#04114:1414
#04112:00140014
#04619:00000014
#04613:00000014
#06118:14
#0611a:0014
#06112:14
#06114:0014
#01318:00140000
#01314:0014
#0131a:00000014
#01312:24
#01310:41
#01514:00140000
#01518:0014
#01512:00000014
#0151a:24
#0211a:00140014
#02112:1414
#02213:14140000
#02412:00000014
#0241a:1414
#02414:00140000
#0271a:00140014
#02712:1414
#02813:14140000
#0311a:00000014
#03112:1414
#03118:00140000
#03312:14
#03318:00140000
#03314:0014
#0331a:00000014
#02912:00140014
#0291a:1414
#02910:41
#03019:14140000
#0321a:00000014
#03212:1414
#03218:00140000
#03414:14
#03418:00140000
#0441a:0014
#04414:00000014
#04518:14000014
#0451a:0014
#04514:0000000000140000
#04512:0000140000000014
#0551a:1414
#05514:00140000
#05518:0000000000000014
#05512:00000014
#05413:00000014
#05419:00000014
#05212:0014
#05218:00000014
#05314:14000014
#0531a:0000140000000014
#05312:0014
#05318:0000000000140000
#0511a:00001414
#05114:0000000000140000
#05119:24240000
#05113:24240000
#05614:14140000
#05618:0014001400000000
#06718:26
#04955:00260000
#04952:66
#05058:56
#05055:00260000
#05757:55
#05759:00250000
#05954:54
#05952:0024
#0595a:54
#05958:0024
#0355a:54
#03558:0000002400000000
#03654:0000002400000000
#03652:64
#0375a:0000002400000000
#03758:64
#03852:0000002400000000
#03854:54
#05854:65
#05852:00250000
#04359:00140000
#04353:00140000
#05153:00140000
#05159:00140000
#06158:64
#0615a:0024
#06152:64
#06154:0024
#04658:00140000
#06758:16
#05454:00140000
#0083a0:14343424
#010320:14343424
#012380:14
#0123a0:00000024
#014340:14
#014320:00000024
#016380:14
#0163a0:00000024
#020390:00001424
#022330:00001424
#0263a0:00001424
#028330:00001424
#030390:00001424
#034320:00001424
#0353a0:14000024
#035380:0000345434000000
#036320:14000024
#036340:0000345434000000
#037380:14000024
#0373a0:0000345434000000
#038340:14000024
#038320:0000345434000000
#0393a0:14
#039380:00240000
#039320:0014
#039340:00000024
#0403a0:14
#040380:00240000
#040320:0014
#040340:00000024
#043380:0000000000000014
#044380:0024000000000000
#046380:14240000
#049320:1626
#049350:00360000
#050380:1626
#050350:00360000
#051340:0000000000000014
#052340:0024000000000000
#054340:14240000
#057370:1525
#057390:00350000
#058340:1525
#058320:00350000
#059340:14
#059320:0054
#060340:24
#0593a1:14
#059381:0054
#0603a1:24
#061381:14
#0613a1:0054
#062381:24
#061320:14
#061340:0054
#062320:24
#063330:1434
#063340:00340034
#064330:24
#063391:1434
#0633a1:00340034
#064391:24
#065391:1434
#065381:00340034
#066391:24
#065330:1434
#065320:00340034
#066330:24
