This file was generated by Ched 2.6.2.0.
#TITLE ""
#ARTIST ""
#DESIGNER ""
#DIFFICULTY 0
#PLAYLEVEL
#SONGID ""
#WAVE ""
#WAVEOFFSET 0
#JACKET ""
#REQUEST "ticks_per_beat 480"
#00002: 4
#BPM01: 150
#00008: 01
#TIL00: ""
#HISPEED 00
#MEASUREHS 00
#00319:14
#00310:41
#00413:14
#01313:14
#00519:14
#00613:14
#05419:0014
#05513:14
#05519:0014
#05613:14
#05618:0026
#0561f:0021
#05712:16
#05718:0016
#05812:16
#05810:0041
#03212:16
#03218:0016
#06613:0014
#06619:14
#06519:0014
#06713:14
#07118:0016
#07212:16
#07218:0016
#07518:0016
#0491f:0011
#04919:0014
#04519:0014
#04613:0014
#04719:0014
#04813:0014
#00719:14
#00813:14
#00919:14
#01013:14
#01119:14
#01110:41
#01219:14
#01413:14
#01713:14
#01519:14
#01619:14
#01813:14
#0191a:14
#01910:41
#02014:14
#02118:14
#02212:14
#02719:14
#02710:41
#02813:14
#02919:14
#02913:0014
#03019:14
#03013:0014
#03119:14
#03118:0026
#03312:0016
#03418:16
#03412:0016
#03618:16
#03612:0016
#03718:0016
#03812:16
#03818:0016
#04018:0016
#04012:26
#05019:0014
#05113:0014
#05213:0014
#06118:16
#06112:0016
#06218:16
#06212:0016
#06318:16
#06313:0014
#06419:14
#06413:0014
#07312:0016
#07418:16
#07412:0016
#07612:0016
#00118:16
#00212:16
#05319:14
#05313:0014
#07712:00240000
#0771a:00240000
#03512:0026
#03510:0041
#03918:0026
#06012:0026
#023390:14
#024390:24
#025330:14
#026330:24
#041330:0014
#042330:0024
#043390:0014
#044390:0024
#058380:0016
#060380:26
#067390:0014
#069390:24
#069330:0014
#071330:24
