This file was generated by Ched 2.6.2.0.
#TITLE ""
#ARTIST ""
#DESIGNER ""
#DIFFICULTY 0
#PLAYLEVEL
#SONGID ""
#WAVE ""
#WAVEOFFSET 0
#JACKET ""
#REQUEST "ticks_per_beat 480"
#00002: 4
#BPM01: 150
#00008: 01
#TIL00: ""
#HISPEED 00
#MEASUREHS 00
#0011b:1300000013000013
#00112:00130013
#00115:00000000000000000000000000000013
#00116:2323
#00312:00000000000000000000001300000000
#00317:00000000130000000000001300000000
#00319:0013001300000000
#0031b:2313
#00310:41
#00412:12000000000000120000000000000000
#00414:00001200000000000000000000130000
#00418:12000000120000120000000000000000
#00415:00000000001200000000000000000000
#0041b:0000000000130000
#00419:00000000000000000000000000130000
#00416:0000000000130000
#01015:13
#0101b:00130000000000130000000000000000
#01012:00000013000000000000130000000000
#01014:00000000001300000000000000000000
#01016:00000000000000130000000000000000
#01017:00000013000000000000130000000000
#01019:00000000001300000000000000000000
#0111b:13000000000000130013000000130000
#01112:00000000130000000000001300000000
#01116:0013
#01115:0000000000000013
#01118:00000000000000000000000000000013
#01117:00000000130000000000001300000000
#01110:41
#01212:13000000000000001300000000130000
#0121b:00001300000013000000001300001300
#01215:00000013000000000000000000000013
#01218:00130000
#01217:00000000000000000013000000000000
#01216:00000000000013000000001300000000
#01318:1300000000000013
#01315:00000000130000000000000000000013
#01317:0013
#01312:00000000000000000013000000130000
#0131b:00000000000000000000001300000000
#0141b:13000013
#01418:0013000000000000
#01415:00130000
#01412:0000001313000000
#01417:0013
#01416:00000013
#0171b:00001300000013000013000000000000
#01712:00000000000000000000001300000000
#01716:0000000000000013
#01717:00000000130000000000001300000000
#01816:13130013000000000000000000000000
#0181b:13130013000000000000000000000000
#01814:00000000001300000000000000000000
#01812:000000000000000000000000000000000000000000130000000000000000130000000000000000001700000000000000
#01819:00000000001300000000000000000000
#01817:00000000000000130000000000000000
#01912:1c190000
#0191b:0000130000130000
#01917:000000000017
#01910:41
#02014:000000000013
#02012:1c00130000130000
#02019:000000000013
#02015:00190000
#02117:00130013
#02112:00130013
#02118:0000000000000013
#02115:00000000000000000000000000000013
#0211b:2323
#02116:2323
#0221b:13000000000000130000000013000000
#02212:00130000000000000000130000000000
#02218:00000013000000000000000000000000
#02215:00000000001300000000000000000000
#02217:0000000000130000
#0291b:13000000001300000000001300000000
#02916:0000001300001300
#02912:1313000013000013
#02917:00000013000000000013000000000013
#0301b:00130000130000000000000000000000
#03016:0013001400000000
#03012:00130000
#03014:0018
#03013:0000001a
#03115:0000000000130000
#03117:00000013
#03112:1c2c2413
#0311a:0024
#03216:13000000000000001300000000000013
#03217:0000000000001300000000000000000000000000000000133300330000000000
#03212:0000000000130000
#0321b:0013
#03218:0000000000330000
#03312:0000001300130000
#0331b:0000000013001313
#03316:00001300000000001300000000130000
#03317:0000000000130000
#0371b:00000000130000001300001300000013
#03718:0000001300000000
#03712:00000000001300000000130000001300
#03715:00000000000000130000000000000000
#03717:0013000000000000
#03816:13
#0381b:0013000000000000
#03818:00000000130000000000002300000000
#03815:00000000000013000000000000000023
#03812:00000000000000001313000000000000
#03817:00000000000000001313000000000000
#03813:00000000000000000000002300000000
#03814:00000000000000000000000000230000
#03819:00000000000000000000000000230000
#0381a:00000000000000000000000000000023
#04012:2300001300130000
#04018:00000000000000130000001300000000
#04015:0013
#0401b:00000000000000000013000000130000
#04016:00000000000000000000000000130000
#04017:23
#0491c:0012
#04919:0000000000121200
#04912:00000012
#04915:0000000012120000
#0491b:00130000000000000000000000000000
#04916:0013000000000000
#0491f:0011
#0501c:12000000000000000000000000000012
#05019:00000012000000000000000000120000
#05012:0012
#05018:0000000000120000
#05015:00001200000000000000000012000012
#05212:0012000000000013
#05215:00120013
#05218:0000001200130000
#0521b:0013
#0521a:00000013
#05217:0000000000000013
#05216:0013
#05213:0000000000130000
#0541b:00000000001300000000130013000000
#05418:0000001300000000
#05415:00000000000000130000000000000000
#05412:00000000000000001300000000130013
#05416:00000000000000000000001300000000
#05417:0000000000000013
#05518:00001300001300000013000000000000
#05512:0000130013000013
#05515:0000001300130000
#0551b:00000000000000130000001300000000
#05517:00000000000000000000000000000013
#05614:13000000000000000000000000330000
#05619:00130000000000000000000000000000
#05616:00001300000000230000001300000000
#0561b:00000013000000000000001300000000
#05617:00000000001300000000000000000013
#05612:00000000001300000000000000000013
#0561f:0021
#05615:00000033
#05613:0000000000000033
#05712:00000000000000130000000000130000
#05714:00330000000000000013000000000000
#05717:00000000000000001300000000000013
#05719:0000000000130000
#05716:00000000000000000000001300000000
#0571b:00000013
#05713:33
#05715:0033000000000000
#05812:00000000001300000000001300000000
#05817:0000001300001300
#0581b:0000000013000013
#05816:00000000000000000013000000000013
#05810:0041
#05912:00130000000000130013000000130023
#05917:0013000013000013
#05918:0000000000130000
#05915:00000000000000000000001300000000
#0591b:00130013
#05916:00000000001300000000000000000000
#0601b:0013
#06012:0013000000001300
#06019:00000000001300000000000000001300
#06017:0013000000000000
#06014:00000000001300000000000000000000
#06016:0023
#0611b:1300000000130013
#06117:00000013001300000000000000000000
#06115:00000000000000000000001300000013
#06112:00000000000013000000000000130000
#06118:00000013
#06116:0013
#06218:00000000001300000000000000001300
#0621b:00000000000000130000001300000000
#06216:00130000000000000000000000000000
#06212:00000000130000001300000000130000
#06215:00000000000013000000000000000013
#0631b:1313000023000000
#06317:0000001300001300
#06312:0000001300001300
#06316:0013000023000000
#06314:00130000
#06319:00130000
#06412:00000000130000000013000000130000
#0641b:2300001300000000
#06415:0000000013000013
#0641a:00000000000000000000001300000000
#06418:00000000000000130000000000000013
#06417:00130000
#06416:23
#06514:00000000130000000000000000130013
#06512:0000001300000000
#06516:0013000000000000
#06519:00130000
#06517:0000001300000000
#06515:00000000000000000013001300000000
#0651b:0000000013131313
#0661b:13001300130013000000001300000000
#06619:00000000000000000000000000130000
#06612:00000000001300130000000000000013
#06616:00000000000000000000001300000000
#06614:00000000000000000000000000130000
#06617:00000000000000000000000000000013
#06615:00000000000000000013000000000000
#06613:00130013000000000000000000000000
#06618:0013
#0671b:0013000000000000
#06716:0013000000000000
#06712:0025
#06918:0014000000000000
#06919:00000000001400002500000000000000
#06912:0014000000000000
#06913:00000000001400000000000000000000
#06914:0014
#0711a:0014000000000000
#07119:00000000001400000000000000000000
#07114:0014000000130013
#07113:00000000001400000000000000000000
#07116:00000013
#07112:0023
#0751b:0000000023130023
#07516:00000000000000000013000000000013
#07512:00000026000000000000002300130000
#07517:00000013
#07518:00000026000000000000000000000000
#0761b:13230000
#07612:00230013000000000000130000000000
#0761a:00000000000000130000000000000000
#07614:0013
#07618:00000000000000000013000000000000
#07617:0013000000000000
#07616:0000001300000000
#03415:00001300000000130013000000000000
#03418:0000130000000013
#03412:13000000000000000000000000000023
#0341b:0000001313000000
#0341a:0000000000130000
#03414:00000000000000000000001300000000
#03419:00000013
#03413:00000000000000000000000000130000
#0511b:0000001300000000
#00212:00130013001300000000130000000000
#00214:00000000000000000000000000130000
#00217:00000000001300000000130000000000
#00218:13
#0021b:0013000000000000
#00219:00000000000000000000000000130000
#0091b:00000000130000000000001300000000
#00916:00000000000000000000001300000000
#00912:1300000000000013
#00919:0000001300000000
#00914:0013000000000000
#06817:0015000000000000
#07415:00000000000000001300000000190000
#0741b:00000013000000000013000000000000
#07418:00000000000000000000001600000000
#07412:0000000000001300000000000000001c
#07416:00000013000000000000000000000000
#01512:13000000000000130013000000130000
#0151b:00000000130000000000001300000000
#01517:1313
#01518:0000000000000013
#01515:00000000000000000000000000000013
#01516:00000000130000000000001300000000
#0161b:13001300000000001300000000130000
#01612:00000000000013000000001300001300
#01616:00001300000000000013000000000000
#01618:00000000000000000000000000000013
#01617:00000000000013000000001300000000
#01619:00130000
#01614:00130000
#02312:13131313
#0231b:13001300000000000000000000000033
#02317:0000001300000000
#02319:0000130000000033
#02512:13
#0251b:13131313
#0241b:0013000000000000
#02412:13131313
#02417:0000000000000013
#02419:00000013
#02712:2313132313132313
#02710:41
#0061c:12000000000000120000000000000000
#0061a:0012000000000000
#00616:12000000120000120000000000000000
#00619:00000000001200000000000000130000
#00612:0000000000130000
#00614:00000000000000000000000000130000
#00617:0000000000130000
#00812:12000000000000120000000000000000
#00814:0012000000000000
#00818:12000000120000120000000000000000
#00815:00000000001200000000000000000000
#0361b:0000000000130000
#03617:13000000000000000000000000000013
#03612:00000000000000130000000000000000
#03616:00000013000000000000001300000000
#03614:00000000000000000000000000330000
#03615:0000000000333300
#03613:0033
#0351b:0013000000001300
#03516:0013000000001300
#03514:00000000001300000000000000000000
#03519:00000000001300000000000000000000
#03518:0000000000130000
#03512:0024
#0351a:0024
#03510:0041
#0261b:13131313
#02615:0000001300000000
#02612:00333300000000000000000000000000
#00512:13000000000000001300001300000000
#00517:00000000000000000000001300000000
#00516:00130000
#00514:0013001300000000
#0071b:13000000000000001300001300000000
#00716:00000000000000000000001300000000
#00717:00130000
#00719:0013001300000000
#07014:00150000
#04112:0013000013130000
#04117:00001300000000001300001300000000
#0411b:00000000130000000000000000000013
#04116:0000130000000013
#04114:00000013
#04119:00000000000000000000000000130000
#04212:0000000013000013
#04218:00000000000000000013000000000013
#0421b:00000000000000000000001300000000
#04215:00000013
#04216:13
#0421a:003333333333333333333333000000000000000000000000
#0431b:000000130000000000000000000000000000000000000000000000000000130000000000000000000000000013000000
#04315:0013000000000013
#04318:000000000013000013000013000000000000000000000000
#04319:00000013
#04314:000000000000000000000000000000000000001300000000
#0431a:000000000013
#04312:0000131300000000
#04313:000000000000000000000000000000000013000000000000
#04418:000000000000000000000000000000000000000000000000000000001300000000000000000000130000000000000000
#04412:00130013
#04414:0000000000000013
#0441a:00000000000000000000000000000013
#04415:000000130000000000000000000000000000000000000000000000001300000000000000000000000000000000000000
#04518:000000000000130000000000000000000000133333003333
#04515:00000000001300000000000013000000
#0451b:00001300000000230000000000001300
#04512:00000000000000230000000000000000
#0471b:00000013001300000000000000000000
#04718:13000000000000000013000000000000
#04712:00000000001300000000001300000000
#04717:00000013
#04715:00130000000000000000000000000013
#0481b:000000130000000000000000130033003300000033003300000000000000000000000000000000000000000000000000
#04816:0013000000000000
#04818:00000000000000000013000000000000
#04812:00000000000000000000001300000000
#04817:0000001300001300
#04815:00000000000000000000000000000013
#07716:001400000000
#0771b:00230000
#07712:00230000
#0721c:00000000000000001200000000000012
#0721a:0000000000120000
#07216:00000000000000001200000012000012
#07219:00000000000000000000000000120000
#07217:00000013000000000000000000000000
#07212:13000013000000000000000000000000
#07314:0000000000000013
#07319:0000000000130000
#07312:00000013
#0731b:0023
#04615:130000000000000000000000000000130000000000000000000000000000000000000000130033003300000033003300
#04612:0013000000000013
#04618:00130000000000000000000013000000
#0461b:00000013000000000000000000000000
#0281b:2313132313132313
#05312:23
#05317:23
#05314:00000023000000000000000000000000
#05319:00000023000000000000000000000000
#0531b:0000002300000000
#05316:0000002300000000
#03916:002300000000
#0391b:002300000000
#03912:0023
#03917:0023
#00157:00130013
#0015b:6363
#0095b:00000000000000000000006300000000
#01052:00000013000000000000530000000000
#01057:00000013000000000000000000000000
#01054:00000000001300000000000000000000
#01059:00000000001300000000000000000000
#01056:00000000000000130000000000000000
#0105b:00000000000000130000000000000000
#01358:53
#01355:00530000
#01952:1c590000
#02252:0000000000530000
#03157:00000053
#03152:1c1c0000
#0405b:00000000330000000000000000630000
#04056:00000000330000000000000000630000
#04052:53
#04057:53
#0535b:0000005300000000
#05356:0000005300000000
#0555b:00000000000000000000005300000000
#05757:00000000000000000000000000000013
#0605b:0053
#06052:0013000000005300
#06054:00000000001300000000000000000000
#06252:0053
#06458:00000000000000000000000000000053
#0645b:13
#06456:13
#0675b:0053000000000000
#06752:0055
#06857:0025000000000000
#0745b:00000063000000000000000000000000
#07458:00000000000000000000001600000000
#07455:00000000000000000000000000190000
#07452:0000000000000000000000000000001c
#01156:13
#0115b:13
#02052:1c
#02055:00690000
#01757:00000000000000000000005300000000
#00257:00000000005300000000000000000000
#00252:00000000005300000000000000000000
#00256:00000000000000130000000000000000
#0025b:00000000000000130000000000000000
#03054:0018
#03053:0000001a
#03056:0013000000000000
#05952:00000000000000000000000000000013
#05957:0013000013000000
#05956:00000000001300000000000000000000
#01557:13
#01552:13
#0185b:00000013000000000000000000000000
#01856:00000013000000000000000000000000
#01859:00000000001300000000000000000000
#01854:00000000001300000000000000000000
#01857:00000000000000130000000000000000
#01852:00000000000000130000000000000000
#05656:00000000000000000000006300000000
#0565b:00000000000000000000006300000000
#05657:00000000000000000000000000000023
#05652:00000000000000000000000000000023
#02957:00000013000000000013000000000013
#02956:0000001300001300
#05856:00000000000000000013000000000013
#05857:00000013
#07054:00250000
#03853:00000000000000000000001300000000
#03858:00000000000000000000001300000000
#03859:00000000000000000000000000130000
#03854:00000000000000000000000000130000
#03855:00000000000000000000000000000013
#0385a:00000000000000000000000000000013
#0395b:000013000000000000330000
#03956:000013000000000000330000
#03952:0053
#03957:0053
#0335b:0013000000000000
#0325b:0053
#03257:0000000000000000000000000000000000000000000000230000000000000000
#03652:00000000000000530000000000000000
#03656:00000000000000000000002300000000
#0515b:0000005300000000
#07558:00000046000000000000000000000000
#07552:00000036000000000000000000000000
#06356:0013
#0635b:0013
#0215b:1313
#02156:1313
#0355b:0013000000000000
#03559:00000000001300000000000000000000
#03556:00000063
#0485b:00530000
#04857:0000002300001300
#04856:0013000000000000
#04858:00000000000000000013000000000000
#04855:00000000000000000000000000000013
#0435b:000000000000000000000063
#04358:000000000000000000000013000000000000000000000000
#04452:00630000
#04458:000000000000006300000000
#04558:00000053
#0455b:00000000000000130000000000002300
#04552:00000000000000130000000000000000
#0775b:00430000
#07752:00330000
#06157:00000000005300000000000000000000
#05452:00000000000000000000000000000053
#03752:0013000000000000
#04652:0000000000000023
#04655:00000053
#06959:0055
#03452:00000000000000000000000000000013
#04758:00000000000000000013000000000000
#04755:00000000000000000000000000000013
#04757:00000013
#04956:0013000000000000
#0013b0:13
#001370:00230000
#0013b0:0013
#001370:00000023
#002370:00000000001300000000000000000000
#0023b0:00000000000000230000000000000000
#002321:00000000001300000000000000000000
#002361:00000000000000230000000000000000
#003361:1323000000000000
#003321:0000132300000000
#003361:00000000000000001323000000000000
#005371:1323000000000000
#0053b1:0000132300000000
#005371:00000000000000001323000000000000
#007361:1323000000000000
#007321:0000132300000000
#007361:00000000000000001323000000000000
#008351:0000000000135323
#008361:00000000000000000000005300530000
#0083a0:0000000000135323
#0083b0:00000000000000000000005300530000
#009370:1323000000000000
#009360:0000132300000000
#009370:00000000000000001323000000000000
#009321:00000000000000001323000000000000
#0093b1:00000000000000000000001300000000
#009371:0000000000000023
#010321:0000000000130000
#011361:23
#013381:13
#0133b1:00230000
#013350:00130000
#013320:0023
#017350:1323000000000000
#017320:0000132300000000
#017350:00000000000000001323000000000000
#017370:00000000000000000000001300000000
#0173b0:0000000000000023
#019320:0000190000230000
#020350:00190000
#0203b0:0000000000230000
#022320:0000000000130000
#022360:00000023
#0233b0:0013
#023370:00000000000000000000002300000000
#023370:00000000000000000000000000130000
#023390:0000000000000033
#0233b0:00000000000000000000000000000033
#0243b0:23
#024380:00000000132300000000000000000000
#0243b0:00000000000000130000230000000000
#025320:0013330000000000
#025340:00000033002300000000000000000000
#025350:0000000013330000
#025330:00000000000000000033002300000000
#026320:13333300000000000000000000000000
#026350:00000023000000000000000000000000
#026320:00000000000000001323000000000000
#026350:00000000000000000000001323000000
#0273b0:13
#027380:0023000000000000
#027380:00130000
#0273b0:0000002300000000
#0273b0:0013
#027380:0000000000230000
#027380:00000013
#0273b0:0000000000000023
#028320:13
#028350:0023000000000000
#028350:00130000
#028320:0000002300000000
#028320:0013
#028350:0000000000230000
#028350:00000013
#028320:0000000000000023
#031370:00000013
#0323b0:23
#032320:00001323000000000000000000000000
#0323b0:00000000000000001300000000000033
#032380:0000000000330000
#032370:0000000000000000000000000000000000000000000000533300330000000000
#0333b0:0023000000000000
#032321:00000000000000000000000013230000
#034380:1323000000000000
#034350:0000132300000000
#035360:00000013
#036320:23
#0363b0:00001323000000000000000000000000
#036380:00000000000000132300000000000000
#036321:00000000000000130000000000000033
#036331:0033
#036351:0000000000333300
#036361:00000000000000000000005300000000
#036341:00000000000000000000000000330000
#037321:0023000000000000
#0363b0:00000000000000000000000013230000
#039321:0013
#039361:0000000000532300
#039370:0013
#0393b0:0000000000532300
#040320:13
#040360:0053230000000000
#040371:13
#0403b1:0053230000000000
#0403b1:00000000000000000000000000130000
#040371:00000000000000000000000000000023
#040360:00000000000000000000000000130000
#040320:00000000000000000000000000000023
#0423b0:13
#0423a0:003333333333333333333333000000000000000000000000
#042370:0023
#0433b0:000000000000000000000013
#044380:0000002300000000
#044321:00130000
#044351:0000002300000000
#044381:000000000000001300000000
#0443b1:00000023
#045361:1323000000000000
#045381:000000000000000000000000000000000000133333003333
#0453b1:0000000000000033
#046381:23
#046341:00000000000000130000230000000000
#046390:00000000000000130000230000000000
#046350:000000000000000000000000000000000000133333003333
#046320:0000000000000033
#047350:23
#047350:00000000000000130023000000000000
#047380:00000000000000000000000000001323
#0483b0:000000000000133333003333230000000000000000000000
#048370:0000003300000000
#048351:00000000000000001323000000000000
#048381:00000000000000000000000000001323
#0513b1:0000001300000000
#051381:00000000000000000000000000000023
#051340:00000000000000142400000000000000
#051320:00000000000000000014240000000000
#051340:00000000000000000000001424000000
#051320:00000000000000000000000000142400
#0533b1:0000001300000000
#054371:23
#053360:0000001300000000
#054320:23
#054320:00000000000000000000000000000013
#055350:0023000000000000
#0553b0:00000000000000000000001300000000
#055370:0000000000000023
#0563b0:00000000000000130000005300000000
#056370:00000000000000000000000000000053
#0573b0:00000023000000000000000000000000
#056361:00000000000000000000001300000000
#056351:00000033
#056341:00000000000000000000000000330000
#056331:0000000000000033
#056321:00000000000000000000000000000033
#057331:33
#057341:00330000000000000000000000000000
#057351:0033000000000000
#057361:00000023000000000000000000000000
#0603b1:0013
#060371:00000023
#060320:00000013
#061360:23
#061320:00001323000000000000000000000000
#061370:00000000001300000000000000000000
#0613b0:00000000000000532300000000000000
#0623b0:00132300000000000000000000000000
#062320:0013
#062360:00000000000000000000002300000000
#064380:00000000000000000000000000000013
#0653b0:0023000000000000
#0673b0:0013000000000000
#067380:0023
#067321:0015
#068371:0055000000000000
#068321:00000025
#069391:0015
#070341:00550000
#071391:25
#071371:0000000013230000
#0713b1:0000000000001323
#072371:13230000000000000000000000000000
#073381:0013532300000000
#073371:00000053005300000000000000000000
#073330:0013532300000000
#073320:00000053005300000000000000000000
#073360:0000000013230000
#073370:0000000000001323
#074360:13230000000000000000000000000000
#0743b1:13230000000000000000000000000000
#0743b1:00000013000000000000000000000000
#074371:0000002300000000
