This file was generated by Ched 2.6.2.0.
#TITLE ""
#ARTIST ""
#DESIGNER ""
#DIFFICULTY 0
#PLAYLEVEL
#SONGID ""
#WAVE ""
#WAVEOFFSET 0
#JACKET ""
#REQUEST "ticks_per_beat 480"
#00002: 4
#BPM01: 150
#00008: 01
#TIL00: ""
#HISPEED 00
#MEASUREHS 00
#0011b:13
#00112:0013
#00118:0000000000000013
#00115:00000000000000000000000000000013
#00218:13001300001300000000000000140000
#00214:0000000000140000
#00215:00130013000000000000000000000000
#00315:0013
#00318:00000000000000000013000000000000
#00312:00000000130000000000001300000000
#0031b:00130000
#00314:24
#00310:41
#00912:13000000000000000000001300000000
#00915:0013
#00918:00000000130000000013000000000000
#0091b:00000000000000000000001300000000
#01115:00131300
#01118:00000000000000000013000000000000
#01112:00000000000000000000001300000000
#0111b:00000000130000000000001300001300
#01110:41
#01215:0013000013000013
#0121b:00000000000000000000001300130000
#01218:13000000000013000000000000000013
#01212:00000000130000000000001300000000
#01315:00131300
#01318:00000000000000000013000000000000
#01312:13000000000000000000001300001300
#0131b:00000000130000000000001300000000
#01415:1300001300000000
#01418:0013000013001300
#0141b:00130000
#01412:00000013
#01715:13000000000000001300001300000000
#01718:00000000000000000013000000000000
#0171b:0013001300000000
#01712:00130000
#01818:13000014000000000000000000000000
#0181a:00000000000000140000000000000000
#01812:1300000000160000
#01815:000000000016
#01814:00000000001400000000000000000000
#01918:1600130000160000
#01912:00130000
#01915:000000000016
#01910:41
#02013:000000000013
#0201a:000000000013
#02012:1600000000130000
#0201b:00130000
#02015:00130000
#02019:0000000000130000
#02118:00130013
#02112:00130013
#0211b:2300000023000013
#02115:00000000000000000000000000000013
#02114:2323
#0221b:1300000000130000
#02215:00130000000000000000000000000000
#02218:00000013000000130000000000000000
#02212:00000000001300000000130000000000
#02915:00001300000000000013000000001300
#02918:00000013000000001300000000000013
#02912:13000000001400000000000000000000
#0291a:00000000000000000000001400000000
#0291b:13
#03012:00140000000000000000000000000000
#03015:00130000
#0301b:0013
#03013:00000013
#03018:0000001300000000
#03014:0013
#0301a:00000013
#03112:13000013
#03119:13
#03118:00000013
#0311a:0024
#03114:0024
#03115:00260000
#03215:0013000000001300
#03218:00000013000000000000000000130000
#03212:0013
#0321b:0000000000130000
#03312:0000001300000000
#0331b:0000000000001313
#03315:00000000000000000000130000130000
#03318:0013
#0371b:00131300
#03715:00000000001300000000130000000000
#03712:00001300000000130000000000001300
#03718:00000000000013000000001300000000
#0381a:14
#03818:00000000140000001300002300230023
#03814:0014000000000000
#03812:00000000000014000000002300230023
#03815:00000000000000000013000000000000
#0491b:00130000000000001300000000000000
#04916:00000014
#0491f:0011
#04914:0014000000000000
#05012:13000000000000001300000000000013
#05015:00000013000000000000000013000000
#05018:00001300000000000000000000130000
#0501b:0000000000130000
#0521b:0013000000000000
#05218:00131600
#05215:0000001300000000
#05213:0000000000160000
#05217:00000016
#05212:0000000000000016
#0541b:00000000001300000000130000000000
#05415:0000001300130013
#05418:00000000000000130000000000130013
#05412:0013
#0551b:00001300000013000000001300000000
#05512:0000130013000013
#05518:00000000130000000013000000000013
#05515:0000001300130000
#05613:13
#05619:00130000000000000000000000000000
#05614:0013000000000000
#0561a:00000013000000000000000000000000
#05615:00000000001300000000001300000013
#0561b:00000013
#05612:00000000000000000000000000130000
#05618:00000000000000230000000000001300
#0561f:0021
#0571b:00000000000000130000001300000000
#05712:00000000000000000000130000000013
#05715:00001313
#05718:00000000000000000013000000130000
#05812:0000001300000000
#05818:00000000000000001300000000000013
#0581a:00000000000000000000001400000000
#05815:00000000000000000013000000001300
#0581b:00000000001300000000000000000000
#05810:0041
#05912:00140000000000000013001300000000
#05918:0000130000131300
#0591a:00000000000000140000000000000000
#05915:00000000001300000000000000130023
#0591b:0000000000000013
#06118:0013000000000000
#06115:00000013000000000000130000000000
#06112:0000000000000013
#0611b:00000000001333000000000013000000
#06218:00130000000000000000000000001300
#0621b:0013
#06212:0000001300000000
#06215:00000000000000000000000000130013
#0631b:0013000000000000
#06318:13132600
#06312:00000016
#06315:0000001300000000
#06412:00000000160000000013000000130000
#0641b:00000000000013000000001300000000
#06418:2600000013000013
#06415:00000000000000130000000000000013
#06515:0000001300001313
#06512:0000000013130000
#06518:0000130013130000
#0651b:0013000000001313
#06612:13001300000000001300001400000000
#06618:13001300000000000013000000000000
#06616:00000000000000000000000000140000
#0661a:00000000000000000000000000000014
#06615:0000131300000000
#0661b:0000131300000000
#0671b:0013000000000000
#06716:0013000000000000
#0671a:0024
#0691a:0014000000000000
#06916:00000000001400000000000000000000
#06912:0024
#07112:0014000000001300
#07116:00000000001400000000000000000000
#0711b:00000013
#0711a:0024
#0341b:0013000000000000
#03416:0000000000140000
#0341a:00000014
#03415:0000130000000013
#03412:1314
#03418:00000000000013000000000000000023
#05118:0000001300000013
#05112:0013
#05115:00000000000000000000000013000013
#0511b:0000000000130000
#02615:00130000000013000000000000000000
#0261b:13130000
#02618:0013000013000000
#02612:00000013000000000000001300000000
#02312:0013000013000000
#02315:00000000000013000000001300001300
#02318:00000000000000001300000000130013
#0231b:00000000130000000000001300000000
#02415:13130000
#02418:00000000001300000000000013000000
#02412:00000000000000130000000000000000
#0241b:0013000000000013
#02712:13131313
#0271b:1313000000130000
#02718:0000001300000013
#02710:41
#0251b:0013130000000000
#02515:00000013001300000000000000000000
#02512:0000000013130000
#02518:00000000000000000013001300000000
#0041b:13
#00415:00001300001300000000000000000000
#00418:00000000130000130000140000000000
#00414:00000000000000000000000000140000
#00412:00000000000000130000000000000000
#00518:1413
#00515:00000000000000000013000000000000
#0051b:00000000130000000000001300000000
#00512:00130000
#00612:13
#00618:00001300001300000000000000140000
#00615:00000000130000130000000000000000
#0061b:00000000000000130000000000000000
#00614:0000000000140000
#00714:14
#00715:0013
#00718:00000000000000000013000000000000
#00712:00000000130000000000001300000000
#0071b:00130000
#0081b:13
#00815:00001300001300000000000000000000
#00818:00000000130000130000000000000000
#00812:00000000000000130000000000000000
#01615:0013000013000013
#0161b:00000000000013000000001300000000
#01618:00000000130000000013000000130013
#01612:13000000000000000000001300000000
#04015:00000000000013001300130000130000
#04018:23000000000000130013001300000000
#0601b:00000013
#06015:00000013
#06012:0023
#06018:0023
#06817:0014000000000000
#07218:13000013000000000000130000130000
#07215:00130000000000000000000013000013
#07212:0013
#0721b:00000000000000000000000000000013
#0351b:00000013
#03515:00000013
#03512:0023
#03518:0023
#03510:0041
#03618:0013000000001300
#03615:00000013000000130000000000130013
#0361b:00000000000000001300000000000013
#03612:0000000000130000
#0101b:00000013001300130000000000000000
#01015:13000013001300130000000000000000
#01018:00130000000000000000000000000000
#01518:00000000130000000013000000001300
#01515:1313
#01512:00000000130000000000001300000000
#0151b:13
#0281b:13131313
#02812:1313000000130000
#02815:0000001300000013
#07418:13000013000000000013000000000000
#07415:00130000000000001300000000000000
#07412:00000013000000000000001300130013
#0741b:00000000000000000000001300130013
#07312:00000013
#0731b:0023
#0421b:00000000000000000013000000000013
#04218:00000013
#04212:00000000130000000000001300000000
#04215:133333333333003333333333000000000000000000130000
#04312:00130000000000000000000000000000
#04318:0014141400000033
#04314:000000000014000014000000000000000000000000000000
#04315:000000000000000000000013000000000000000000000000
#0431b:00000013
#0431a:000000000000000000000000000000000000003300000000
#04319:000000000033
#04412:00000000000000000013000000000000
#04418:00000000000000000000000000130013
#04415:0000000000000013
#04518:00130000
#04515:00000000001300000000000000000000
#0451b:00000000000000230000000013000000
#04718:00130000000000000000000014000000
#04715:00000013000000130000000000001300
#0471b:00000000001300000000000000000000
#04719:00000000000000000014000000000000
#04712:00000000000000000000001300000000
#0471a:00000000000000000000000000000014
#04812:00130000130000000014000000000014
#04818:0014000013000013
#0481b:00000000000000000000001300000000
#04814:00000014
#04112:0000000013130013
#04118:00001300000000001300001300000013
#04115:00130013
#0411b:00000000000000000000000000130000
#04618:13
#04612:0013
#04615:00000013
#07015:00140000
#07615:0000241313130000
#07618:00000000000000130013000000000000
#07612:00240000000000000000000000000000
#07617:00240000000000000000000000000000
#0761a:00240000
#0531a:24
#05316:00000024000024000000000000000000
#05312:0000002400000000
#03912:002300230000
#03918:002300000000
#07512:00000023000000000000002400000000
#0751b:00000023000000000000000000000000
#0751a:0000000024000024
#07515:0000000024000024
#07517:00000000000000000000002400000000
#0771b:00230000
#07712:00230000
#00158:00130000
#0015b:63
#00152:0053
#00155:00000013
#0225b:0000000000630000
#02252:0000000000530000
#03152:13000053
#03155:00160000
#03159:13
#03158:00000053
#05356:0000006400000000
#05758:00000000000000000000000000130000
#05752:00000000000000000000000000000013
#0575b:00000013000000000000000000000000
#0625b:0063
#06258:00530000000000000000000000000000
#01958:16
#01755:00000000000000000000006300000000
#0025b:00000000000000130000000000000000
#00258:00000000005300000000000000000000
#0305b:0013
#03053:00000013
#03054:0013
#0305a:00000013
#02052:16
#04055:00000000000000000000000000630000
#0405b:00130000
#04058:53
#0605b:00000063
#06055:00000063
#06857:0024000000000000
#0355b:00000063
#03555:00000063
#05955:00000000001300000000000000000013
#01555:13
#0155b:13
#03952:001300530000
#03958:001300000000
#03955:00000013
#01152:13
#01158:13
#06358:0016
#06458:16
#02154:1313
#0215b:1313
#07552:00000013000000000000000000000000
#0755b:00000013000000000000000000000000
#01858:00000014000000000000000000000000
#01854:00000000001400000000000000000000
#0185a:00000000000000140000000000000000
#02452:00000000000000530000000000000000
#02958:00000013000000000000000000000013
#02955:00000000000000000013000000000000
#03358:0013000000000000
#03352:0013000000000000
#05855:00000000000000000013000000000000
#05858:00000000000000000000000000000013
#04452:00000000000000000053000000000000
#04858:0014000000000000
#04854:00000014
#04852:00000000000000000014000000000014
#04355:000000000000000000000063000000000000000000000000
#0435b:00000053
#0455b:00000000000000130000000053000000
#04658:53
#04652:0063
#04655:00000063
#04759:00000000000000000014000000000000
#04758:00000014
#0475a:00000000000000000000000000000014
#04954:0014000000000000
#04255:53
#04252:00230000
#0615b:00000000005300000000000000000000
#0675a:0054
#07055:00240000
#06952:0064
#0775b:00430000
#07752:00330000
#03458:00000000000000000000000000000013
#03752:0013000000000000
#05658:00000000000000130000000000000000
#0013b0:13
#001380:00230000
#001320:0013
#001350:00000023
#002380:00000000001300000000000000000000
#0023b0:00000000000000230000000000000000
#008370:0000000000153525
#008380:00000000000000000000003500350000
#010350:0000000000130000
#011320:23
#0103b1:0000000000130000
#011381:23
#017351:00000000000000000000001300000000
#017321:0000000000000023
#0223b1:0000000000130000
#022381:00000023
#022320:0000000000130000
#022350:00000023
#024320:00000000000000130000000000000000
#024350:0000000000230000
#031320:00000013
#032350:23
#031381:00000013
#0323b1:23
#032321:00000000000000000000000000000013
#033321:0023000000000000
#032380:00000000000000000000000000000013
#033380:0023000000000000
#0353b0:00000013
#036380:23
#035351:00000013
#036321:23
#039321:0013
#039351:0000000000532300
#040381:13
#0403b1:0053230000000000
#040351:00000000000000000000000000130000
#040321:00000000000000000000000000000023
#042351:133333333333003333333333230000000000000000000000
#042321:00330000
#043351:000000000000000000000013000000000000000000000000
#043321:0000000000230000
#0433b1:00000013
#0433a1:000000000000000000000000000000000000003300000000
#043391:000000000033
#043381:000000000000000000000000000000000000000000332300
#044381:0000132300000000
#044321:00000000000000000013000000000000
#044351:00000023
#045351:1323000000000000
#0453b1:00000013
#046381:33
#0463b1:00230000
#046321:0013
#046351:00000033
#047321:23
#053361:0000001400000000
#0543a1:24
#0573b1:13000023000000000000000000000000
#0603b1:00000013
#061381:23
#060350:00000013
#061320:23
#0613b0:00000000001333000000000000000000
#061380:0023
#062380:00130000000000000000000000000000
#0623b0:00230000
#0623b0:0013
#062380:00000000000000000000002300000000
#0673a0:0014
#068370:0054000000000000
#0683a0:00000024
#069320:0014
#070350:00540000
#071320:24
#073340:0015352500000000
#073330:00000035003500000000000000000000
