This file was generated by Ched 2.6.2.0.
#TITLE ""
#ARTIST ""
#DESIGNER ""
#DIFFICULTY 0
#PLAYLEVEL
#SONGID ""
#WAVE ""
#WAVEOFFSET 0
#JACKET ""
#REQUEST "ticks_per_beat 480"
#00002: 4
#BPM01: 150
#00008: 01
#TIL00: ""
#HISPEED 00
#MEASUREHS 00
#0011b:1300000000130000
#00116:2313130000000000
#00112:0013000013000013
#00118:00000000000000000000000000000013
#00117:0000000023131300
#01212:00001300000000001313000000000000
#01216:00000012000000001300001300000013
#01218:00000000120000000013000000000000
#0121b:13001300000000000000001300000000
#01213:00000000000000000000000000130000
#01219:0000001300000013
#01214:0000001300000000
#0131b:13000000000000001300000000130000
#01316:00000000130000000013000000000000
#01317:00001300000013000000001300001313
#01312:13000000000013000000001300000000
#01314:0013000000000000
#0141b:0013000000000000
#01418:00130000
#01415:0013001300000000
#01412:1313
#01414:0000000000130000
#01417:0013
#01419:0000000000130000
#02115:0000000000130012
#02119:0000000000000000000000000000000000330000000000330000000000001200
#0211b:00001323
#02112:13230000
#02118:0013000000000000
#02117:0000003300330000000000000000000000003300000033000000000000000000
#02116:0000330000003300000000000000000000000033003300000000000000000000
#02114:0033000000000033000000000000000000000000000000000000000000000000
#02215:1200000000121200
#02219:00120000000000000000120012000000
#0221b:00000012000000000000000000000000
#02216:00000000001200000000000000000000
#02213:00000012000000000000000000000000
#02218:00000000001200000000000000000000
#02212:00000000000000120000000000000000
#0221c:00000000000000120000000000000000
#03216:00000000000013000000000013000013
#03212:00000000000000001300000000130013
#03215:00000013000000000000160000000000
#0321b:0013
#03217:13
#0361b:00000000000000001300000000000013
#03619:0000000000130000
#03612:00000000000000000000000013130000
#03614:0000000000130000
#03617:00000013
#03618:00000013000000000000000000000000
#03616:13000000000013130000000000000000
#03717:0013000000000000
#0371b:0000130013000013
#03712:0013000000000013
#03718:0000000000130000
#03716:0000001300000000
#03715:00000000000000000000001300000000
#03714:00000000000000000000000000000013
#05212:00000000000000001300001300001300
#05218:00000000000000000000130000130000
#0521b:00000000000000001300001300001300
#05215:00000000000000000013000013000000
#0521a:0000001200000000
#05214:0012000000000000
#0541b:00000000001300001300130000130000
#05418:0000001300001300
#05415:00000000000000130000001300001300
#05412:00000000000000001300130000000013
#05512:00000000001300000000130000001300
#05518:0000001300000000
#05515:00000000130000130000000000000013
#0551b:00000000000000001300001300000000
#05516:00000000000000000014000000000000
#05618:13001300001300000000001600000016
#0561b:00130000000000230000000000000000
#05615:00000013001300000000000016001600
#05612:00130000000000230000000000160000
#0561f:0021
#05712:00160000000000160000001600000013
#05718:00000016000000000016000000000000
#05715:1616000016161600
#05916:00000000000000230014140000000000
#05915:00000000000000000000001616000000
#0591b:0013000000000000
#05912:0000000023000000130000000000002c
#05914:00000000000000000000000000181800
#05917:00230000000000000000000000000000
#06316:0013000024002400
#06318:00130000
#06317:0000001300000000
#0631b:0000001300001300
#06315:00130000
#06312:1313000013000000
#06215:00130000001300130000001300000000
#06218:00130000000013000000130000000000
#0621b:0000000013000013
#06216:00000000000000000000000000140014
#06212:0013
#06415:00000000000013001300001300001300
#06418:00000000000000130013000000130000
#06412:13000000000000000013000000000013
#0641b:00000000130013000000000000000013
#06416:24240000
#06514:00130013
#0651b:0013000000000000
#06519:00130000
#06512:000000000000130013001c1c00001c1c
#06516:0000001300000000
#06515:00000000000000000013000000000000
#06517:00000000000000000000000000130000
#07516:00001300000000002400142400142400
#07512:0013000000001400
#0751a:00000000000000000014000000000014
#03415:00001300001316000000130000161300
#03418:00001300000000130013000013000023
#03418:00000000000000000000000000000023
#0341b:13000000000000001300001300000000
#03412:13000000130000000000000000000023
#06118:00000000000000000013000000000013
#06115:13000000000000000000001300130000
#06116:00000013001300000000000000000000
#06117:0013001300000000
#0611b:13
#0031b:00130000
#00318:00001300000000130000000000000000
#00315:00000013000013000000000000000000
#00312:2c00130000000013
#00316:0000000000000013
#00310:41
#00416:00000000000000130000000000000000
#0041b:13001300000000130000000000130013
#00412:13000000131300000000130000000000
#00418:00000000000000000000001300001300
#00415:00000013
#00417:0013000000000000
#0671b:0013000000000000
#06712:0013000000000000
#06714:0022
#0671a:0022
#02312:1200001200001200
#0231c:0012000012000000
#02318:1200001200000032
#0231a:00000000120000000000000000000032
#02319:00000000000000000000001200000000
#0241c:0012000000000012
#02418:00000012
#0241a:00000000121200000000000000000000
#02412:0012000012000012
#02417:00000000000000120000000000000000
#0241b:0000000000120000
#05115:00000000000000001212000012120000
#05119:00000000000012120000121200001212
#03015:0000001300000000
#03018:0000001300000000
#03017:0013
#03012:0013230000131300
#0301b:0000230013000013
#04017:00000000000000150000000000000000
#04015:00000000000000001500000000130000
#04014:0000000000150000
#04016:23000000000000000015000000000000
#04018:00000000000000000000000000000013
#04019:0000001500000000
#04012:0000000000000000000000000000000000000000000000000000000000000000230000000000000013000000001700000000000000000000000000000000000000000000000000000000000000000000000000000000000015000000000000000000000000000000000000000000000000000000000000000000000000000000
#0401b:23
#07115:00001300000000002600001600000000
#07114:00000000001400000000000000000000
#07118:00001300001400000000160000000000
#07112:13000016
#0711b:13
#03112:0014000023001300
#03116:00331400000000000000130013000000
#0311b:2333333300333333000000000000000023000000130000000000000000000000
#03117:1333000000000000000000000000000000000000000000000000000000000000
#03114:0000000000003333000000000000000000000000000000000000000000000000
#03115:0000003300330000000000000000000000000000000000000000000000000000
#03516:0013000000000000
#0351b:0013000023001300
#03517:0000130000131300
#03512:0000130023130000
#03510:0041
#00215:13
#00212:0013000000000000
#0021b:00130000000000000000000000000000
#00216:0000000000140000
#00214:00000000000000000000000000180000
#03815:00000000000000000013000000000000
#03818:0013
#03816:00000000000013000000002400000000
#03814:00000000000000000000000000280000
#03812:0000000000000000000000000000002c
#06018:00000013
#0601b:0000130023130000
#06012:0013000023001313
#06017:0013000000000000
#06016:00130000
#06015:00000000000000000000001600000016
#00512:1c130000
#00515:00001300000000130000000000000000
#00518:00000013000013000000000000000000
#0051b:0000130000000013
#00517:0000000000000013
#00617:00000000000000130000000000000000
#00612:13001300000000130000000000130013
#0061b:13000000131300000000130000000000
#00615:00000000000000000000001300001300
#00618:00000013
#00616:0013000000000000
#0071b:00000000130000130000000000000000
#00718:0013000000000000
#00715:00000016000013000000000000000000
#00712:1c00130000000013
#00717:0000000000000013
#0081b:00000000000000130000000000000000
#00816:00000000000000000000130000130000
#00814:00001300000000000000001300000000
#00818:00000000000000000000000013000013
#0081a:0000000000000013
#00817:00000000000000130000000000000000
#00912:1c000000130000130000000000000000
#00915:00001316000000000000000000000000
#00918:0000001300000000
#0091b:0000130000000013
#00916:0000000000000013
#01112:00000000130000000000001300130000
#01116:00000000000000130000000000001313
#0111b:00000000000000131300000000000000
#01117:00130000
#01114:00000000000000000013000000000000
#01119:00000000000000000033000000000000
#01110:41
#0151b:00000000130000000000001300001300
#01516:00000000130000000000000000000013
#01517:00000000000000130000000000130000
#01512:00000000000000131300000000000000
#01519:00000000000000000013000000000000
#01514:00000000000000000033000000000000
#01617:00001200000012000000000000000013
#01619:00120000
#01615:00120000
#0161a:00000000000000000000000000130000
#01614:0000000000000013
#01612:1313
#01613:0012000000000000
#0161b:00000000000012000000001300000000
#01616:00000000000000000014140000000000
#01717:00000000130000000013000000001300
#01716:00001300000013000000001300000000
#0171b:13000000000013000000001300000000
#01712:1300000013000013
#01719:0013000000000000
#01815:13000000001500000000000000000000
#01812:00130000001300000000230000000000
#01816:000000000000000000150000000000000000000000150000000000000000000000000000000000000033000000000000
#01818:00130000000000000000000000000000
#0181b:130000000000000000130000000000000000000000130000000000000000000000000000000000002300000000000000
#01817:000000000000000000000000000000000000000000000000000000000000003300000000000000000000000000000000
#01819:000033
#01814:0000000000000033
#02518:12002616261600000000000000000000
#02512:12000000000000002616261600000000
#07616:14240014240000000000000000000000
#07612:0014000000000000
#0761b:0000001200000000
#07619:00000000000000120000000000000000
#07617:0012
#07615:00000000000000000012000000000000
#07613:0000000000120000
#01919:003300000000000000130000000000000000000000330000
#01917:003300000000000000000000000000000000000000000000130000000000000000000000000000000033000000000000
#01918:00130000
#0191b:0000130000230000
#01912:230000000023
#01916:000000000000000000000000000000330000000000000000000000000000003300000000000000000000000000000000
#01914:000000000000000000330000000000003300000000000000
#01913:00000000000000330000000000000000
#01910:41
#0201b:2300000000130000
#02012:0000130000190000
#02015:000000130000000000001900
#02014:003300000000000000130000000000000000000000000000
#02016:003300000000000000000000000000000000000000000000130000000000000000000000000000000000000000000000
#02017:00000000003300000000000000000000
#02019:0000003300000000
#0201a:00000000000000330000000000000000
#02618:13001300000000001313000000000013
#02612:00000000130000000000001300000000
#02615:00130000000000000000000000000000
#0261b:00130000
#02912:00000000000013000013000000000000
#0291b:00000013000000000000000013000013
#02918:0023000000000023
#02915:0023
#01016:14140000000000000000000000000000
#01015:00000016000000000000000000000000
#01014:00000000001800000000000000000000
#01013:000000000000001a0000000000000000
#0101b:00130000
#01012:0000001300000000
#02712:00130000130023000000000023000000
#02715:23000013000000130000130000130013
#02718:00001300001300001300001300001300
#0271b:13000000000013000013000013000000
#02710:41
#07212:13000000000000000000000000000013
#0721b:00000000000013000000000013130000
#07217:0000001300000000
#07216:00000000000000000000000000000013
#07215:0000000000130000
#07315:00001300160016002600001600000000
#07318:00000013000000000000000016000000
#0731b:00000000001300000000000000000000
#07312:00000000000000130000160000000000
#07416:00000000000013001414000000000000
#07415:00000000000000000000001600000000
#07414:00000000000000000000000000180000
#07413:0000000000000000000000000000001a
#07412:0000001300001300
#0741b:1300000000000013
#06915:0013000000000000
#06914:00000000001300000000000000000000
#06918:0013000000000000
#06919:00000000001300000000000000000000
#06912:0023
#0691b:0023
#03912:0000000000000000000000000000000000000000000000000000000000000000000000000000000000000000000000000000000000000000000000000000000000000000000000000000000000000000000000000000000000000000000000002300000000000000130000000017000000000000000000000000000000000000
#03916:0023
#0391b:0023
#04112:13000000130000000000000000130000
#04116:0013000000000000
#0411b:0013000000130000
#04117:00130000
#04114:0013
#04119:0013
#04118:00000000000000000000001300000013
#04115:0000000000001313
#06612:00001c1c00001c1c0000001300000013
#0661b:00000000001300000013000000130000
#06619:00130000000000000000000000000000
#06616:1314
#06618:00130000
#05316:2300001300000000000000000000000000000000000000000000000000000000
#05317:0000000000000000001300000000000000000000000000000000000000000000
#05312:00000023000000000000000014000000
#0531b:23
#0531a:0000002400000000
#03315:00000000000000130000000013000013
#03318:00000000000000001300001300001300
#03312:00000000000013000000130000130000
#0331b:00000000000013000000130000130000
#02812:13000000000013000013000013000000
#02815:00001300001300001300001300001300
#02818:23000013000000130000130000130013
#0281b:00130000130023000000000023000000
#05812:0016000023001300
#05818:0000000016000012000000000000000000000000000000000000000000000000
#05816:00000000120000000000002300000000
#0581b:0000000000000023
#05810:0041
#0421b:130000000013130000000000
#04218:000000000000000000000000000000001300000000001300000000130000000000130000000000000000000000000000
#04215:0000131300001313
#04216:001300000000000000000000000000000000000000000000
#04219:001300000000000000000000
#04217:001300000000
#04214:0013000000000000
#04212:000000000000000000001300000013000000000000000000000000000000000000000000000000000000000000130000
#04312:00130000000000000000130013000000
#04318:000000131300000000000000
#04315:000000130013000000000013000000000000000000000000
#04319:000000000000000000000000000000000000001300000000
#0431b:0000001300000013
#04314:000000000013
#04316:000000000000000000000013
#04317:000000000000000000000000000000130013000000000000
#0441b:00130013
#04415:00000000000000000000000000130000
#04418:0000000000000013
#04418:0000000000000013
#04412:00130000000000130000000000000013
#04416:00000013130000000000000000000000
#04417:00130000000013130000000000000000
#04515:0000130000130000
#04518:00000000001300000000130000000000
#04512:000000000000130000000000000000000000000000230000000000000000000000000000000013000000130000001300
#0451b:00000000000000230000000013000000
#04519:000000000013
#04517:000000000000000000000013
#04617:00000000001300000000000000000000
#04615:13
#04612:00130000000000000000000013000000
#04616:000000000000000000130000000000000000000000000000000000000000000000000000000000000000000013000000
#04618:0013000000000000
#0461b:000000000000000000130000000000000000000000130000000000000000130000000000000013000000130000001300
#04614:000000000013
#0471b:00130000000000000013000000000013
#04716:00000000001300000013000000001300
#04712:00000013000000130000001313000000
#04718:13
#04717:00000013000000130000000000000000
#04817:000000130000130000000000000000000000000013000000130000130000000000000000000000000000000000000000
#04816:000000000000000000000000000013000000000000000000000000000000000000130000130000000000000000130000
#04812:000000130000000000000013000000000000130000130000
#0481b:00000000130000000013001300000000
#04819:001300
#04814:0000001300000000
#04917:0013000000000000
#0491b:00130000000000000000000000000000
#04912:001c
#0491f:0011
#07715:001300000000
#07718:000000000013000000000000000000000000000000000000
#07712:00230000
#0771b:00230000
#07012:2323
#0701b:23
#07018:0023
#0015b:63
#00156:0023000000000000
#00152:0053
#00157:0000000000230000
#0135b:53
#01356:00530000
#01352:0000002300000000
#01357:0023000000000033
#0555b:00000000000000000000006300000000
#0115b:3323
#01157:33
#01156:0000000000000043
#07556:0063000000000000
#04055:00000000000000000000000000130000
#04058:00000000000000000000000000000013
#04052:0000000000000000000000000000000000000000000000000000000000000000000000000000000053000000002700000000000000000000000000000000000000000000000000000000000000000000000000000000000000000000000000000000000000000000000000000000000000000000000000000000000000000000
#05955:00000000000000000000003646000000
#05956:00000000000000000044340000000000
#05954:00000000000000000000000000483800
#05952:0000000000000000330000000000001c
#0595b:00004300001300000000000000000000
#00255:00000000000000130000000000000000
#00258:00000000001300000000000000000000
#00252:0063000000000000
#0025b:00630000000000000000000000000000
#00358:00000000000000000000003300000000
#0035b:00000000000000000000003300000000
#00352:1c
#0045b:00000000000000630000000000000000
#00652:00000000000000530000000000000000
#00552:3c000000000000000000004300000000
#00555:00000000000000000000004300000000
#00857:00000000000000630000000000000000
#00758:00000000000000000000003300000000
#00752:4c
#0075b:00000000000000000000004300000000
#00955:00000000000000000000004300000000
#00952:1c000000000000000000003300000000
#01552:4323
#01557:43
#0155b:0000000000000013
#01856:00000035000000350000000000000000
#01855:00000000004500000000000000000000
#0185b:00000000000000000000004300000000
#01852:000000000000000000000000000000000000000000000000000000000000000000000000000000000000003300000000
#02558:00000000004600000000000000000000
#02552:00000000000000000000003600000000
#0215b:00005343
#02155:0000000000230000
#02152:63330000
#02158:0023000000000000
#02055:000000530000000000006900
#02052:00330000000000000000690000000000
#03057:0033
#03056:00000043
#03052:0013000000005300
#0305b:0053
#03152:0024460000000000
#03158:00460000
#03156:0024000000005300
#03157:53
#0315b:63
#02952:0000001300000000
#02955:00000013000000000000000000000013
#02958:00000000000000000013000000000000
#0295b:00000013
#01056:00140000000000000000000000000000
#01055:00000016000000000000000000000000
#01054:00000000001800000000000000000000
#01053:000000000000001a0000000000000000
#02452:12
#02352:12
#02652:00000000530000000000003300000000
#0265b:00000000530000000000004300000000
#02658:00000000000000000063000000000000
#0125b:43
#01652:13
#01452:33
#07256:00000043000000000000000000000053
#07252:00000033000000000000000000000000
#07456:00000000000000000014000000000000
#07455:00000000000000000000001600000000
#07454:00000000000000000000000000180000
#07453:0000000000000000000000000000001a
#0745b:00000043000000000000000000000000
#07457:00000033000000000000000000000000
#07752:00330000
#0775b:00430000
#03256:00000000000000000000000000000023
#03252:00000013000000000000000000000023
#03255:00000053000000000000000000000000
#03257:33
#03952:0000000000000000000000000000000000000000000000000000000000000000000000000000000000000000000000000000000000000000000000000000000000000000000000000000000000000000000000000000000000000000000000000000000000000000530000000027000000000000000000000000000000000000
#03957:001200000000
#06655:00000000000000000000004400000044
#06657:00000000000000000000000000340000
#0665b:00000000000000000063000000630000
#06652:00000000000000000000006300000000
#0535b:63
#05352:00000053000000000000000024000000
#0535a:0000006400000000
#05356:0000002300000000000000000000000000000000000000000000000000000000
#05357:0000000000000000002300000000000000000000000000000000000000000000
#03552:00230000
#03557:00230063
#03556:0053000000000000
#0355b:0053000000000000
#03658:00000063000000000000000000000000
#03656:43
#0365b:00000013000000000000000000000000
#03652:00000000000000000000000000530000
#03852:0000000013000000000000000000005c
#0385b:0013001300000000
#05752:00000000000000000000000000000033
#0575b:00000000000000000000000000000043
#05452:00000000000000000000000000000053
#06057:0063000000000000
#06052:0063000000000000
#06056:00230000
#0605b:00230000
#05652:00000000000000330000000000000000
#0565b:00000000000000430000000000000000
#06155:53
#06156:00000053000000000000000000000000
#06152:00000013000000000000000000000000
#0615b:0000001300000000
#06255:00530000000000000000000000000000
#06258:00530000000000000000000000000000
#0625b:0000000000000013
#06352:1333
#0635b:00000043
#06452:33000000000000000000000000000023
#0645b:00430000
#06458:00000000000000000063000000000000
#0275b:4300004300004300
#02758:0000000000000043
#02852:3300003300003300
#02855:0000000000000033
#0585b:00000000000000000013000000000000
#05852:00005600000000000000000033000013
#05858:0000000066000022000000000000000000000000000000000000000000000000
#05856:00220000
#01958:00630000
#0195b:000000430000000000000000000000000000000000000000000000000000000000000000000000000000004300000000
#01952:00000000000000000000003300000000
#04752:00000013
#0475b:00000000000000000013000000000013
#04757:00000053000000000000000000000000
#04355:000000000000000000000033000000000000000000000000
#04356:000000000000000000000013
#04456:00000000000000000043000000000000
#0445b:00000000000000000043000000000000
#04452:00000000000000530000000000000000
#04457:00000000000000530000000000000000
#04656:00000053000000000000000000000000
#04852:0013000000000000
#04857:00000000000000000033000000000000
#04856:00000000000000000000000043000033
#04957:0043000000000000
#04952:005c
#03458:00000000000000000000000000000043
#03458:00000000000000000000000000000043
#03452:00000000000000000000000000000033
#0455b:00000000000000430000000000000000
#04552:00000000000000330000000000000000
#07355:0046
#07155:0036
#01752:63
#01757:00630000
#0175b:0000002300000000
#01756:0023000000000000
#0013b0:13230000
#001360:0053000000000000
#001320:00001323
#001370:0000000000530000
#0023b0:00130000000000000000000000000000
#002380:00000000002300000000000000000000
#002321:0013000000000000
#002351:00000000003300230000000000000000
#0033b1:00000000000000001300002300000000
#003380:00000000000000000013002300000000
#004370:00000000132300000000000000000000
#0043b0:00000000000000130000000000000000
#004360:0000000000230000
#005320:00000000000000001300002300000000
#005351:00000000000000000013002300000000
#006361:00000000132300000000000000000000
#006321:00000000000000130000000000000000
#006371:0000000000230000
#007381:00000000000000001300002300000000
#0073b0:00000000000000000013002300000000
#008370:13230000000000000000000000000000
#0083b1:00132300000000000000000000000000
#008371:00000000132300000000000000000000
#008320:00000000132300000000000000000000
#008370:00000000000000130000000000000000
#008320:00000000000000000053230000000000
#009350:00000000000000001300002300000000
#009321:00000000000000000013002300000000
#010321:13230000000000000000000000000000
#010361:0000000000130000
#0103b1:00000053
#0113b1:23
#010320:0000000000130000
#010370:00000053
#011370:23
#0113b0:0013
#011390:00000000000000000033000000000000
#011360:00000000000000000000002300000000
#0133b0:13230000
#013370:0053000000000000
#013361:00132300
#013321:0000005300000000
#014361:00000013
#014321:0000000000000053
#015321:23
#0143b0:00000013
#014370:0000000000000053
#015370:23
#015320:0013
#015340:00000000000000000033000000000000
#015370:00000000000000000000002300000000
#017320:13230000
#017360:0053000000000000
#017371:00132300
#0173b1:0000005300000000
#018351:0000000000130000
#018371:000000000000000000000000000000000000000000000000000000000000003300000000000000000000000000000000
#018391:000033
#0183b1:00000000000000000000002300000000
#018381:000000000013
#018361:000000000000000000000000000000000000000000000000000000000000000000000000000000000033000000000000
#018341:0000000000000033
#018321:000000000000000000000000000000000000000000000000000000000000000000000000000000000000002300000000
#019351:13
#019371:003300000000000000000000000000000000000000000000000000000000000000000000000000000000000000000000
#019391:003300000000000000000000000000000000000000000000
#0193b1:00230000000000000000000000000000
#019381:00130000
#019361:00000000003300000000000000000000
#019341:0000003300000000
#019331:00000000000000330000000000000000
#019321:0023
#019381:0000000000130000
#019361:000000000000000000000000000000000000000000000000000000000000003300000000000000000000000000000000
#019341:000033
#019321:00000000000000000000002300000000
#019351:000000000013
#019371:000000000000000000000000000000000000000000000000000000000000000000000000000000000033000000000000
#019391:0000000000000033
#0193b1:000000000000000000000000000000000000000000000000000000000000000000000000000000000000002300000000
#020381:13
#020361:003300000000000000000000000000000000000000000000000000000000000000000000000000000000000000000000
#020341:003300000000000000000000000000000000000000000000
#020321:00230000000000000000000000000000
#020351:00130000
#020371:00000000003300000000000000000000
#020391:0000003300000000
#0203a1:00000000000000330000000000000000
#0203b1:0023
#020321:000000000000000000000000000000190000000023000000
#020350:000000000019
#0213b0:33230000
#021321:13230000
#021341:0033000000000033000000000000000000000000000000000000000000000000
#021361:00330033000000000000000000000000
#021371:0000003300330000000000000000000000000000000000000000000000000000
#021381:0033000000000000
#0213b1:00001323
#021391:0000000000000000000000000000000000330000000000330000000000000000
#021371:00000000000000000033003300000000
#021361:0000000000000000000000000000000000000033003300000000000000000000
#021351:0000000000330000
#021320:00001323
#023320:0012220000000000
#023320:0000000012220000
#023360:00000000000000000000000000120000
#023380:0000000000000032
#0233a0:00000000000000000000000000000032
#0243c0:22
#023321:0000000000000012
#024321:22
#024321:0000122200000000
#024321:0000000000122200
#026321:00000013330000000000000000000000
#026351:0000002300000000
#0263b0:00130000
#026380:0000002300000000
#026350:00000000000000001323000000000000
#026381:00000000000000000013000000000000
#0263b1:00000000000000000000002300000000
#029351:00001323000000000000000000000000
#0293b1:00000000001323000000000000000000
#029381:00000000000000001323000000000000
#029321:00000000000000000000001323000000
#029351:00000000000000000000000000001323
#0303b1:00132300000000000000000000000000
#0303b1:0013
#030361:00000023
#030320:00000013
#031370:3333000000000000000000000000000000000000000000000000000000000000
#031360:00330000000000000000000000000000
#031350:0000003300330000000000000000000000000000000000000000000000000000
#031320:0034260000000000
#031340:0000000000003333000000000000000000000000000000000000000000000000
#0313b1:1333333300333333000000000000000000000000000000000000000000000000
#031361:0034000000000000
#031381:00260000
#031361:00000013
#0323b1:23
#032321:00001323000000000000000000000000
#032350:00000013000000000000000000000000
#0323b0:0000002300000000
#032360:00000000000000000000000000000013
#0333b0:0023000000000000
#032321:00000000000000000000000000000013
#033371:0023000000000000
#0353b1:0013002300000000
#035371:00530000
#035360:0013002300000000
#035320:00530000
#035370:00000013
#036320:23
#0363b0:00001323000000000000000000000000
#036381:00000013000000000000000000000000
#036321:0000002300000000
#036321:00000000000000000000000000130000
#036371:00000000000000000000000000000023
#037321:00000000001323000000000000000000
#037361:00000000000000132300000000000000
#038371:13
#0383b1:0023000000000000
#038360:0013000000000000
#038320:00230000
#038371:00130000
#0383b1:0000002300000000
#038321:0000000000000000000000000000001c
#039371:002200000000
#039361:000000000000000000000000000000000000000000000000000000000000000000000000000000000000000000000000000000000000000000000000000000000000000000000000000000000000000000000000000000000000000000000000000000000000000000000000000000000000000000000000000000000000000000000000000000000000000000000000000000000000000000000000000000000000000000000000000000000000000000000000000000000000000000000000000000000000000000000000000000000000000000000000000000000000000000000000000000000000000000000000000000000000000000000000000000000000000000000000000000000000000000000000000000000000000000000000000000000000000000000000000000000000000000000000000000000000000000000000000000000000000000000000000000000000000000000000000000000000000000000000000000000000000000000000000000000000000000000000000000000000000000000000000000000000000000000000000000000000000000000000000000000000000000000000000000000000000000000000000000000000000000000000000000000000000000000000000000000000000000000000000000000000000000000000000000000000000000000000000000000000000000000000000000000000000000000000000000000000000000000000000000000000000000000000000000000000000000000000000000000000000000000000000000000000000000000000000000000000000000000000000000000000000000000000000000000000000000000000000000000000000000000000000000000000000000000000000000000000000000000000000000000000000000000000000000000000000000000000000000000000000000000000000000000000000000000000000000000000000000000000000000000000000000000000000000000000000000000000000000000000000000000000000000000000000000000000000000000000000000000000000000000000000000000000000000000000000000000000000000000000000000000000000000000000000000000000000000000000000000000000000000000000000000000000000000000000000000000000000000000000000000000000000000000000000000000000000000000000000000000000000000000000000000000000000000000000000000000000000000000000000000000000000000000000000000000000000000000000000000000000130000000000000000000000000000000000000000000000000000000000000000000000000000000000000000000000000000000000000000000000000000000000000000000000000000000000000000000000000000000000535800000000000000000000000000000000000000000000000000000000000000000000000000000000000000000000000000000000000000000058530000000000000000000000000000000000000000000000000000000000000000000000000000000000000000000000000000000000000000000000000000000000000000000000000000000000000000000000000000000000230000000000000000000000000000000000000000000000000000000000000000000000000000000000000000000000000000000000000000000000000000000000000000000000000000000000000000000000000000000000000000000000000000000000000000000000000000000000000000000000000000000000000000000000000000000000000000000000000000000000000000000000000000000000000000000000000000000000000000000000000000000000000000000000000000000000000000000000000000000000000000000000000000000000000000000000000000000000000000000000000000000000000000000000000000000000000000000000000000000000000000000000000000000000000000000000000000000000000000000000000000000000000000000000000000000000000000000000000000000000000000000000000000000000000000000000000000000000000000000000000000000000000000000000000000000000000000000000000000000000000000000000000000000000000000000000000000000000000000000000000000000000000000000000000000000000000000000000000000000000000000000000000000000000000000000000000000000000000000000000000000000000000000000000000000000000000000000000000000000000000000000000000000000000000000000000000000000000000000000000000000000000000000000000000000000000000000000000000000000000000000000000000000000000000000000000000000000000000000000000000000000000000000000000000000000000000000000000000000000000000000000000000000000000000000000000000000000000000000000000000000000000000000000000000000000000000000000000000000000000000000000000000000000000000000000000000000000000000000000000
#0393b0:00000000000000000000000000000000000000000000000000000000000000001300005300530000230000000000000000000000000000000000000000000000
#039360:000000000000000000000000000000000000000000000000000000000000000000000000000000000000000000000000000000000000000000000000000000000000000000000000000000000000000000000000000000000000000000000000000000000000000000000000000000000000000000000000000000000000000000000000000000000000000000000000000000000000000000000000000000000000000000000000000000000000000000000000000000000000000000000000000000000000000000000000000000000000000000000000000000000000000000000000000000000000000000000000000000000000000000000000000000000000000000000000000000000000000000000000000000000000000000000000000000000000000000000000000000000000000000000000000000000000000000000000000000000000000000000000000000000000000000000000000000000000000000000000000000000000000000000000000000000000000000000000000000000000000000000000000000000000000000000000000000000000000000000000000000000000000000000000000000000000000000000000000000000000000000000000000000000000000000000000000000000000000000000000000000000000000000000000000000000000000000000000000000000000000000000000000000000000000000000000000000000000000000000000000000000000000000000000000000000000000000000000000000000000000000000000000000000000000000000000000000000000000000000000000000000000000000000000000000000000000000000000000000000000000000000000000000000000000000000000000000000000000000000000000000000000000000000000000000000000000000000000000000000000000000000000000000000000000000000000000000000000000000000000000000000000000000000000000000000000000000000000000000000000000000000000000000000000000000000000000000000000000000000000000000000000000000000000000000000000000000000000000000000000000000000000000000000000000000000000000000000000000000000000000000000000000000000000000000000000000000000000000000000000000000000000000000000000000000000000000000000000000000000000000000000000000000000000000000000000000000000000000000000000000000000000000000000000000000000000000000000000000000000000000000000000000000000000000000000000000000000000000000000000000000000000000000000000000000000000000000000000000000000000000000000000000000000000000000000000000000000000000000000000000000580000000000000000000000000000000000000000000000000000000000000000000000000000000000000000000000000000000000005800000000000000000000000000000000000000000000000000000000000000000000000000000000000000000000000000000000000000000000000000000000000000000000000000000000000000000000000000000000000000000000000000000000000000000000000000000000000000000000000000000000000000000000000000000000000000000000000000000000000000000000000000000000000000000000000000000000000000000000000000000000000000000000000000000000000000000000000000000000000000000000000000000000000000000000000000000000000000000000000000000000000000000000000000000000000000000000000000000000000000000000000000000000000000000000000000000000000000000000000000000000000000000000000000000000000000000000000000000000000000000000000000000000000000000000000000000000000000000000000000000000000000000000000000000000000000000000000000000000000000000000000000000000000000000000000000000000000000000000000000000000000000000000000000000000000000000000000000000000000000000000000000000000000000000000000000000000000000000000000000000000000000000000000000000000000000000000000000000000000000000000000000000000000000000000000000000000000000000000000000000000000000000000000000000000000000000000000000000000000000000000000000000000000000000000000000000000000000000000000000000000000000000000000000000000000000000000000000000000000000000000000000000000000000000000000000000000000000000000000000000000000000000000000000000000000000000000000000000000000000000000000000000000000000000000000000000000000000000000000000000000000000000000000000000000000000000000000000000000000000000000000000000000000000000000000000000000000000000000000000000000000000000000000000000000000000000000000000000000000000
#039320:0000000000000000000000000000000000000000000000000000000000000000000000000000000000000000000000000000000000000000000000000000000000000000000000000000000000000000000000000000000000000000000000001300000000000000530000575757000023000000000000000000000000000000
#040360:130000000000000000000000000000000000000000000000000000000000000000000000000000000000000000000000000000000000000000000000000000000000000000000000000000000000000000000000000000000000535800000000000000000000000000000000000000000000000000000000000000000000000000000000000000000000000000000000000000000058530000000000000000000000000000000000000000000000000000000000000000000000000000000000000000000000000000000000000000000000000000000000000000000000000000000000000000000000000000000000230000000000000000000000000000000000000000000000000000000000000000000000000000000000000000000000000000000000000000000000000000000000000000000000000000000000000000000000000000000000000000000000000000000000000000000000000000000000000000000000000000000000000000000000000000000000000000000000000000000000000000000000000000000000000000000000000000000000000000000000000000000000000000000000000000000000000000000000000000000000000000000000000000000000000000000000000000000000000000000000000000000000000000000000000000000000000000000000000000000000000000000000000000000000000000000000000000000000000000000000000000000000000000000000000000000000000000000000000000000000000000000000000000000000000000000000000000000000000000000000000000000000000000000000000000000000000000000000000000000000000000000000000000000000000000000000000000000000000000000000000000000000000000000000000000000000000000000000000000000000000000000000000000000000000000000000000000000000000000000000000000000000000000000000000000000000000000000000000000000000000000000000000000000000000000000000000000000000000000000000000000000000000000000000000000000000000000000000000000000000000000000000000000000000000000000000000000000000000000000000000000000000000000000000000000000000000000000000000000000000000000000000000000000000000000000000000000000000000000000000000000000000000000000000000000000000000000000000000000000000000000000000000000000000000000000000000000000000000000000000000000000000000000000000000000000000000000000000000000000000000000000000000000000000000000000000000000000000000000000000000000000000000000000000000000000000000000000000000000000000000000000000000000000000000000000000000000000000000000000000000000000000000000000000000000000000000000000000000000000000000000000000000000000000000000000000000000000000000000000000000000000000000000000000000000000000000000000000000000000000000000000000000000000000000000000000000000000000000000000000000000000000000000000000000000000000000000000000000000000000000000000000000000000000000000000000000000000000000000000000000000000000000000000000000000000000000000000000000000000000000000000000000000000000000000000000000000000000000000000000000000000000000000000000000000000000000000000000000000000000000000000000000000000000000000000000000000000000000000000000000000000000000000000000000000000000000000000000000000000000000000000000000000000000000000000000000000000000000000000000000000000000000000000000000000000000000000000000000000000000000000000000000000000000000000000000000000000000000000000000000000000000000000000000000000000000000000000000000000000000000000000000000000000000000000000000000000000000000000000000000000000000000000000000000000000000000000000000000000000000000000000000000000000000000000000000000000000000000000000000000000000000000000000000000000000000000000000000000000000000000000000000000000000000000000000000000000000000000000000000000000000000000000000000000000000000000000000000000000000000000000000000000000000000000000000000000000000000000000000000000000000000000000000000000000000000000000000000000000000000000000000000000000000000000000000000000000000000000000000000000000000000000000000000000000000000000000000000000000000000000000000000000000000000000000000000000000000000000000000000000000000000000000000000000000000000000000000000000000000000000000000000000000000000000000000000000000000000000000000000
#0403b1:13000053005300002300000000000000000000000000000000000000000000000000000000000000000000000000000000000000000000000000000000000000
#040361:000000000000000000000000000000000000000000000000000000000000000000000000000000000000000000000000000000000000000000000000000000000000000000000000000000000000000000000000000000000000000000580000000000000000000000000000000000000000000000000000000000000000000000000000000000000000000000000000000000005800000000000000000000000000000000000000000000000000000000000000000000000000000000000000000000000000000000000000000000000000000000000000000000000000000000000000000000000000000000000000000000000000000000000000000000000000000000000000000000000000000000000000000000000000000000000000000000000000000000000000000000000000000000000000000000000000000000000000000000000000000000000000000000000000000000000000000000000000000000000000000000000000000000000000000000000000000000000000000000000000000000000000000000000000000000000000000000000000000000000000000000000000000000000000000000000000000000000000000000000000000000000000000000000000000000000000000000000000000000000000000000000000000000000000000000000000000000000000000000000000000000000000000000000000000000000000000000000000000000000000000000000000000000000000000000000000000000000000000000000000000000000000000000000000000000000000000000000000000000000000000000000000000000000000000000000000000000000000000000000000000000000000000000000000000000000000000000000000000000000000000000000000000000000000000000000000000000000000000000000000000000000000000000000000000000000000000000000000000000000000000000000000000000000000000000000000000000000000000000000000000000000000000000000000000000000000000000000000000000000000000000000000000000000000000000000000000000000000000000000000000000000000000000000000000000000000000000000000000000000000000000000000000000000000000000000000000000000000000000000000000000000000000000000000000000000000000000000000000000000000000000000000000000000000000000000000000000000000000000000000000000000000000000000000000000000000000000000000000000000000000000000000000000000000000000000000000000000000000000000000000000000000000000000000000000000000000000000000000000000000000000000000000000000000000000000000000000000000000000000000000000000000000000000000000000000000000000000000000000000000000000000000000000000000000000000000000000000000000000000000000000000000000000000000000000000000000000000000000000000000000000000000000000000000000000000000000000000000000000000000000000000000000000000000000000000000000000000000000000000000000000000000000000000000000000000000000000000000000000000000000000000000000000000000000000000000000000000000000000000000000000000000000000000000000000000000000000000000000000000000000000000000000000000000000000000000000000000000000000000000000000000000000000000000000000000000000000000000000000000000000000000000000000000000000000000000000000000000000000000000000000000000000000000000000000000000000000000000000000000000000000000000000000000000000000000000000000000000000000000000000000000000000000000000000000000000000000000000000000000000000000000000000000000000000000000000000000000000000000000000000000000000000000000000000000000000000000000000000000000000000000000000000000000000000000000000000000000000000000000000000000000000000000000000000000000000000000000000000000000000000000000000000000000000000000000000000000000000000000000000000000000000000000000000000000000000000000000000000000000000000000000000000000000000000000000000000000000000000000000000000000000000000000000000000000000000000000000000000000000000000000000000000000000000000000000000000000000000000000000000000000000000000000000000000000000000000000000000000000000000000000000000000000000000000000000000000000000000000000000000000000000000000000000000000000000000000000000000000000000000000000000000000000000000000000000000000000000000000000000000000000000000000000000000000000000000000000000000000000000000000000000000000000000000000000000000000000000000000000000000
#040321:0000000000000000000000000000000000000000000000000000000000000000130000000000000053000057575700002300000000000000000000000000000000000000000000000000000000000000000000000000000000000000000000000000000000000000000000000000000000000000000000000000000000000000
#044371:00000000000000130000000000000000
#0443b1:00000000000000000023000000000000
#044320:00000000000000130000000000000000
#044360:00000000000000000023000000000000
#045360:1323000000000000
#046360:00000013000000000000000000000000
#046320:00000000002300000000000000000000
#046370:00000000000000130000230000000000
#047370:00000013000000000000000000000000
#0473b0:00000000002300000000000000000000
#047370:00000013
#0473b0:0000000000000023
#047360:00000000000000000000000000000013
#048320:00230000000000000000000000000000
#048380:0000000000000013
#0483b0:00000000000000000000000000000023
#049350:00130000000000000000000000000000
#049320:0023000000000000
#049320:001c
#050370:00000000000000000000000000000022
#0523a0:00000000000000001252525252525252220000000000000000000000000000000000000000000000000000000000000000000000000000000000000000000000
#0523b0:0000000000000000000000000000000000520052005200520052005200520052000000000000000000000000000000000000000000000000000000000000000000000000000000000000000000000000000000000000000000000000000000000000000000000000000000000000000000000000000000000000000000000000
#052341:00000000000000000000000000000000125252525252525222000000000000000000000000000000000000000000000000000000000000000000000000000000
#052331:0000000000000000000000000000000000000000000000000000000000000000005200520052005200520052005200520000000000000000000000000000000000000000000000000000000000000000000000000000000000000000000000000000000000000000000000000000000000000000000000000000000000000000
#0533b1:13000023000000000000000000000000
#053361:0000005300000000000000000000000000000000000000000000000000000000
#053320:00000013000023000000000000000000
#053370:0000000000000000005300000000000000000000000000000000000000000000
#0533a1:0000001400000000
#053321:00000054
#0543a1:24
#054321:00000000000000000000000000000013
#055371:0023000000000000
#0553b0:0013230000000000
#0553b0:00000000000000000000001300000000
#055360:0000000000000023
#0573b0:00000000000000000000000000130023
#058380:0000000016000052000026000000000000000000000000000000000000000000
#058321:0016002600000000
#058361:00520000
#0583b1:00000000000000001323000000000000
#058360:00000000000000000013000000000000
#058320:00000000000000000000532300000000
#058361:00000000000000000000001323000000
#058321:00000000000000000000000000001323
#058370:00000000000000000000000000000013
#0593b0:53230000000000000000000000000000
#059371:00132300000000000000000000000000
#0593b1:00000000132300000000000000000000
#059360:00000000001300000000000000000000
#059320:00000000000053230000000000000000
#059361:00000000000000132300000000000000
#060321:0013002300000000
#060361:00530000
#060370:0013002300000000
#0603b0:00530000
#061350:13
#061320:00005323000000000000000000000000
#061361:00000013000000000000000000000000
#0613b1:00000000005323000000000000000000
#0613b1:00000000000000001323000000000000
#061381:00000000000000000000132300000000
#061321:00000000000000000000000013230000
#061351:00000000000000000000000000001323
#062381:00130000000000000000000000000000
#0623b1:00230000
#062350:00130000000000000000000000000000
#062320:00230000
#064380:00000000000000000013000000000000
#0643b0:00000000000000000000002300000000
#064320:00000000000000000000000000000013
#065370:0023000000000000
#0663b0:00000000000000000013000000000000
#066350:00000000000000000000002400000000
#066321:00000000000000000000001300000000
#066371:00000000000000000000000000240000
#0663b0:00000000000000000000000000130000
#066350:00000000000000000000000000000024
#067340:00000000000000000000000000000000000000000000000000000000000000001254520052545200525452005254520052005200520052005200520052005200
#067320:00000000000000000000000000000000000000000000000000000000000000000000005400000054000000540000005400000000000000000000000000000000
#067330:00000000000000000000000000000000000000000000000000000000000000000000000000000000000000000000000000540054005400540054005400540054
#068340:5252525252525252520052005200520052005200520052000000000000000000
#068330:00540054005400540054005400540054000054000000540000005400000054000000540000005400000054000000540024000000000000000000000000000000
#068320:00000000000000000000000000000000005600560056005600560056005600560056005600560056005600560056005600000000000000000000000000000000
#0673a1:00000000000000000000000000000000000000000000000000000000000000001200525452005254520052545200525452005200520052005200520052005200
#067381:00000000000000000000000000000000000000000000000000000000000000000054000000540000005400000054000000000000000000000000000000000000
#067391:00000000000000000000000000000000000000000000000000000000000000000000000000000000000000000000000000540054005400540054005400540054
#0683a1:5252525252525252520052005200520052005200520052000000000000000000
#068391:00540054005400540054005400540054000054000000540000005400000054000000540000005400000054000000540024000000000000000000000000000000
#068381:00000000000000000000000000000000005600560056005600560056005600560056005600560056005600560056005600000000000000000000000000000000
#069321:00000000000000000000000000000000000000000000000000000000000000000000000000000000000000000000000000000000000000000000000000000000000000000000000000000000000000000000000000000000000000000000000000000000000000000000000000000000000000000000000000000000000000000000000000000000000000000000000000000000000000000000000000000000000000000000000000000000000000000000000000000000000000000000000000000000000000000000000000000000000000000000000000000000000000000000000000000000000000000000000000000000000000000000000000000000000000000000000000000000000000000000000000000000000000000000000000000000000000000000000000000000000000000000000000000000000000000000000000000000000000000000000000000000000000000000000000000000000000000000000000000000000000000000000000000000000000000000000000000000000000000000000000000000000000000000000000000000000000000000000000000000000000000000000000000000000000000000000000000000000000000000000000000000000000000000000000000000000000000000000000000000000000000000000000000000000000000000000000000000000000000000000000000000000000000000000000000000000000000000000000000000000000000000000000000000000000000000000000000000000000000000000000000000000000000000000000000000000000000000000000000000000000000000000000000000000000000000000000000000000000000000000000000000000000000000000000000000000000000000000000000000000000000000000000000000000000000000000000000000000000000000000000000000000000000000000000000000000000000000000000000000000000000000000000000000000000000000000000000000000000000000000000000000000000000000000000000000000000000000000000000000000000000000000000000000000000000000000000000000000000000000000000000000000000000000000000000000000000000000000000000000000000000000000000000000000000000000000000000000000000000000000000000000000000000000000000000000000000000000000000000000000000000000000000000000000000000000000000000000000000000000000000000000000000000000000000000000000000000000000013000000000000000000000000000000000000000000000000000000000000000000000000000000000000000000000000000000000000000000000000000000000000000000000000000000000000000000000000000000000000000000000000000000000000000000000000000000000000000000000000000000000000000000000000000000000000000000000000000000000000000000000000000000000000000000000000000000000000000000000000000000000000000000000000000000000000000000000000000000000000000000000000000000000000000000000000000000000000000000005c0000000000000000000000000000000000000000000000000000000000000000000000000000000000000000000000000000000000000000000000000000000000000000000000000000000000000000000000000000000000000000000000000000000000000000000000000000000000000000000000005c0000000000000000000000000000000000000000000000000000000000000000000000000000000000000000000000000000000000000000000000000000000000000000000000000000000000000000000000000000000000000000000000000000000000000000000000000000000000000000000000000000000000000000000000000000000000000000000000000000000000000000000000000000000000000000000000000000000000000000000000000000000000000000000000000000000000000000000000000000000000000000000000000000000000000000000000000000000000000000000000000000000000000000000000000000000000000000000000000000000000000000000000000000000000000000000000000000000000000000000000000000000000000000000000000000000000000000000000000000000000000000000000000000000000000000000000000000000000000000000000000000000000000000000000000000000000000000000000000000000000000000000000000000000000000000000000000000000000000000000000000000000000000000000000000000000000000000000000000000000000000000000000000000000000000000000000000000000000000000000000000000000000000000000000000000000000000000000000000000000000000000000000000000000000000000000000000000000000000000000000000000000000000000000000000000000000000000000000000000000000000000000000000000000000000000000000000000000000000000000000
#069351:000000000000000000000000000000000000000000000000000000000000000000000000000000000000000000000000000000000000000000000000000000000000000000000000000000000000000000000000000000000000000000000000000000000000000000000000000000000000000000000000000000000000000000000000000000000000000000000000000000000000000000000000000000000000000000000000000000000000000000000000000000000000000000000000000000000000000000000000000000000000000000000000000000000000000000000000000000000000000000000000000000000000000000000000000000000000000000000000000000000000000000000000000000000000000000000000000000000000000000000000000000000000000000000000000000000000000000000000000000000000000000000000000000000000000000000000000000000000000000000000000000000000000000000000000000000000000000000000000000000000000000000000000000000000000000000000000000000000000000000000000000000000000000000000000000000000000000000000000000000000000000000000000000000000000000000000000000000000000000000000000000000000000000000000000000000000000000000000000000000000000000000000000000000000000000000000000000000000000000000000000000000000000000000000000000000000000000000000000000000000000000000000000000000000000000000000000000000000000000000053000000000000000000000000000000000000000000000000000000000000000000000000000000000000000000000000000000000000000000000000000000000000000000000000000000000000000000000000000000000000000000000000000000000000000000000000000000000000000000000000000000000000000000000000000000000000000000000000000000000000000000000000000000000000000000000000000000000000000000000000000000000000000000000000000000000000000000000000000000000000000000000000000000000000000000000000000000000000000000000000000000000000000000000000000000000000000000000000000000000000000000000000000000000000000000000000000000000000000000000000000000000000000000000000000000000000000000000000000000000000000000000000000000000000000000000000000000000000000000000000
#069361:000000000000000000000000000000000000000000000000000000000000000000000000000000000000000000000000000000000000000000000000000000000000000000000000000000000000000000000000000000000000000000000000000000000000000000000000000000000000000000000000000000000000000000000000000000000000000000000000000000000000000000000000000000000000000000000000000000000000000000000000000000000000000000000000000000000000000000000000000000000000000000000000000000000000000000000000000000000000000000000000000000000000000000000000000000000000000000000000000000000000000000000000000000000000000000000000000000000000000000000000000000000000000000000000000000000000000000000000000000000000000000000000000000000000000000000000000000000000000000000000000000000000000000000000000000000000000000000000000000000000000000000000000000000000000000000000000000000000000000000000000000000000000000000000000000000000000000000000000000000000000000000000000000000000000000000000000000000000000000000000000000000000000000000000000000000000000000000000000000000000000000000000000000000000000000000000000000000000000000000000000000000000000000000000000000000000000000000000000000000000000000000000000000000000000000000000000000000000000000000000000000000000000000000000000000000000000000000000000000000000000000000000000000000000000000000000000000000000000000000000005200000000000000000000000000000000000000000000000000000000000000000000000000000000000000000000000000000000000000000000220000000000000000000000000000000000000000000000000000000000000000000000000000000000000000000000000000000000000000000000000000000000000000000000000000000000000000000000000000000000000000000000000000000000000000000000000000000000000000000000000000000000000000000000000000000000000000000000000000000000000000000000000000000000000000000000000000000000000000000000000000000000000000000000000000000000000000000000000000000000000000000000000000000000000000000000000000000000000000000000
#0693b0:0013
#069380:000000000000000000000000000000000000000000000000000000000000000000000000000000000000000000000000000000000000000000000000000000000000000000000000000000000000000000000000000000000000000000000000000000000000000000000000000000000000000000000000000000000000000000000000000000000000000000000000000000000000000000000000000000000000000000000000000000000000000000000000000000000000000000000000000000000000000000000000000000000000000000000000000000000000000000000000000000000000000000000000000000000000000000000000000000000000000000000000000000000000000000000000000000000000000000000000000000000000000000000000000000000000000000000000000000000000000000000000000000000000000000000000000000000000000000000000000000000000000000000000000000000000000000000000000000000000000000000000000000000000000000000000000000000000000000000000000000000000000000000000000000000000000000000000000000000000000000000000000000000000000000000000000000000000000000000000000000000000000000000000000000000000000000000000000000000000000000000000000000000000000000000000000000000000000000000000000000000000000000000000000000000000000000000000000000000000000000000000000000000000000000000000000000000000000000000000000000000000000000000053000000000000000000000000000000000000000000000000000000000000000000000000000000000000000000000000000000000000000000000000005200000000000000000000000000000000000000000000000000000000000000000000000000000000000000000000000000000000000000000000220000000000000000000000000000000000000000000000000000000000000000000000000000000000000000000000000000000000000000000000000000000000000000000000000000000000000000000000000000000000000000000000000000000000000000000000000000000000000000000000000000000000000000000000000000000000000000000000000000000000000000000000000000000000000000000000000000000000000000000000000000000000000000000000000000000000000000000000000000000000000000000000000000000000000000000000000000000000000000000000
#069320:0000000000000000000000000000000000000000000000000000000000000000000000000000000000000000000000000000000000000000000000000000000000000000000000000000000000000000000000000000000000000000000000000000000000000000000000000000000000000000000000000000000000000000000000000000000000000000000000000000000000000000000000000000000000000000000000000000000000000000000000000000000000000000000000000000000000000000000000000000000000000000000000000000000000000000000000000000000000000000000000000000000000000000000000000000000000000000000000000000000000000000000000000000000000000000000000000000000000000000000000000000000000000000000000000000000000000000000000000000000000000000000000000000000000000000000000000000000000000000000000000000000000000000000000000000000000000000000000000000000000000000000000000000000000000000000000000000000000000000000000000000000000000000000000000000000000000000000000000000000000000000000000000000000000000000000000000000000000000000000000000000000000000000000000000000000000000000000000000000000000000000000000000000000000000000000000000000000000000000000000000000000000000000000000000000000000000000000000000000000000000000000000000000000000000000000000000000000000000000000000000000000000000000000000000000000000000000000000000000000000000000000000000000000000000000000000000000000000000000000000000000000000000000000000000000000000000000000000000000000000000000000000000000000000000000000000000000000000000000000000000000000000000000000000000000000000000000000000000000000000000000000000000000000000000000000000000000000000000000000000000000000000000000000000000000000000000000000000000000000000000000000000000000000000000000000000000000000000000000000000000000000000000000000000000000000000000000000000000000000000000000000000000000000000000000000000000000000000000000000000000000000000000000000000000000000000000000000000000000000000000000000000000000000000000000000000000000000000000000000000000000000000000000000000000000000000000000000000000000000000000000000000000000000000000000000000000000000000000000000000000000000000000000000000000000000000000000000000000000000000000000000000000000000000000000000000000000000000000000000000000000000000000000000000000000000000000000000000000000000000000000000000000000000000000000000000000000000000000000000000000000000000000000000000000000000000000000000000000000000000000000000000000000000000000000000000000000000000000000000000005c0000000000000000000000000000000000000000000000000000000000000000000000000000000000000000000000000000000000000000000000000000000000000000000000000000000000000000000000000000000000000000000000000000000000000000000000000000000000000000000000005c00000000000000000000000000000000000000000000000000000000000000000000000000000000000000000000000000000000000000000000000000000000000000000000000000000000000000000000000000000000000000000000000000000000000000000000000000000000000000000000000000000000000000000000000000000000000000000000000000000000000000000000000000000000000000000000000000000000000000000000000000000000000000000000000000000000000000000000000000000000000000000000000000000000000000000000000000000000000000000000000000000000000000000000000000000000000000000000000000000000000000000000000000000000000000000000000000000000000000000000000000000000000000000000000000000000000000000000000000000000000000000000000000000000000000000000000000000000000000000000000000000000000000000000000000000000000000000000000000000000000000000000000000000000000000000000000000000000000000000000000000000000000000000000000000000000000000000000000000000000000000000000000000000000000000000000000000000000000000000000000000000000000000000000000000000000000000000000000000000000000000000000000000000000000000000000000000000000000000000000000000000000000000000000000000000000000000000000000000000000000000000000000000000000000000000000000000000000000000000000
#070320:130000000000000000000000000000000000000000000000000000000000000000000000000000000000000000000000000000000000000000000000000000000000000000000000000000000000000000000000000000000000000000000000000000000000000000000000000000000000000000000000000000000000000000000000000000000000000000000000000000000000000000000000000000000000000000000000000000000000000000000000000000000000000000000000000000000000000000000000000000000000005c00000000000000000000000000000000000000000000000000000000000000000000000000000000000000000000000000000000000000000000000000000000000000000000000000000000000000000000000000000000005c00000000000000000000000000000000000000000000000000000000000000000000000000000000000000000000000000000000000000000000000000000000000000000000000000000000000000000000000000000000005c00000000000000000000000000000000000000000000000000000000000000000000000000000000000000000000000000000000000000000000000000000000000000000000000000000000000000000000000000000000260000000000000000000000000000000000000000000000000000000000000000000000000000000000000000000000000000000000000000000000000000000000000000000000000000000000000000000000000000000000000000000000000000000000000000000000000000000000000000000000000000000000000000000000000000000000000000000000000000000000000000000000000000000000000000000000000000000000000000000000000000000000000000000000000000000000000000000000000000000000000000000000000000000000000000000000000000000000000000000000000000000000000000000000000000000000000000000000000000000000000000000000000000000000000000000000000000000000000000000000000000000000000000000000000000000000000000000000000000000000000000000000000000000000000000000000000000000000000000000000000000000000000000000000000000000000000000000000000000000000000000000000000000000000000000000000000000000000000000000000000000000000000000000000000000000000000000000000000000000000000000000000000000000000000000000000000000000000000000000000000000000000000000000000000000000000000000000000000000000000000000000000000000000000000000000000000000000000000000000000000000000000000000000000000000000000000000000000000000000000000000000000000000000000000000000000000000000000000000000000000000000000000000000000000000000000000000000000000000000000000000000000000000000000000000000000000000000000000000000000000000000000000000000000000000000000000000000000000000000000000000000000000000000000000000000000000000000000000000000000000000000000000000000000000000000000000000000000000000000000000000000000000000000000000000000000000000000000000000000000000000000000000000000000000000000000000000000000000000000000000000000000000000000000000000000000000000000000000000000000000000000000000000000000000000000000000000000000000000000000000000000000000000000000000000000000000000000000000000000000000000000000000000000000000000000000000000000000000000000000000000000000000000000000000000000000000000000000000000000000000000000000000000000000000000000000000000000000000000000000000000000000000000000000000000000000000000000000000000000000000000000000000000000000000000000000000000000000000000000000000000000000000000000000000000000000000000000000000000000000000000000000000000000000000000000000000000000000000000000000000000000000000000000000000000000000000000000000000000000000000000000000000000000000000000000000000000000000000000000000000000000000000000000000000000000000000000000000000000000000000000000000000000000000000000000000000000000000000000000000000000000000000000000000000000000000000000000000000000000000000000000000000000000000000000000000000000000000000000000000000000000000000000000000000000000000000000000000000000000000000000000000000000000000000000000000000000000000000000000000000000000000000000000000000000000000000000000000000000000000000000000000000000000000000000000000000000000000000000000000000000000000000000000000000000000000000000000000000000000000
#070360:000000000000000000000000000000000000000000000000000000000000000000000000000000000000000000000000000000000000000000000000000000000000000000000000000000000000000000000000000000000000000000000000000000000000000000530000000000000000000000000000000000000000000000000000000000000000000000000000000000000000005300000000000000000000000000000000000000000000000000000000000000000000000000000000000000530000000000000000000000000000000000000000000000000000000000000000000000000000000000000000000000000000000000000000000000000000000000000000000000000000000000000000000000000000000000000000000000000000000000000000000000000000000000000000000000000000000000000000000000000000000000000000000000000000000000000000000000000000000000000000000000000000000000000000000000000000000000000000000000000000000000000000000000000000000000000000000000000000000000000000000000000000000000000000000000000000000000000000000000000000000000000000000000000000000000000000000000000000000000000000000000000000000000000000000000000000000000000000000000000000000000000000000000000000000000000000000000000000000000000000000000000000000000000000000000000000000000000000000000000000000000000000000000000000000000000000000000000000000000000000000000000000000000000000000000000000000000000000000000000000000000000000000000000000000000000000000000000000000000000000000000000000000000000000000000000000000000000000000000000000000000000000000000000000000000000000000000000000000000000000000000000000000000000000000000000000000000000000000000000000000000000000000000000000000000000000000000000000000000000000000000000000000000000000000000000000000000000000000000000000000000000000000000000000000000000000000000000000000000000000000000000000000000000000000000000000000000000000000000000000000000000000000000000000000000000000000000000000000000000000000000000000000000000000000000000000000000000000000000000000000000000000000000000000000000000000000000000000000000000000
#0703b1:13
#070371:000000000000000000000000000000000000000000000000000000000000000000000000000000000000000000000000000000000000000000000000000000000000000000000000000000000000000000000000000000000000000000000000000000000000000000000000000000000000000000000000000000000000000000000000000000000000000000000000000000000000000000000000000000000000000000000000000000000000000000000000000000000000000000000000000000000000000000000000000000000053000000000000000000000000000000000000000000000000000000000000000000000000000000000000000000000000000000000000000000000000000000000000000000000000000000000000000000000000000000000000000000530000000000000000000000000000000000000000000000000000000000000000000000000000000000000000000000000000000000000000000000000000000000000000000000000000000000000000000000000053000000000000000000000000000000000000000000000000000000000000000000000000000000000000000000000000000000000000000000000000000000000000000000000000000000000000000000000000000000000000000000000000000000000000000000000000000000000000000000000000000000000000000000000000000000000000000000000000000000000000000000000000000000000000000000000000000000000000000000000000000000000000000000000000000000000000000000000000000000000000000000000000000000000000000000000000000000000000000000000000000000000000000000000000000000000000000000000000000000000000000000000000000000000000000000000000000000000000000000000000000000000000000000000000000000000000000000000000000000000000000000000000000000000000000000000000000000000000000000000000000000000000000000000000000000000000000000000000000000000000000000000000000000000000000000000000000000000000000000000000000000000000000000000000000000000000000000000000000000000000000000000000000000000000000000000000000000000000000000000000000000000000000000000000000000000000000000000000000000000000000000000000000000000000000000000000000000000000000000000000000000000000000000000000000000000000000000000000000000000000000000000000000000000000000000000000000000000000000000000000000000000000000000000000000000000000000000000000000000000000000000000000000000000000000000000000000000000000000000000000000000000000000000000000000000000000000000000000000000000000000000000000000000000000000000000000000000000000000000000000000000000000000000000000000000000000000000000000000000000000000000000000000000000000000000000000000000000000000000000000000000000000000000000000000000000000000000000000000000000000000000000000000000000000000000000000000000000000000000000000000000000000000000000000000000000000000000000000000000000000000000000000000000000000000000000000000000000000000000000000000000000000000000000000000000000000000000000000000000000000000000000000000000000000000000000000000000000000000000000000000000000000000000000000000000000000000000000000000000000000000000000000000000000000000000000000000000000000000000000000000000000000000000000000000000000000000000000000000000000000000000000000000000000000000000000000000000000000000000000000000000000000000000000000000000000000000000000000000000000000000000000000000000000000000000000000000000000000000000000000000000000000000000000000000000000000000000000000000000000000000000000000000000000000000000000000000000000000000000000000000000000000000000000000000000000000000000000000000000000000000000000000000000000000000000000000000000000000000000000000000000000000000000000000000000000000000000000000000000000000000000000000000000000000000000000000000000000000000000000000000000000000000000000000000000000000000000000000000000000000000000000000000000000000000000000000000000000000000000000000000000000000000000000000000000000000000000000000000000000000000000000000000000000000000000000000000000000000000000000000000000000000000000000000000000000000000000000000000000000000000000000000000000000000000000000000000000000000000000000000000000000000000000000000000000000000000000000000000000000000
#070321:00000000000000000000000000000000000000000000000000000000000000000000000000000000000000000000000000000000005c0000000000000000000000000000000000000000005c000000000000000000000000000000000000000000005c000000000000000000000000000000000000000000000000000000000000000000000000000000000000000000000000000000000000000000000000000000000000000000000000000000000000000000000000000000000000000000000000000000000000000000000000000000000000000000000000000000000000000000000000000000000000000000000000000000000000000000000000000000000000000000000000000000000000000000000000000000000000000000000000000000000000000000000000000000000000000000000000000000000000000000000000000000000000000000000000000000000000000000000000000000000000000000000000000000000000000000000000000000000000000000000000000000000000000000000000000000000000000000000000000000000000000000000000000000000000000000000000000000000000000000000000000000000000000000000000000000000000000000000000000000000000000000
#070381:00260000
#070381:000000135300
#070321:000000000000000000000000000000000000000000000000000000000000000000000000000000000000000000000000000000000000000000000000000000000000000000000000000000000000000000000000000000000000000000000000000000000000000000000000000000000000000000000000000000000000000000000000000000000000000000000000000000000000000000000000000000000000000000000000000000000000000000000000000000000000000000000000000000000000000000000000000000000000000000000000000000000000000000000000000000000000000000000000000000000000000000000000000000000000000000000000000000000000000000000000000000000000000000000000000000000000000000000000000000000000000000000000000000000000000000000000000000000000000000000000000000000000000000000000000000000000000000000000000000000000000000000000000000000000000000000000000000000000000000000000000000000000000000000000000000000000000000000000000000000000005c000000000000000000000000000000000000000000000000005c000000000000000000000000000000000000000000000000000000000000000000000000000000000000000000000000000000000000000000000000000000000000000000000000000000000000000000000000000000000000000000000000000000000000000000000000000000000000000000000000000000000000000000000000000000000000000000000000000000000000000000000000000000000000000000000000000000000000000000000000000000000000
#070391:000000000000000000000000000000000052220000000000
#070320:00000000000000000000000000000000000000000000000000000000000000000000000000000000000000000000000000000000000000000000000000000000000000000000000000000000000000000000000000000000000000000000000000000000000000000000000000000000000000000000000000000000000000000000000000000000000000000000000000000000000000000000000000000000000000000000000000000000000000000000000000000000000000000000000000000000000000000000000000000000000000000000000000000000000000000000000000000000000000000000000000000000000000000000000000000000000000000000000000000000000000000000000000000000000000000000000000000000000000000000000000000000000000000000000000000000000000000000000000000000000000000000000000000000000000000000000000000000000000000000000000000000000000000000000000000000000000000000000000000000000000000000000000000000000000000000000000000000000000000000000000000000000000000000000000000000000000000000000000000000000000000000000000000000000000000000000000000000000000000000000013000000000000000000000000000000000000000000000000000000000000000000000000000000000000000000000000000000000000000000000000000000000000000000000000000000000000000000000000000000000000000000000000000000000000000000000000000000000000000000000000000000000000000000000000000000000000000000000000000000000000000000000000000000005c000000000000000000000000000000000000000000000000000000000000000000000000005c00000000000000000000000000000000000000000000000000000000000000000000000000000000000000000000000000000000000000000000000000000000000000000000000000000000000000000000000000000000000000000000000000000000000000000000000000000000000000000000000000000000000000000000000000000000000000000000000000000000000000000000000000000000000000000000000000000000000000000000000000000000000000000000000000000000000000000000000000000000000000000000000000000000000000000000000000000000000000000000000000000000000000000000000000000000000000000000000000000000000000000000000000000000
#070370:000000000000000000000000000000000000000000000000000000000000000000000000000000000000000000000000000000000000000000000000000000000000000000000000000000000000000000000000000000000000000000000000000000000000000000000000000000000000000000000000000000000000000000000000000000000000000000000000000000000000000000000000000000000000000000000000000000000000000000000000000000000000000000000000000000000000000000000000000000000000000000000000000000000000000000000000000000000000000000000000000000000000000000000000000000000000000000000000000000000000000000000000000000000000000000000000000000000000000000000000000000000000000000000000000000000000000000000000000000000000000000000000000000000000000000000000000000000000000000000000000000000000000000000000000000000000000000000000000000000000000000000000000000000000000000000000000000000000000000000000000000000000000000000000000000000000000000000000000000000000000000000000000000000000000000000000000000000000000000000000000000000000000000000000000000000000000000000000000000000000000000000000000000000000000000000000000000000000000000000000000000000000000000000000000000000000000000000000000000000000000000000000000000000000000000000000000000000000000000000000000000000000000000000000000000000000000000000000000000000000000000000000000000000000000000000000000000000000000000000000000000000000000000000000000000000000000000000000000000000000000000000000000000000000000000000000000000000000000000000000000000000000000000000000000000000000000000000000000000000000000000000000000000000000000000000000000000000000000000000000000000000000000000000000000000000000000000000000000000000000000000000000000000000000000000000000000000000000000000000000000000000000000000000000000000000000000000000000000000000000000000000000000000000000000000000000000000000000000000000000000000000000000000000000000000000000000000000000000000000000000000000000000000000000000000000000000000000000000000000000000000000000000000000000000000000000000000000000000000000000000000000000000000000000000000000000000000000000000000000000000000000000000000000000000000000000000000000000000000000000000000000000000000000000000000000000000000000000000000000000000000000000000000000000000000000000000000000000000000000000000000000000000000000000000000000000000000000000000000000000000000000000000000000000000000000000000000000000000000000000000000000000000000000000000000000000000000000000000000000000000000000000000000000000000000000000000000000000000000000000000000000000000000000000000000000000000000000000000000000000000000000000000000000000000000000000005300000000000000000000000000000000000000000000000000000000000000000000000000000000000000000000000000000000000000000000000000000000000000000000000000000000000000005200000000000000000000000000000000000000000000000000000000000000000000000000000000000000000000000000000000000000000000000000000000000000000000000000000000000000220000000000000000000000000000000000000000000000000000000000000000000000000000000000000000000000000000000000000000000000000000000000000000000000000000000000000000000000000000000000000000000000000000000000000000000000000000000000000000000000000000000000000000000000000000000000000000000000000000000000000000000000000000000000000000000000000000000000000000000000000000000000000000000000000000000000000000000000000000000000000000000000000000000000000000000000000000000000000000000000000000000000000000000000000000000000000000000000000000000000000000000000000000000000000000000000000000000000000000000000000000000000000000000000000000000000000000000000000000000000000000000000000000000000000000000000000000000000000000000000000000000000000000000000000000000000000000000000000000000000000000000000000000000000000000000000000000000000000000000000000000000000000000000000000000000000000000000000000000000000000000000000000000000000000000000000000000000000000000000000
#071370:00000000000000000000000000001323
#0713b1:00000000000000000000000000000013
#0723b1:23
#072321:00130023000000000000000000000000
#072360:00130023000000000000000000000000
#072320:00000000000000001323000000000000
#072381:00000000000000000013230000000000
#072371:00000000000000000000000013230000
#072361:00000000000000000000000000000013
#0733b1:00532300000000000000000000000000
#073361:00000000000000000000000000001323
#073320:00000000000000000000000000000013
#074320:23
#0743b0:00130023000000000000000000000000
#074371:00130023000000000000000000000000
#0743b1:00000000000000001323000000000000
#075361:0013000000000000
#0753b1:0023
