This file was generated by Ched 2.6.2.0.
#TITLE ""
#ARTIST ""
#DESIGNER ""
#DIFFICULTY 0
#PLAYLEVEL
#SONGID ""
#WAVE ""
#WAVEOFFSET 0
#JACKET ""
#REQUEST "ticks_per_beat 480"
#00002: 4
#BPM01: 150
#00008: 01
#TIL00: ""
#HISPEED 00
#MEASUREHS 00
#0031a:14141400
#00310:41
#00412:14141400
#00718:1414
#00714:00140000
#00814:1414
#00818:00140000
#0111a:1414
#01114:00140014
#01110:41
#0151a:14
#01518:0014
#01514:00140000
#01512:00000014
#0191a:14
#01914:00140000
#01910:41
#02118:16
#02112:0016
#00518:14141400
#00614:14141400
#0091a:14
#00918:0014
#00914:00140000
#00912:00000014
#0271a:14140000
#02712:00001414
#02710:41
#03112:00150016
#03119:14150000
#03113:14
#03118:0026
#03212:0014
#03218:14140014
#03214:0014000000000000
#04118:14
#04112:14
#0411a:0014
#04114:00000014
#05214:0014
#05218:00000014
#0521a:14
#05418:0014
#05412:00000014
#0551a:1414
#05514:0000140000140000
#05519:00000014
#05513:0000000000000014
#05618:14140014
#05612:0014001400001400
#05617:0026
#0561f:0021
#0571a:14
#05718:0000140000140014
#05712:00141414
#05714:14
#0601a:00000014
#06012:1414
#06018:14
#0641a:14001414
#06414:14001414
#06412:00140000
#06418:00140000
#06518:14140000
#0651a:00001414
#06514:0000000000140014
#06512:14140000
#01312:1414
#01318:00140014
#01712:14
#01714:0014
#01718:00140000
#0171a:00000014
#02012:14
#02018:00140000
#02218:1616
#02212:00160000
#0281a:14140000
#02812:00001414
#02814:0014000000000000
#02818:0000000000140000
#03013:00001414
#03019:00001414
#03018:14
#03012:00140000
#0291a:14
#02914:00140000
#02919:0014
#02913:00000014
#03314:00140000
#03312:00001414
#0331a:14
#03318:0000000000140000
#0341a:14140014
#03412:0014
#03414:0014000000001400
#03418:0014
#04018:14
#04013:00000014
#04019:00000014
#0401a:0014
#04014:00141400
#03918:0014
#03914:00000014
#05112:0014
#05812:1414
#05818:0014
#0581a:00000014
#05814:00000014
#05810:0041
#0611a:00001414
#06114:1400140000140000
#06118:0014000000000000
#06212:14140000
#06218:0014000000000000
#0621a:0014
#06618:14140000
#06612:0014001400000000
#0661a:00000000000000000034003400340000
#06714:0014
#0671a:0014
#06918:0016000014000000
#06912:0014
#06915:00000000001600000000000000000000
#07112:00000016
#07118:0016
#07218:14000014
#0721a:0014
#07214:0000140000140000
#07212:0000000000000014
#0731a:14
#07314:0014000000000000
#07318:00141600
#07312:0000001400001600
#0011a:14
#00114:14
#00112:0014
#00118:0014
#00219:14
#00213:14
#0101a:14
#02519:15
#02517:00150000
#02612:15
#02614:00150000
#03512:1426
#03518:14000016
#03510:0041
#0361a:0014
#03614:14140014
#03618:0014000000000000
#03718:00140000
#0371a:00001414
#03712:14
#03714:0000000000140000
#03812:14000000140000000034003400340000
#03818:0014001400000000
#06312:14000014
#0631a:0014
#06314:0014
#06318:00000014
#07418:14
#07414:00140000
#05912:1414
#05918:1414
#0591a:00140014
#05914:00140014
#0491f:0011
#0491a:14140000
#04218:1414
#04212:00140014
#04318:14
#04314:00140000
#0461a:0014
#04712:00001414
#04818:14140000
#04814:00001414
#07712:00240000
#0771a:00240000
#05312:26
#05315:00000026000000000000000000000000
#05318:0000002600000000
#02158:16
#02152:0016
#03152:00150000
#03159:00150000
#05152:0064
#0525a:64
#06754:0054
#0675a:0054
#06958:0064
#06952:0064
#02559:55
#02557:00250000
#02652:55
#02654:00250000
#03954:00000014
#04054:00140000
#0625a:0054
#06352:54
#01954:00140000
#02058:00140000
#0123a0:1424
#014320:1424
#0163a0:14
#016380:0024
#018320:14
#018340:0024
#023390:1525
#023370:00350000
#024320:1525
#024340:00350000
#025390:1525
#025370:00350000
#026320:1525
#026340:00350000
#038320:00000000000000001434003400340037
#039320:002700000000
#0433a0:00001424
#044320:14240000
#044380:0014
#045380:00000000000000240000000000000000
#045320:00000014
#046340:00240000
#0463a0:00000014
#047380:00240000
#049320:0014
#049340:00000024
#0503a0:14
#050380:00240000
#050340:0014
#050320:00000024
#051380:14
#0513a0:00240000
#051320:0014
#051340:00000024
#0523a0:14
#052380:00240000
#053380:0000001600000000
#054380:26
#0623a0:0014
#062380:00000024
#063320:14
#063340:00240000
#0663a0:00000000000000001434003400340000
#066370:00000000000000000000000000000037
#067370:0027000000000000
#0673a0:0014
#068380:00000024
#067341:0014
#068321:00000024
#069321:0014
#071341:24
#069380:0014
#0713a0:24
#074330:00000000000000001434003400340034
#075330:0024000000000000
#074391:00000000000000001434003400340034
#075391:0024000000000000
#076351:00000000000016003600360000360026
