This file was generated by Ched 2.6.2.0.
#TITLE ""
#ARTIST ""
#DESIGNER ""
#DIFFICULTY 0
#PLAYLEVEL
#SONGID ""
#WAVE ""
#WAVEOFFSET 0
#JACKET ""
#REQUEST "ticks_per_beat 480"
#00002: 4
#BPM01: 215
#00008: 01
#TIL00: ""
#HISPEED 00
#MEASUREHS 00
#00019:14
#00119:14
#00219:14
#00319:14
#00413:14
#00513:14
#00613:14
#00713:14
#00719:14
#0081a:14
#00810:41
#0091a:14
#01012:14
#01112:14
#0121a:14
#01312:14
#0141a:14
#01512:14
#02018:14
#02118:14
#02212:14
#02210:41
#02312:14
#04812:2616
#04810:41
#04912:16
#05018:1616
#05212:16
#05218:0016
#05312:16
#05418:16
#05412:0016
#05712:16
#1211a:14
#12212:14
#12318:14
#12314:0014
#12418:14
#1241a:00000024
#12412:00000024
#05118:16
#08518:2616
#0851f:21
#08618:16
#08712:1616
#08710:41
#08918:16
#08912:0016
#09018:16
#09112:16
#09118:0016
#09212:16
#09418:16
#08812:16
#11318:16
#11312:0016
#09718:16
#09818:16
#09912:16
#06012:16
#06112:16
#06218:16
#06318:16
#07612:14
#0761f:11
#07712:14
#07818:14
#07918:14
#08014:14
#08114:14
#0821a:14
#0831a:14
#0161a:14
#0171a:14
#01814:14
#01914:14
#0241a:14
#02514:14
#0261a:14
#02714:14
#02818:14
#02912:14
#03018:14
#03112:14
#03612:14
#03712:14
#0321a:14
#03210:41
#0331a:14
#04012:14
#0411a:14
#0441a:14
#04512:14
#05518:16
#09318:16
#05612:16
#10118:2616
#10212:1616
#10318:16
#10312:0016
#10512:1616
#10618:1616
#10712:16
#10718:0016
#11018:16
#10418:16
#10812:16
#10918:16
#10012:16
#11612:26
#11618:0026
#11712:26
#06410:41
#034320:14
#035320:24
#0383a0:14
#0393a0:24
#042340:14
#043340:24
#046380:14
#047380:24
#058380:1636
#059380:26
#064320:14
#065320:24
#066380:14
#067380:24
#068340:14
#069340:24
#0703a0:14
#0713a0:24
#072340:14
#073340:24
#074380:14
#075380:24
#095320:1636
#096320:26
#111320:1636
#112320:26
#114380:16
#115380:26
#117320:16
#120320:26
