This file was generated by Ched 2.6.2.0.
#TITLE ""
#ARTIST ""
#DESIGNER ""
#DIFFICULTY 0
#PLAYLEVEL
#SONGID ""
#WAVE ""
#WAVEOFFSET 0
#JACKET ""
#REQUEST "ticks_per_beat 480"
#00002: 4
#BPM01: 215
#00008: 01
#TIL00: ""
#HISPEED 00
#MEASUREHS 00
#00018:13130000
#0001b:000000000000130013000013
#00118:001300000000
#00117:00000013
#00215:13130000
#00212:000000000000130013000013
#00315:000013000000000000130000
#00312:000000000013000000000000
#00318:000000130000000013000000
#0031b:000000000013000000000000
#00719:000014
#00713:00000014
#0081b:130000000000000000000013
#00815:130000130000000013000013
#00818:000013000013000000130000
#00812:000000000013000000000000
#00810:41
#01016:001300000000
#0101b:00130000
#01012:130000000013000000000000
#01015:000013
#01018:000000000013000000130000
#00915:00130000
#00918:000013000013000000000000
#00912:000000000013000000000000
#00916:000013
#0091b:00000013
#00917:000000000000000000000013
#0111b:13
#01115:130000000000000000000013
#01118:00000013
#01112:000013
#01512:1300002500000000
#01514:0013000000000000
#01517:000000000000000000000013
#01516:00000013
#0151b:000013
#01519:0013002500000000
#0121b:130000000013000000000013
#01215:000000130000000013000000
#01212:000000000013000000000013
#01218:000013000000000000130000
#01315:000000130000000013000000
#01318:000013000000000000130000
#01312:000000000013000000000000
#0131b:000000000013000000000000
#01412:1313
#01418:00130013
#0141b:13
#01612:130000130000000013000000
#01615:000000000013000000000013
#0161b:000000000013000013000000
#01619:000000000000000000000013
#01618:00130000
#01712:001300001300
#01714:000000000013000000000000
#01718:000000000013000000130000
#0171b:001300000000
#04812:00130013
#0481b:00130013
#04818:13
#04815:2313
#04810:41
#04918:130013000013000000000000
#04912:000000000013000000000000
#04915:000000130000000013000000
#0491b:00000013
#0561b:0013
#05618:000000000000000013000013
#05615:00001313
#05612:000000000000000000000013
#05716:000014000014000014000000
#05713:0013
#0571a:00130013
#05817:13
#05812:13
#0581b:0013
#05816:0013
#0601b:0013
#06012:000013
#06114:000000130000000000000013
#06113:0013
#06112:00000013
#06119:000000130000000000000013
#0611a:0013
#0611b:00000013
#0631b:13000013
#06312:00000013
#06316:13
#06417:13
#06412:13000013
#06410:41
#06612:0013
#06616:000000000000000000000013
#06617:13
#06718:00000013
#0681b:13
#06814:00130000
#06813:0013
#06812:000000000000000000130013
#06919:00130000
#0691a:0013
#0691b:00000013
#0701b:13
#07014:000000000000000013130000
#07012:000000000000000000000013
#08416:1313
#08413:000000000013000000000000000000000000000000000000
#08417:00130013
#0841b:000000000000000000000013000000000000000000000000
#08412:000000000000000000000000000000000013000000000000
#05018:1313
#0501b:00130013
#05012:00130013
#05015:13
#05115:130013000013000000000000
#0511b:000000000013000000000000
#05118:000000130000000013000000
#05112:00000013
#05915:00130000
#0591b:00130000
#05918:13000013
#05912:13
#12117:13
#12116:000000130000000000000013
#12118:000013
#12112:13000013
#12212:000013000000000000000013
#12217:000000130013000000000000
#1221b:000000000000000013000013
#12216:00000013
#12416:000014000013000000000000
#12412:000000000000130000000000003333333333000000000000
#1241b:130000000013000000000000
#12418:00000026
#12414:0033
#12415:000000000000000000000033000000000000000000000000
#12316:000000000014000014000014
#12312:000000001400000000130000
#1231a:0014
#12314:001300000000
#12319:001300000000
#00415:13130000
#00412:000000000000130013000013
#00515:001300000000
#00516:00000013
#00618:13130000
#0061b:000000000000130013000013
#02015:00130013
#02012:13
#02018:00130013
#0201b:1313
#02115:00130013
#02112:13
#02118:00130013
#0211b:0013
#02212:130013
#0221b:00000013
#02210:41
#02812:00130013
#02815:1313
#0281b:00130013
#02818:13
#02912:000000000000130000000000000000000013000000000000
#02915:0013
#0291b:000000130000000000130013
#02918:13
#06516:13
#0651b:00000013
#0711b:00000013
#0721b:13
#07214:13000013
#07414:0013
#07412:000000000000000000000013
#0741b:13
#07512:00000013
#0751b:0013
#07516:000014
#07312:13
#07319:00000013
#0761b:00000013
#07616:000014
#0761f:11
#07712:00000013
#07716:000014
#0781b:00000013
#07816:000014
#07916:13
#0791b:130000000000130000000013
#07912:000000130000000000130013
#08117:000000131300
#08112:000000000013000000130014
#08116:131300000000
#0811b:00130000
#0811a:000000000000000000000014
#0801b:000000000000000000000013
#08015:001300
#08018:001300
#08312:130018
#08316:000000140014000000000000
#0831b:001300130000
#0831a:000000000000000000000000000000000000000000000013
#08214:000000000014000000000000000000000000000000000000
#08218:000000000014000000000000000000000000000000000000
#08212:000013
#08216:000000000000000000140014
#01816:1313
#01812:00130013
#01917:1313
#0191b:00130013
#02417:13
#0241b:000000130000000013000000
#02418:000000000013000000000013
#02412:130000000013000013000000
#02414:000000000000000000000013
#02415:00130000
#0251b:000013000000000013000013
#02519:000000000013000000000000
#02515:000000000013000000130000
#02512:001300000000
#02617:00130013
#0261b:0013
#02616:1313
#02712:1313
#02716:00130013
#02717:1313
#02316:00000013
#0231b:00000013
#0301b:00130013
#03015:00130013
#03018:0013
#03012:0013
#08518:00130013
#08515:00130013
#08512:13
#0851b:2313
#0851f:21
#08612:130000000013000000000000
#08618:000000130013000000000000
#0861b:000013
#08615:000013000000000000230000
#09312:0013
#09315:000000000000000013000013
#09318:00001313
#0931b:000000000000000000000013
#09416:000014000014000014000000
#0941a:0014
#09412:00140014
#09516:13
#0951b:13
#09517:0013
#09512:0013
#09615:13000013
#0961b:13
#09618:00130000
#09612:00130000
#08712:1313
#08715:00130013
#08718:00130013
#0871b:13
#08710:41
#0881b:130000000013000000000000
#08815:000000130013000000000000
#08812:000013
#08818:000013000000000000230000
#06213:00130013
#0621a:0013
#06216:000014000014000014000000
#09712:0013
#0971b:000013
#09819:00130000
#0981a:0013
#0981b:00000013
#09814:00130000
#09813:0013
#09812:00000013
#09818:000000000000000000000013
#0991a:001300000000
#09913:000013
#09912:000000000000000000000013
#10012:000013
#1001b:000013000013000000000000
#10017:00000013
#10118:00130000
#10112:0013
#10115:00000013
#10117:0013
#10116:13
#1011b:23
#1021b:130000000013000000000000
#10215:000000000013000000000000
#10218:00130000
#10216:130024
#10212:00000024
#10312:13
#10315:00130000
#1031b:0013
#10318:00000013
#10316:0013
#10317:13
#10412:130000000013000000000000
#10418:000000000013000000000000
#10415:00130000
#10417:13
#1041a:00000024
#10416:000024
#10816:1313
#10815:000000000013
#10818:000013
#1081b:1313
#10813:000013
#1081a:000000000013
#10817:001300000000
#10917:13
#10912:1313
#1091a:000014
#10916:000000000000000000140014
#10918:0013
#11115:13
#1111b:13
#11118:0013
#11112:0013
#11218:00130000
#11215:13000013
#1121b:13
#11212:00130000
#11318:000000000000000013000013
#11315:000000000000000000000013
#11012:141400000000
#1101a:000000141400
#11016:000000140014000000140000
#0321b:1313
#03218:00130013
#03210:41
#03917:0013
#03919:00000013
#03912:0013
#03914:00000013
#0401a:00130000
#04016:13
#04015:00130000
#0401b:13
#04114:00130000
#04118:13
#0411a:00130000
#04112:13
#04218:00130000
#04215:13
#04212:00130000
#0421b:13
#04316:00130000
#04317:13
#0431b:00130000
#04312:13
#04512:130000000000000013000013
#04517:13
#0451b:001300130000
#04516:0013
#04616:141400141400
#0461b:000000130013000000000000
#04612:000000000000000000130013
#04714:00000013
#04719:000013
#04716:14
#04715:000000000000001300000000000000000000000000000000
#04718:000000000000001300002600000000000000000000000000
#04712:000000000026000000000000
#05215:130000130000000013000000
#05218:000013000000130000130000
#0521b:13
#05212:0013
#0351b:13000013
#03516:1313
#03517:00130000
#03815:000000000000000000000013
#0381b:130000000000000000000013
#03816:13000013
#03812:00131300
#03818:0000001300000000
#03616:13000013
#03612:00131300
#03618:0000001300000000
#0361b:13
#05315:130000130000000013000000
#05318:000013000000130000130000
#0531b:13
#05312:0013
#04412:13
#04415:001300000000
#04417:13
#0441b:0013
#04418:000013
#04416:0013
#05415:000000130000000013000000
#05418:000013000000000000130000
#05412:1313
#0541b:1313
#05515:00130013
#05518:001300000000
#05512:1313
#0551b:13000013
#08915:00131300
#0891b:001300130000
#08912:130013
#08918:13000013
#09015:00131300
#0901b:001300130000
#09018:13000013
#09012:130013
#09112:00131300
#09118:001300130000
#0911b:13000013
#09115:130013
#09212:00130013
#09218:001300000000
#0921b:1313
#09215:13
#09217:00000013
#10518:13
#10515:0013
#10512:000013
#1051b:001300000000
#10618:13
#10615:0013
#10612:130013
#1061b:001300130000
#1071b:13
#10716:130013
#10717:001300130000
#10712:0013
#03312:1313
#03315:00130013
#0341b:1313
#03418:00130013
#03717:13000013
#0371b:00131300
#03715:0000001300000000
#03712:13
#11712:24
#1171a:24
#11616:24
#11613:0024
#11619:0024
#0485b:00230000
#04852:00000023
#04855:0063
#04858:63
#0495b:00000013
#05152:00000013
#0505b:00000023
#05052:00230000
#05055:53
#05058:0053
#05857:63
#05852:63
#0585b:0053
#05856:0053
#01152:00130000
#01158:000000000013000000000000
#01155:63
#0115b:63
#01452:6363
#01458:00630063
#01559:0000004500000000
#01552:0000003500000000
#0595b:00230000
#05955:00230000
#05952:63
#05958:63
#12156:00630000
#12157:63
#11752:64
#1175a:64
#00652:000000000000000000000033
#0065b:000000000000000000000043
#02055:00230000
#02052:63
#02058:00000023
#0205b:0053
#02155:00230000
#02152:63
#02158:00000023
#0215b:0053
#02852:00000023
#02855:0053
#0285b:00230000
#02858:63
#02952:000000000000000000000000000000000023000000000000
#02955:0053
#0295b:000000230000000000000013
#02958:63
#06457:63
#06556:53
#06657:63
#06656:000000000000000000000063
#06852:000000000000000000000063
#0685b:63
#0705b:63
#07052:000000000000000000000063
#0725b:63
#07452:000000000000000000000063
#0745b:63
#07352:53
#07658:00430000
#07652:000000000043000000000000
#07755:00330000
#0775b:000000000033000000000000
#07858:00430000
#07852:000000000043000000000000
#0795b:630000000000630000000053
#07952:000000530000000000000063
#08055:002300
#08058:002300
#08254:000000000024000000000000000000000000000000000000
#08258:000000000024000000000000000000000000000000000000
#08152:000000000000000000000054
#0815a:000000000000000000000064
#08352:000018
#02355:000000000033000000000000
#02358:00430000
#02656:5353
#02757:5353
#03158:000043
#03155:000033
#0865b:000013
#08655:00000013
#09556:53
#0955b:53
#09557:0063
#09552:0063
#08558:00000023
#08555:00230000
#08552:53
#0855b:0053
#09655:53
#0965b:53
#09658:00230000
#09652:00230000
#08852:000013
#08858:00000013
#08755:00000023
#08758:00230000
#0875b:63
#08752:0063
#06052:000063
#0605b:0063
#06352:0000001300000000
#06357:0000001300000000
#06356:63
#0635b:63
#09752:0053
#0975b:000053
#1005b:000000000063000000000000
#10055:000000000013000000000000
#09952:000000000000000000000063
#09955:000000000013000000000000
#09958:000000000000000000000013
#10256:230014
#10252:00000014
#10157:0023
#10156:23
#10457:23
#1045a:00000014
#10456:000014
#10356:0023
#10357:23
#11358:000000000000000000000053
#11355:000000000000000000000053
#11155:53
#1115b:53
#11158:0063
#11152:0063
#11255:5343
#1125b:5343
#11252:00230000
#11258:00230000
#09858:000000000000000000000013
#0405a:00230000
#04056:53
#04055:00230000
#0405b:53
#04154:00230000
#04158:63
#0415a:00230000
#04152:63
#04258:00230000
#04255:53
#04252:00230000
#0425b:53
#04356:00230000
#04357:63
#0435b:00230000
#04352:63
#04752:000000000036000000000000
#04758:000000000000002300004600000000000000000000000000
#04755:000000000000002300000000000000000000000000000000
#03557:00630000
#03556:6353
#0385b:630000000000000000000063
#03855:000000000000000000000063
#03858:0000006300000000
#05255:00130000
#05258:00000013
#05355:00130000
#05358:00000013
#05455:00130000
#05458:00000013
#05555:00130023
#0555b:00000023
#08955:00130000
#08958:00000013
#09055:00130000
#09058:00000013
#09152:00130000
#0915b:00000013
#09252:00130023
#09257:00000023
#03658:0000006300000000
#0365b:63
#10952:13
#10957:13
#05652:33
#05658:33
#09356:43
#0935b:43
#10652:63
#1065b:0053
#10656:00130000
#10657:00000013
#10756:63
#10757:0053
#10752:00130000
#1075b:00000013
#10856:63
#10852:00130000
#12458:00000046
#12456:000000000063000000000000
#10556:00130000
#10557:00000013
#04457:53
#04456:0063
#04552:53
#0455b:0063
#03755:0000005300000000
#03752:53
#000330:13
#001330:00000023
#0013b1:000000000013230000000000
#0023b0:130000000000000000000023
#0043a0:13
#0053a0:00000023
#005321:000000000013230000000000
#006320:130000000000000000000023
#011350:13
#011320:00230000
#0113b1:13
#011381:000000530023000000000000
#014321:13
#014351:00230000
#014380:00130000
#0143b0:0023
#014321:0013
#014351:00000023
#014380:00000013
#0153b0:23
#0183b0:13
#018370:00230000
#0183b0:0013
#018370:00000023
#019320:13
#019360:00230000
#019320:0013
#019360:00000023
#020320:1323
#020350:00530000
#0203b1:0013
#020381:00000053
#0213b1:23
#021320:1323
#021350:00530000
#0213b1:0013
#021381:00000053
#0223b1:23
#022351:000000000000000000000013
#023351:000000000023000000000000
#022380:000000000000000000000013
#023380:00230000
#026361:13
#026321:00230000
#026361:0013
#026321:00000023
#027371:13
#0273b1:00230000
#027371:0013
#0273b1:00000023
#028381:1323
#0283b1:00530000
#028350:0013
#028320:00000053
#029350:23
#029381:1323
#0293b1:00530000
#029350:000000000000130000000023
#029320:000000000000000000000000000000000053000000000000
#030380:000000000000000000000013
#031380:000023
#031351:130023
#032351:13000023
#032321:0000005300000000
#033381:13000023
#0333b1:0000005300000000
#034351:13000023
#034321:0000005300000000
#035361:13
#035321:00230000
#035370:00130000
#0353b0:0023
#035361:0013
#035321:00000023
#0363b1:13000023
#036381:0000005300000000
#037321:13000023
#037351:0000005300000000
#0383b1:13000023
#038381:0000005300000000
#0383b1:000000000000000000000013
#039381:00230000
#038350:000000000000000000000013
#039320:00230000
#040360:1323
#040350:00530000
#0403b1:1323
#0403a1:00530000
#041381:1323
#0413a1:00530000
#041320:1323
#041340:00530000
#042350:1323
#042320:00530000
#0423b1:1323
#042381:00530000
#043371:1323
#0433b1:00530000
#043320:1323
#043360:00530000
#044370:13
#0443b0:00230000
#044360:0013
#044320:00000023
#045320:13
#045360:00230000
#0453b0:0013
#045370:00000023
#047350:000000001300005300000000000000000000000000000000
#047320:000000000026000000000000
#047381:000000001300005300002600000000000000000000000000
#048381:1323
#0483b1:00530000
#048350:0013
#048320:00000053
#049350:23
#050350:1323
#050320:00530000
#050381:0013
#0503b1:00000053
#051381:23
#0553b1:00001353
#056381:23
#055350:00000013
#056320:23
#058370:13
#0583b0:00230000
#058321:13
#058361:00230000
#058361:0013
#058321:00000023
#0583b0:0013
#058370:00000023
#059380:1323
#0593b0:00330000
#059321:1323
#059351:00330000
#059321:00000013
#060321:23
#060380:13230000
#060351:00132300
#0603b0:0013
#060380:000000000000000000000000000000530000000000002300
#060321:000013
#060351:000000000000000000000000000000000000005300002300
#0633b1:13
#063371:0000532300000000
#063360:13
#063320:0000532300000000
#064370:13
#0653b0:23
#065361:13
#066321:23
#066370:13
#0663b0:000000000000000000000023
#066361:000000000000000000000013
#068321:23
#0683b0:13
#068370:000000000000000000000023
#068321:000000000000000000000013
#070361:23
#0703b0:13
#070370:000000000000000000000023
#070321:000000000000000000000013
#071361:00000023
#0723b1:13
#073371:23
#073320:13
#074360:23
#0743b1:13
#074371:000000000000000000000023
#074320:000000000000000000000013
#075360:0023
#076350:13
#076320:000000530000000000002300000000000000000000000000
#0763b1:13
#076381:0053230000000000
#077380:13
#0773b0:000000530000000000002300000000000000000000000000
#077321:13
#077351:0053230000000000
#078350:13
#078320:000000530000000000002300000000000000000000000000
#0783b1:13
#078381:0053230000000000
#0793b0:13
#079370:00230000
#079321:00130000
#079361:0023
#0793b0:0013
#079370:00000023
#079320:000000000000000000000013
#080350:005300
#080320:00000023
#0793b1:000000000000000000000013
#080381:005300
#0803b1:00000023
#081321:000000000000000000000014
#082341:000000000054000000000000000000000000000000000000
#082321:0024
#0813a0:000000000000000000000014
#082380:000000000054000000000000000000000000000000000000
#0823a0:0024
#085320:1323
#085350:00530000
#0853b1:0013
#085381:00000053
#0863b1:23
#0873b1:1323
#087381:00530000
#087320:0013
#087350:00000053
#088320:23
#092320:00001353
#093360:23
#092371:00000013
#0933b1:23
#095361:13
#095321:00230000
#0953b0:13
#095370:00230000
#095370:0013
#0953b0:00000023
#095321:0013
#095361:00000023
#096351:1323
#096321:00330000
#0963b0:1323
#096380:00330000
#0963b0:00000013
#0973b0:23
#097351:13230000
#097380:00132300
#097321:0013
#097351:000000000000000000000000000000530000000000002300
#0973b0:000013
#097380:000000000000000000000000000000000000005300002300
#098320:000000000000000000000013
#099350:000000530023000000000000
#0993b1:000000000013000000000000
#099381:000000000000000000530023
#099320:000000000000000000000013
#100350:000000530023000000000000
#1003b1:000000000013000000000000
#100371:000023
#101361:13
#101321:00230000
#101371:0013
#1013b1:00000023
#102361:13
#102321:00230000
#103371:13
#1033b1:00230000
#103361:0013
#103321:00000023
#104371:13
#1043b1:00230000
#105321:13
#105361:00230000
#1053b1:0013
#105371:00000023
#106321:13
#106361:00230000
#1063b1:0013
#106371:00000023
#107361:13
#107321:00230000
#107371:0013
#1073b1:00000023
#108361:13
#108321:00230000
#111351:13
#111321:00230000
#1113b0:13
#111380:00230000
#111380:0013
#1113b0:00000023
#111321:0013
#111351:00000023
#112351:1323
#112321:00330000
#1123b0:1323
#112380:00330000
#1123b0:00000013
#1133b0:23
#113351:13230000
#113380:00132300
#113321:000000132300
#113351:000000000000000000000013
#115321:0023
#113380:000000000000000000000013
#1153b0:0023
#117320:14
#120350:000023
#1173a1:14
#120381:000023
#121371:13
#1213b1:00230000
#121360:00130000
#121320:000023
#1213b0:000000000000000000000013
#122370:002300000000
#122320:000000000013000000000000
#122360:000023
#124360:000000000013000000000000
#124350:000000000000000000000033000000000000000000000000
#124340:0033
#124320:000000000000000000000000003333333333230000000000
