This file was generated by Ched 2.6.2.0.
#TITLE ""
#ARTIST ""
#DESIGNER ""
#DIFFICULTY 0
#PLAYLEVEL
#SONGID ""
#WAVE ""
#WAVEOFFSET 0
#JACKET ""
#REQUEST "ticks_per_beat 480"
#00002: 4
#BPM01: 215
#00008: 01
#TIL00: ""
#HISPEED 00
#MEASUREHS 00
#0001b:1313
#00012:00130000
#00018:000000000000000000000013
#00015:000013
#00115:001300130000
#00112:00000013
#00118:000000000013000000000000
#0021b:1313
#00212:00130000
#00215:000013
#00218:000000000000000000000013
#00315:000013000000000000130000
#00318:000000130000000013000000
#00312:000000000013000000000000
#00612:130000000000130000000013
#0061b:000000130000000000000013
#00618:000013
#00812:130000000000000000000013
#0081b:000000000013000000000000
#00815:000000130000000013000000
#00818:000013000000000000130000
#00810:41
#00918:000013000000000000130000
#00915:000000130000000013000000
#0091b:000000000013000000000000
#01018:000000130000000013000000
#01015:000013000000000000130000
#01012:000000000013000000000000
#0101b:13
#01212:130000000000000000000013
#01218:000013000000000000130000
#01215:000000130000000013000000
#0121b:000000000013000000000000
#01318:000013000000000000130000
#01315:000000130000000013000000
#0131b:000000000013000000000000
#01412:13
#01418:0013
#0141b:00000013
#01415:00130000
#01115:000013
#01118:00330013
#0111b:13
#00714:000014
#00718:00000014
#01715:00000013
#01712:000000000014000000000000
#01716:001400000000
#0171b:000013
#0291b:000000000000000000000013
#02912:000000000000000000000013
#02918:13
#03018:00000013
#03918:13
#03912:13
#0391b:0013
#03915:0013
#0561b:0013
#05615:000013
#05618:00000013
#05612:140000000000000000000013
#05912:14
#05915:00140000
#05918:00000013
#06012:13
#0601b:00130000
#06118:000000000000130000000013
#06115:00000013
#06112:00130000
#0611b:00130000
#06212:00130000
#06215:00000013
#06218:0013
#02815:13
#05215:13130000
#05218:00001313
#0521b:13
#05212:0013
#05315:13130000
#0531b:13
#05318:00001313
#05312:0013
#05415:00130000
#05412:1313
#0541b:1313
#05418:00000013
#05512:13
#0551b:13
#05515:00130000
#0551a:0014
#05516:00000014
#0631b:13
#06315:00000013
#0671b:00000013
#06715:000000000013000000000000000000000000000000000000
#06815:00130000
#06812:0013
#06818:13000014
#06814:000000000000000000000014
#06912:00130000
#06915:0013
#06918:00000013
#07015:000013
#07018:00000013
#0701b:13
#07012:000000000000000000000013
#07215:13
#07212:0000001300000000
#07418:000000000000000000000013
#07415:13
#07412:00130000
#07118:00000013
#07318:13
#0731b:0000001300000000
#0751b:000000000013000000000000000000000000130000000000
#07515:000013
#07812:00000013
#07815:13
#07818:000013
#0791b:130000000000000000000013
#07915:00130000
#07918:0013
#07912:00000013
#08018:001300
#08215:000000000013000000000000000000000000000000000000
#0821b:00000013
#08112:130000000000000000000013
#08118:00130000
#08115:0013
#0811b:00000013
#07612:00000013
#07615:13
#07618:000013
#0761f:11
#0771b:00000013
#07718:13
#07715:000013
#08312:0013
#08318:13
#08315:00130000
#08316:000014
#09118:00130000
#0911b:1313
#0911b:13
#09112:1313
#09112:13
#09115:00000013
#0921b:13
#09212:1314
#09218:00130000
#09216:00000014
#0961a:14
#09617:00140000
#09615:00000013
#10812:00131400
#1081a:0014
#1081b:13
#10815:13
#10818:00000000130000000000003400000000
#10814:00000000000000000000003400000000
#1131b:00000000000000001300000000000013
#11312:000000000000000000000000000000000000000000000000000000000000000013000000000000000000000000130000
#11318:13
#11315:00130000
#12118:00000013
#12115:000013
#12112:130000130000000000000013
#1211b:13130000
#12218:000013000000000000130000
#12215:000000130000000013000000
#12212:000000000000000000000013
#1221b:000000000013000000000000
#1241b:001300000000
#12415:00130000
#12412:13
#12416:000000000024000000000000
#12417:000000000000343434000000
#12318:000000000013000000000013
#12315:00130013
#1231b:001300001300
#12312:0013
#02219:000015
#02212:13
#0221b:13
#02216:000000000000000000000035
#02217:00000035
#02210:41
#02316:001500000000350000000000000000000000000000000000
#02315:00000013
#11115:13
#1111b:13
#11118:0013
#11112:0013
#11215:13000013
#1121b:13
#10915:00000013
#10912:0013
#10918:000013
#1091b:000000000000000000000013
#11016:0014
#1101a:00000014
#11012:00140000
#0971b:13
#09712:00130000
#0931b:000000000000000000000013
#09315:00000013
#09318:000013
#09312:0013
#0931a:14
#09412:00130000
#09415:00000013
#09418:0013
#01612:000000000014000000000000
#01616:000014
#0161a:000000000000000000000014
#01618:00130000
#01615:13
#02415:00130000
#0241a:000000000014000000000000
#02416:000014
#02412:000000000000000000000014
#02418:13
#02518:00000013
#0251a:000000000014000000000000
#02516:001400000000
#02512:000013
#02718:0013
#02715:13
#02612:13
#0261b:0013
#03512:00140000
#03516:0014
#0351a:00000014
#03515:13
#0351b:13
#0861a:14
#08812:14
#09818:00000013
#0981b:00130000
#09814:00000000000000000000000000000014
#09815:0013
#09812:00130000
#10712:00130013
#10715:1313
#1071b:1313
#10718:00130013
#10618:00001313
#10612:00001313
#1061b:13130000
#10615:13130000
#10512:00001313
#10518:00001313
#10515:13130000
#1051b:13130000
#0891b:13130000
#08912:00001313
#08915:13
#08918:0013
#0901b:13130000
#09015:13
#09018:0013
#09012:00001313
#01518:00003313000000000000000013000000
#0151b:1300002300000000
#01512:1300002300000000
#01515:00003313000000000000000000000000
#0641b:13
#06418:0000001300000000
#06410:41
#06612:000000000000000000000013
#0661b:13
#06618:00130000
#06512:13
#06515:0000001300000000
#0571b:00130000
#05718:00000013
#05715:0013
#04818:00130013
#0481b:2313
#04812:00130013
#04815:2313
#04810:41
#03612:1313
#03618:00130013
#03715:1313
#0371b:00130013
#03812:13
#03818:00130000
#03815:0013
#0381b:00000013
#0321b:1313
#03215:00130013
#03210:41
#03318:1313
#03312:00130013
#0341b:13
#03415:00130000
#03418:0013
#03412:00000013
#04418:1313
#04415:00130013
#0451b:1313
#04512:00130013
#00412:1313
#0041b:00130000
#00415:000000000000000000000013
#00418:000013
#00518:001300130000
#0051b:00000013
#00515:000000000013000000000000
#05018:1313
#0501b:00130013
#05012:1313
#05015:00130013
#08517:00130013
#0851b:2313
#08512:00130013
#08516:2313
#0851f:21
#08716:00130013
#08712:1313
#0871b:00130013
#08717:1313
#08710:41
#10117:00140014
#1011a:2414
#10112:00140014
#10115:2414
#10315:00140014
#10312:1414
#1031a:00140014
#10317:0014
#10318:14
#08415:13130000
#08418:00001313
#05812:13
#0581b:0013
#0951b:13
#09512:0013
#0991a:00000000140000140000000000000000
#09912:00000000000000000000000014000014
#10018:00000000140000140000000000000000
#04018:13
#04012:13
#04015:0013
#0401b:0013
#04118:0013
#04112:0013
#04215:13
#0421b:13
#04218:0013
#04212:0013
#0431b:0013
#04315:0013
#1021a:14
#10214:14
#10412:14
#10418:14
#0461a:14
#04616:00000000000000000000001400000000
#11614:23
#11612:0023
#11619:23
#1161b:0023
#1171a:24
#11712:24
#0471a:000000000024000000000000
#00652:000000000000000000000013
#0065b:000000000000000000000013
#0115b:63
#01158:000000000013000000000000
#0295b:000000000000000000000013
#02952:000000000000000000000013
#02958:53
#05952:64
#05955:00240000
#02855:63
#0635b:63
#07052:000000000000000000000063
#07255:53
#07252:0000002300000000
#07458:000000000000000000000053
#07455:53
#07452:00230000
#07358:63
#0735b:0000002300000000
#0795b:000000000000000000000053
#08058:002300
#08255:000000000023000000000000000000000000000000000000
#08152:000000000000000000000053
#07758:53
#0775b:000000000013000000000000
#07855:63
#07852:000000000013000000000000
#07655:63
#07652:000000000013000000000000
#08356:000014
#0965a:54
#09657:00240000
#10852:0054
#1085a:0064
#10954:14
#10958:14
#1135b:00000000000000000000000000000053
#11352:00000000000000000000000000000063
#02259:000065
#02356:002500000000000000000000000000000000000000000000
#11155:63
#1115b:63
#11158:0053
#11152:0053
#11255:63
#1125b:63
#11252:0013
#11258:0013
#03155:000013
#02758:0053
#02755:63
#02652:53
#0265b:0063
#04957:000000000014000000000000
#05155:000000000014000000000000
#08657:000000000014000000000000
#0865a:64
#08855:000000000014000000000000
#08852:54
#0155b:6300004300000000
#01558:00000023000000000000000000000000
#01552:5300003300000000
#01555:00000023000000000000000000000000
#0645b:63
#06458:0000002300000000
#06652:000000000000000000000063
#0665b:63
#06658:00230000
#06552:53
#06555:0000002300000000
#0755b:000000000023000000000000000000000000000000000000
#1175a:64
#11752:54
#06755:000000000023000000000000000000000000000000000000
#05852:63
#0585b:0053
#0955b:53
#09552:0063
#09854:00000000000000000000000000000014
#0995a:00000000000000140000000000000000
#09952:00000000000000000000000000000014
#10058:00000000000000140000000000000000
#0405b:0023
#04055:0023
#04058:53
#04052:53
#04255:63
#0425b:63
#04258:0023
#04252:0023
#1025a:64
#10258:00000000000000140000000000000000
#10254:64
#10252:00000000000000140000000000000000
#10452:54
#10458:54
#10454:00000000000000140000000000000000
#1045a:00000000000000140000000000000000
#0475a:000000000044000000000000
#0465a:64
#04656:00000000000000000000002400000000
#1245a:00000014
#0113b0:13
#011380:000000330023000000000000
#0153b0:1300002300000000
#015380:00003353000000000000000000000000
#015321:1300002300000000
#015351:00003353000000000000000000000000
#0183b1:13
#018381:00230000
#018321:0013
#018351:00000023
#019381:13
#0193b1:00230000
#019351:0013
#019321:00000023
#020381:13
#0203b1:0023
#021351:13
#021321:0023
#022391:000015
#022371:00000035
#022361:000000000000000000000035
#023361:005500000000350000000000000000000000000000000000
#023391:000000000025000000000000
#026321:13
#026351:00230000
#0263b1:0013
#026381:00000023
#027351:13
#027321:00230000
#027381:0013
#0273b1:00000023
#028351:13
#028321:0023
#029381:13
#0293b1:0023
#031351:130023
#040321:13
#040351:0053
#041321:23
#040380:13
#0403b0:0053
#041380:23
#0423b0:13
#042380:0053
#0433b0:23
#042351:13
#042321:0053
#043351:23
#0463a1:14
#046361:00000000000000000000005400000000
#0473a1:000000000024000000000000
#0493a1:14
#049371:000000540024000000000000
#051321:14
#051351:000000540024000000000000
#058321:13
#058351:00230000
#0583b1:0013
#058381:00000023
#059321:1424
#059351:00340000
#060351:0013
#060321:000000000000000033000023
#0633b1:13
#063381:000000530023000000000000
#0643b1:13000023
#064381:0000005300000000
#065321:13000023
#065351:0000005300000000
#0663b1:1323
#066381:00530000
#066321:000000000000000000000013
#067351:000000000053000000000000000000000000000000000000
#067321:0023
#070321:000000000000000000000013
#071351:0023
#072351:13000023
#072321:0000005300000000
#073381:13000023
#0733b1:0000005300000000
#074351:1323
#074321:00530000
#074381:000000000000000000000013
#0753b1:000000000053000000000000000000000000000000000000
#075381:0023
#076351:13
#076321:000000330023000000000000
#077381:13
#0773b1:000000330023000000000000
#078351:13
#078321:000000330023000000000000
#0793b1:000000000000000000000013
#080381:005300
#0803b1:00000023
#081321:000000000000000000000013
#082351:000000000053000000000000000000000000000000000000
#082321:0023
#0863a1:14
#086371:000000540024000000000000
#088321:14
#088351:000000540024000000000000
#0953b1:13
#095381:00230000
#095321:0013
#095351:00000023
#0963a1:1424
#096371:00340000
#097381:0013
#0973b1:000000000000000033000023
#1023a1:14
#102381:00000000540000240000000000000000
#102340:14
#102320:00000000540000240000000000000000
#104320:14
#104340:00000000540000240000000000000000
#104381:14
#1043a1:00000000540000240000000000000000
#108321:0014
#108341:00000000000000000000003400003400
#109341:24
#1083a0:0014
#108380:00000000000000000000003400003400
#109380:24
#111350:13
#111320:00230000
#1113b1:13
#111381:00230000
#111381:0013
#1113b1:00000023
#111320:0013
#111350:00000023
#112350:13
#112320:0023
#1123b1:13
#112381:0023
#1133b1:00000000000000000000000000000013
#115381:0023
#113320:00000000000000000000000000000013
#115350:0023
#1173a0:14
#120380:000023
#117321:14
#120351:000023
#124361:000000000014000000000000
#124371:000000000000343434000000
#1243a1:00000024
