This file was generated by Ched 2.6.3.0.
#TITLE ""
#ARTIST ""
#DESIGNER ""
#DIFFICULTY 0
#PLAYLEVEL
#SONGID ""
#WAVE ""
#WAVEOFFSET 0
#JACKET ""
#REQUEST "ticks_per_beat 480"
#00002: 4
#BPM01: 215
#00008: 01
#TIL00: ""
#HISPEED 00
#MEASUREHS 00
#0001b:13
#00018:00130000
#0001a:0013
#00019:000000000000000000000013
#00017:000013
#00016:13
#00116:001300000000
#0011b:000000000013130000000000
#00118:00000013
#00212:130000000000000000000013
#00215:00130000
#00213:0013
#00216:000013
#00217:13
#00315:001300001300
#00312:000000000013000000130000
#00318:00130013
#0031b:000013000013000000000000
#00718:000014
#00714:00000014
#00817:130000000000000013130013
#0081b:000000130013000000000000
#00812:130000000000000000130013
#00816:000013130013000000000000
#00810:41
#0101b:131300000000
#01016:000000140014000000140000
#01012:000000131300
#0091b:000000130013000000000000
#00916:000013130013000000140014
#00912:000013
#0111b:13
#01115:13
#01116:00000014
#01113:000013
#0111a:000000000000000000000013
#01112:0013000000000000
#01118:000000000013000000000000000000000000000000000000
#01515:13
#01513:0013000000000000
#01517:000000000000000000000013
#01516:00000013
#0151b:000013
#0151a:0013000000000000
#01519:0000002500000000
#01512:0000002500000000
#01415:1313
#01412:0013000000130000
#01418:00130013
#0141b:0000001300000013
#01612:130000130000000013000000
#0161b:000000000013000000000013
#01616:000000000014000014000014
#01617:00130000
#01712:000013000000000000130000
#0171b:000000000013000000000000
#01716:000014000014000000000000
#01717:000013
#0561b:0013
#05618:000013
#05615:00000013
#05617:000000000000000000000013
#05612:000000000000000000000013
#05616:0013
#05712:001300001300
#0571b:0013
#05717:00130013
#05716:000000000013000000000000
#05817:13
#05812:13
#05816:0013
#05815:0013000000000000
#0581b:0013
#05818:0000000000130000
#0601b:1313
#06012:000000130000000013000000
#06116:00140014
#06112:000000000000130000000016
#0611b:0013
#06317:00000013
#06313:00000013
#0631b:13
#06316:13
#06417:13
#06413:00000013
#0641b:0013
#06412:13
#06410:41
#06612:0013
#06616:000000000000000000000013000000000000000000001300
#0661b:13
#0671a:00000013
#06712:000000000000000000000013000000000000000000000000
#0681b:13
#06814:00130013
#06812:000000000000130000000013
#06817:0013
#06919:00130013
#0691b:0013
#06916:000000000000000000000013000000000000000000000000
#0701b:13
#07014:000013
#07013:00000013
#07012:000000000000000000000013
#07017:000000000000000000000013000000000000000000000000
#0841b:130000000000000000000013000000000000000000000000
#08416:001400000000140000000000140000000000140000000000
#08412:000000000013000000000000000000000013000000000000
#05916:00130013
#0591b:00130000
#05912:13000013
#05917:13
#12117:13
#12112:13130000
#1211b:000000000000000013000013
#12113:00000013
#12116:000000000000000000000013
#12212:000013000013000000000014
#1221a:000000130000000000000014
#1221b:000013
#12213:00000013
#12217:000000000013000000000000
#12316:000013000000130000000013
#1231b:001300000000
#12318:001313
#12312:0012
#12314:000000000012000000000000
#1231a:000000000000000000000012
#12315:00000012
#0201b:130013
#02014:00130000
#02017:00130000
#02012:001300130000
#02019:00000013
#02016:00000013
#06512:13
#06519:00000013
#06517:0013
#0711b:00000013
#07116:001300
#07217:13000013
#0721b:13000013
#07416:13
#07412:000000000000000000000013
#0741b:13
#07417:000000000000000000000013
#07519:000000000000000013130000
#07514:000000000000000013130000
#07915:13
#07912:000000000000000000130013
#0791b:000000000000000000000013
#08117:00000013
#08112:000000000018130018000014
#08116:131800000000
#0811b:00130000
#0811a:000000000000000000000014
#08016:000000000000000000000018
#08015:001300
#08018:001300
#08319:000013
#08314:000013
#0831b:000000000013000000000000
#08316:000013180000180000000000
#08312:18
#08214:000000000014000000000000000000000000000000000000
#08218:000000000014000000000000000000000000000000000000
#08212:000000000000000013180000
#08217:000000000000000000000013
#02215:000013
#02218:00000013
#0221b:130000000000000000000013
#02216:000000000000000000000013
#02210:41
#08612:130000000013000000000000
#08617:000000000013000000000000
#0861a:000014
#0861b:00130000
#08616:000013000000000014240000
#08517:00000013
#08516:00130000
#08512:13
#0851b:2313
#0851f:21
#08815:000000000013000000000000
#08812:000000130000000014000000
#08817:001300000000
#0881b:130000000013000000000000
#08816:000000000000000014240000
#09819:00130000
#0981b:0013
#09814:00130000
#09812:0013
#09816:00000014
#09818:000000000000000000000013
#09815:000000000000000000000013
#09918:000013000013000000000013
#09912:001300000000130000000000000000000000000000000000
#09915:000000000013000013000013
#0991b:000000000000000000000000001300000000130000000000
#10816:130000140014
#10812:00000013000000001c000000
#1081b:13
#10912:1c13
#1091b:000000000000000013130000
#10917:000000000000130000130013
#11118:1300000000130000
#11112:1300000000130000
#11115:0013000013000000
#1111b:0013000013000000
#11216:00130013
#11217:13
#11212:13000013
#1121b:00130000
#11318:000000000000000000000013
#11315:000000000000000000000013
#11312:0013
#11317:13
#11316:00130000
#11314:000013
#11319:000013
#11012:130013130000000000000000
#1101b:000000000000130013130000
#11017:13000013
#11016:000000130013130000000000
#0321b:130000000000000013130000
#03216:13
#03212:0000001300000000
#03218:0013
#03210:41
#03919:00000013
#03914:00000013
#0391b:13130000
#03916:00130000
#04018:00120000
#04016:12
#04012:00120000
#0401c:12
#04019:00000013
#04014:00000013
#04316:00130000
#04317:13
#0431b:00130000
#04312:13
#04319:00000013
#04314:00000013
#04714:00000013
#04719:000013
#04712:000013000026000000000000
#0471b:001300000000
#04718:000013000000001300002600000000000000000000000000
#04715:130000000000001300000000000000000000000000000000
#03512:13130000
#03517:00130000
#03519:00000013
#03514:00000013
#04412:13
#04415:000013130000000000000000
#04417:13
#0441b:0013
#04418:000000000000000013130000
#04416:0013
#10517:13000013
#10512:13
#10516:00131300
#1051b:0013
#05516:13001313
#0551b:13000013
#05512:00130000
#09217:13001313
#09212:13000013
#0921b:00130000
#10116:13
#10112:00131300
#10117:0013
#1011b:23000013
#12419:000000001200000000000000003333330000000000000000
#12416:00130000
#12417:130000000000000000000033000000000000230000000000
#1241c:12
#12412:000000000013000000000000
#12415:000012
#1241b:00000023
#12418:0033
#1241a:000000000000000000000000000000003333000000000000
#00412:13
#00415:00130000
#00413:0013
#00414:000000000000000000000013
#00416:000013
#00417:13
#00517:001300000000
#00512:000000000013130000000000
#00515:00000013
#0061b:130000000000000000000013
#00618:00130000
#0061a:0013
#00617:000013
#00616:13
#01216:140013000014000000000014
#0121b:000013130000000000000013
#01212:000000000013000013130000
#01217:000013
#0131b:000013130000000000000013
#01316:000013000014000000000014
#01312:000000000013000013130000
#01317:000013
#03016:0013
#03012:000000130000000000130013
#0301b:000000131300
#03017:000000130000000000000013
#04217:00130000
#04216:13
#04212:00130000
#0421b:13
#04214:00000013
#04219:00000013
#04114:00000013
#04119:00000013
#04116:00120000
#04118:12
#0411c:00120000
#04112:12
#04917:001300000000
#0491b:000000000013000000000000
#04912:000000130000000014140000
#04916:000014
#04915:000000000013000000000000
#04918:13
#0481b:000000130000000013130000
#04812:000013130000000000130000
#04815:2313
#04818:13
#04810:41
#05116:001300001400
#05112:000000000013000000000000
#0511b:00130000
#0511a:000000000000000014140000
#05118:000000000013000000000000
#05115:13
#05012:000000130000000013130000
#0501b:000013130000000000130000
#05018:1313
#05015:13
#07316:13000013
#07312:13000013
#07618:00000013
#0761b:000000000013000000000000
#07615:000013
#07612:00000013
#0761f:11
#07715:00000013
#07718:000013
#0771b:00000013
#07712:000000000013000000000000
#07818:000000000000000000130013
#07815:000013
#07812:00000013
#0781b:000000000013000000000000
#11412:000000000000000000000000000000000013000000000000
#1141b:000000000000000000000000000000000013000000000000
#11719:0000130013130000
#1171a:0000000000000013
#11712:24
#1181a:0013000000000000
#1181b:000000000000000000130000000000001300130000000000
#1191b:13130000
#1191a:0000000013130000
#11919:0000000000000013
#11916:24
#12019:0013001300000000
#12018:000013
#0521b:13
#05216:13130000
#05212:0013
#05217:00001313
#08916:00131300
#08917:13000013
#08912:13
#0891b:0013
#01812:00130013
#01815:1300001300000013
#0211b:130013
#02114:00130000
#02117:00130000
#02112:001300130000
#02119:00000013
#02116:00000013
#02312:000013000000000000130000
#02317:001300000000000000130000
#02415:00130000
#0241a:000000130000000014000000
#02416:130000000014000014000014
#0241b:13
#02412:000000000014000000000014
#0251a:001400000000
#02512:000000000014000000000000
#02516:000014000014000013000000
#0251b:00000013
#02517:000000000000000000000013
#02912:130000000000000013000013
#02919:00130000
#02916:00130000
#0291b:001300130000
#02917:00000000000000000000001300000000
#02914:00000013
#02819:00130000
#02812:130013
#02816:00130000
#02814:00000013
#0281b:001300130000
#02817:00000013
#0261b:0000000000000013
#02618:00000013
#0261a:0000001300000000
#02617:00130000
#03112:13
#03116:001300
#0311b:001300
#03312:130000000000000013130000
#03317:13
#0331b:0000001300000000
#03315:0013
#0341b:130000000000000013130000
#03416:13
#03412:0000001300000000
#03418:0013
#03612:130013
#03617:13
#0361b:0000001300000000
#03615:0013
#03614:00000013
#04512:13130000
#04515:001300000000
#04517:13
#0451b:000000000000130000130013
#04518:000013
#04516:0013
#04615:13
#0461b:001300000013001300000000
#04612:001313001313
#04618:00130000
#04616:0013
#04617:00000013
#0461a:000000000000000000000013
#0531b:13
#05316:13130000
#05312:0013
#05317:00001313
#0541b:13000013
#05416:13
#05412:00131300
#05417:0013
#06216:000016160000000000000013
#06214:000000000016160000000000
#06218:000000000000000016160000
#06212:16
#08716:00000013
#08717:00130000
#0871b:13
#08712:1313
#08710:41
#09016:00131300
#09017:13000013
#09012:13
#0901b:0013
#0911b:00131300
#09117:13
#09112:13000013
#09116:0013
#09312:0013
#09315:000013
#09318:00000013
#09316:000000000000000000000013
#0931b:000000000000000000000013
#09317:0013
#0941b:001300001300
#09412:0013
#09416:00130013
#09417:000000000013000000000000
#09516:13
#0951b:13
#09517:0013
#09518:0013000000000000
#09512:0013
#09515:0000000000130000
#09712:1313
#0971b:000000130000000013000000
#09617:00130013
#09612:00130000
#0961b:13000013
#09616:13
#1001b:000000001300000000000000001300000000130000000000
#10012:001300000000130000000000000000001300000000000000
#10015:000000000013000000000000
#10018:000000000013000000000000
#10417:130000000013000000000000
#10412:130000000013000028000000
#1041b:00130000
#10416:00000028
#10216:130000000013000028000000
#10212:00130028
#1021b:130000000013000000000000
#10317:13
#1031b:00131300
#10312:13000013
#10316:0013
#1061b:13000013
#10616:13
#10612:00131300
#10617:0013
#10717:13000013
#10712:13
#10716:00131300
#1071b:0013
#02713:0000000000130000
#02712:0013000000000000
#02716:0013
#02715:13
#0371b:130013
#03716:13
#03712:0000001300000000
#03718:0013
#03719:00000013
#03812:130013
#03817:13
#0381b:0000001300000000
#03815:0013
#03814:00000013
#0191b:1313
#01918:0013000000130000
#11614:23
#11619:230000000000000000000000000000000000003333330000
#11612:0023
#11617:000000000000000000000000003333330000000000000000
#11618:000000000000000000000000000000003333330000000000
#1161a:000000000000000000000000000000000000000000003333
#05857:63
#05852:63
#05856:0053
#05855:0023000000000000
#0585b:0053
#05858:0000000000230000
#01155:63430000
#0115b:630000000043000000000000
#01152:0023000000000000
#01158:000000000023000000000000000000000000000000000000
#01455:6363
#01452:0023000000230000
#01458:00530053
#0145b:0000002300000023
#01559:0000004500000000
#01552:0000003500000000
#05952:63003363
#0595b:00230000
#05956:00230000
#05957:6333
#12152:00630000
#12157:53
#1215b:000000130000000000000053
#12156:000000000000000000000013
#11752:54
#0205b:53
#02057:00230000
#02052:0053
#02056:00000023
#06457:63
#0645b:0063
#06552:53
#06557:0063
#0665b:63
#06656:000000000000000000000063000000000000000000006300
#06852:000000000000000000000063
#0685b:63
#06857:0023
#0705b:63
#07052:000000000000000000000063
#07057:000000000000000000000023000000000000000000000000
#07257:63
#0725b:23
#07452:000000000000000000000063
#0745b:63
#07456:23
#07457:000000000000000000000023
#07952:000000000000000000000063
#0795b:000000000000000000000053
#08055:002300
#08058:002300
#08254:000000000024000000000000000000000000000000000000
#08258:000000000024000000000000000000000000000000000000
#08152:000000000000000000000054
#0815a:000000000000000000000064
#0865a:000014
#08656:00000014
#08557:00000023
#08556:00230000
#08552:53
#0855b:0053
#08852:000014
#08856:00000014
#06052:000000630000000063000000
#0605b:6363
#06352:0000001300000000
#06357:0000001300000000
#06356:63
#0635b:63
#11358:000000000000000000000053
#11355:000000000000000000000053
#11356:00630000
#11357:63
#11158:6300000000230000
#11152:6300000000230000
#11155:0023000053000000
#1115b:0023000053000000
#11257:6333
#11252:6333
#1125b:00230000
#11256:00230063
#04058:00220000
#04056:52
#04052:00220000
#0405c:52
#04356:00230000
#04357:63
#0435b:00230000
#04352:63
#04752:000053000036000000000000
#0475b:006300000000
#04758:000000000000002300004600000000000000000000000000
#04755:000000000000002300000000000000000000000000000000
#10952:1c
#05652:33
#05657:330000000000000000000053
#09356:430000000000000000000063
#0935b:43
#10552:63000033
#1055b:00435300
#00056:63
#00257:63
#00457:53
#00656:53
#00652:000000000000000000000013
#0065b:000000000000000000000013
#02256:000000000000000000000063
#0225b:000000000000000000000063
#03256:63
#03252:0000006300000000
#04257:00230000
#04256:53
#04252:00230000
#0425b:53
#04855:0063
#04858:63
#0485b:00230000
#04852:00000023
#04952:00000014
#04956:000014
#05058:0053
#05055:53
#05052:00230000
#0505b:00000023
#0515a:00000014
#05156:000014
#05556:00000023
#0555b:00000023
#05552:00430000
#06752:000000000000000000000063000000000000000000000000
#06956:000000000000000000000023000000000000000000000000
#07156:002300
#07356:53
#07352:23
#09252:00000023
#09257:00000023
#0925b:00330000
#09256:00330000
#11452:000000000000000000000000000000000023000000000000
#1145b:000000000000000000000000000000000023000000000000
#11956:54
#12252:000000000053000000000000
#12257:000000000013000000000000
#1185b:00000013
#01656:000000000034000044000034
#01756:000044000034000000000000
#01855:0000002300000023
#01852:00630063
#0215b:63
#02157:00230000
#02152:0053
#02156:00000023
#02356:000000000043000000000000
#0235b:00430000
#02352:002300000000
#02357:002300000000000000000000
#02456:000000000044000034000044
#02556:000034000044000000000000
#02952:230000000000000000000033
#02956:00630000
#0295b:000000000000230000000043
#02957:00000000000000000000005300000000
#02852:23
#02856:00630000
#0285b:0023
#02857:00000053
#0265b:0000000000000023
#02658:00000063
#0265a:0000002300000000
#02657:00630000
#03057:000000000000000000000053
#03152:530033
#03157:000033
#03156:002300
#0315b:002300
#03357:53
#0335b:0000005300000000
#03456:63
#03452:0000006300000000
#03552:00230000
#03557:00230000
#03956:00230000
#0395b:00230000
#03657:53
#0365b:0000005300000000
#04156:00220000
#04158:62
#0415c:00220000
#04152:62
#04457:53
#0445b:00330000
#04456:0063
#04452:00000043
#04557:53
#0455b:00330000
#04556:0063
#04552:00000043
#05256:00430000
#05257:00000033
#05356:00430000
#05357:00000033
#05452:00430000
#0545b:00000033
#07652:000000000043000000000000
#0765b:000000000043000000000000
#07752:000000000033000000000000
#0775b:000000000033000000000000
#0785b:000000000043000000000000
#07852:000000000043000000000000
#08359:000043
#08354:000033
#08756:00000023
#08757:00230000
#0875b:63
#08752:0063
#08956:00330000
#0895b:00330000
#08957:00000043
#08952:00000043
#09056:00330000
#0905b:00330000
#09057:00000043
#09052:00000043
#0915b:00330000
#09156:00330000
#09152:00000043
#09157:00000043
#09556:53
#0955b:53000013
#09557:0063
#09558:0023000000000000
#09552:00136300
#09555:0000000000230000
#09752:5353
#0975b:000000530000000053000000
#09657:00230000
#09652:00230000
#0965b:53004353
#09656:5343
#09858:000000000000000000000043
#09855:000000000000000000000063
#10256:630048
#10252:00000038
#10257:00430000
#09952:002300000000000000000000000000000000000000000000
#09955:000000000033000000000063
#09958:000000000053000000000043
#0995b:000000000000000000000000002300000000000000000000
#10052:002300000000000000000000000000000000000000000000
#10055:000000000033000000000000
#10058:000000000053000000000000
#1005b:000000000000000000000000002300000000000000000000
#10156:63000033
#10157:00435300
#12052:000034
#12352:0032
#12356:0043
#12457:33000033
#1245c:42
#12452:000000000033000000000000
#1245b:00000043
#10357:53000043
#10356:00336300
#10457:53
#10456:00330048
#10452:000038
#10656:63000033
#10657:00435300
#10752:63000033
#1075b:00435300
#10856:63
#10857:00430000
#02753:0000000000230000
#02752:0023000000000000
#02756:0053
#02755:53
#03756:63
#03752:0000006300000000
#03857:53
#0385b:0000005300000000
#08456:003400000000440000000000340000000000440000000000
#0195b:5353
#01958:0023000000230000
#000360:13
#001320:00000023
#002370:13
#0023b0:000000000000000000000023
#004370:13
#0053b0:00000023
#006360:13
#006320:000000000000000000000023
#011350:13230000
#011320:0053000000000000
#0113b1:130000000023000000000000
#011381:000000000053000000000000000000000000000000000000
#014351:13230000
#014321:0053000000000000
#014380:00132300
#0143b0:0000005300000000
#014351:00001323
#014321:0000000000530000
#014380:00000013
#0143b0:0000000000000053
#015380:23
#018380:13230000
#0183b0:0053000000000000
#018321:00132300
#018351:0000005300000000
#018380:00001323
#0183b0:0000000000530000
#018321:00000013
#018351:0000000000000053
#019321:23
#0193b0:13230000
#019380:0053000000000000
#019351:00132300
#019321:0000005300000000
#0193b0:00001323
#019380:0000000000530000
#019351:00000013
#019321:0000000000000053
#020351:23
#0203b0:1323
#020370:00530000
#020321:0013
#020361:00000053
#021321:23
#0213b0:1323
#021370:00530000
#021321:0013
#021361:00000053
#022321:23
#0223b1:000000000000000000000013
#023371:005300000000000000000000
#0233b1:00230000
#022360:000000000000000000000013
#023320:005300000000
#023360:000000000023000000000000
#026320:13230000
#026350:0053000000000000
#026371:00132300
#0263a1:0000005300000000
#026330:00001323
#026360:0000000000530000
#026381:00000013
#0263b1:0000000000000053
#027381:23
#027350:13230000
#027320:0053000000000000
#0273a1:00132300
#027371:0000005300000000
#027360:00001323
#027330:0000000000530000
#0273b1:00000013
#027381:0000000000000053
#0283b1:23
#028320:1323
#028360:00530000
#0283b1:0013
#028371:00000053
#0293b1:23
#029320:1323
#029360:00530000
#0293b1:000000000000130000000023
#029371:00000000000000000000005300000000
#030371:000000000000000000000013
#0313b1:005300
#031371:000023
#031320:130023
#031360:005300
#032360:13000023
#032320:0000005300000000
#032381:000013230000000000000000
#033370:13000023
#0333b0:0000005300000000
#033351:000013230000000000000000
#034360:13000023
#034320:0000005300000000
#034381:000013230000000000000000
#035370:13330000
#0353b0:0023
#035321:00130000
#035361:0023
#036371:13000023
#0363b1:0000005300000000
#036350:000013230000000000000000
#037361:13000023
#037321:0000005300000000
#037380:000013230000000000000000
#038371:13000023
#0383b1:0000005300000000
#038350:000013230000000000000000
#039361:13330000
#039321:0023
#0393b0:00130000
#039370:0023
#040360:1222
#040320:00520000
#0403c1:1222
#040381:00520000
#041381:1222
#0413c1:00520000
#041320:1222
#041360:00520000
#042360:1323
#042320:00530000
#0423b1:1323
#042371:00530000
#043371:1323
#0433b1:00530000
#043320:1323
#043360:00530000
#044370:13
#0443b0:000053230000000000000000
#044360:0013
#044320:000000000000000053230000
#045370:13
#0453b0:000053230000000000000000
#045360:0013
#045320:000000000000000053230000
#047320:000013000026000000000000
#047350:000000000000005300000000000000000000000000000000
#0473b1:001300000000
#047381:000000000000005300002600000000000000000000000000
#048381:1323
#0483b1:00530000
#048350:0013
#048320:00000053
#049350:23
#050350:1323
#050320:00530000
#050381:0013
#0503b1:00000053
#051381:23
#052321:000013230000000000000000
#0523b1:000000000000000013230000
#053321:000013230000000000000000
#0533b1:000000000000000013230000
#054371:000013230000000000000000
#054361:000000000000000013230000
#055371:000013230000000000000000
#0553b1:00001353
#056371:23
#055360:00000013
#056320:23
#056370:000000000000000000000013
#0573b0:002300000000
#058370:13
#0583b0:00230000
#058321:13230000
#058351:0053000000000000
#058361:0013
#058321:00000023
#0583b0:00001323
#058380:0000000000530000
#059370:1323
#0593b0:00330000
#059321:1323
#059361:00330000
#059321:00000013
#060361:23
#0603b0:13
#060370:00230000
#060321:00130000
#060361:0023
#0603b0:0013
#060380:000000000000000000000000000000530000000000002300
#060321:000013
#060351:000000000000000000000000000000000000005300002300
#0633b1:13
#063371:0053002300000000
#063360:13
#063320:0053002300000000
#064370:13
#0643b0:0053
#065370:23
#065321:13
#065371:0053
#066321:23
#0663b0:130000000000000000000023
#066360:000000000000000000000053000000000000000000000000
#066361:000000000000000000000013
#067321:000000000000000000000053000000000000000000000000
#068361:23
#0683b0:130000000000000000000023
#068370:0053
#068321:000000000000000000000013
#069361:000000000000000000000053000000000000000000000000
#070321:23
#0703b0:130000000000000000000023
#070370:000000000000000000000053000000000000000000000000
#070321:000000000000000000000013
#071361:005300
#071321:00000023
#0723b1:13
#072361:0023
#072370:13
#072320:0023
#073320:13
#073370:0023
#073361:13
#0733b1:0023
#0743b1:13
#074371:0023
#074360:13
#074320:0023
#074320:000000000000000000000013
#075360:0023
#074371:000000000000000000000013
#0753b1:0023
#0763b1:13
#076371:0053230000000000
#076360:13
#076320:000000530000000000002300000000000000000000000000
#077320:13
#077360:0053230000000000
#077371:13
#0773b1:000000530000000000002300000000000000000000000000
#0783b1:13
#078371:0053230000000000
#078360:13
#078320:000000530000000000002300000000000000000000000000
#0793b0:13
#079360:00230000
#079321:00130000
#079371:0023
#0793b0:0013
#079360:00000023
#079320:000000000000000000000013
#080350:005300
#080320:00000023
#0793b1:000000000000000000000013
#080381:005300
#0803b1:00000023
#081321:000000000000000000000014
#082341:000000000054000000000000000000000000000000000000
#082321:0024
#0813a0:000000000000000000000014
#082380:000000000054000000000000000000000000000000000000
#0823a0:0024
#085320:1323
#085360:00530000
#085391:000013230000000000000000
#0853b1:0013
#085371:00000053
#0863b1:23
#085340:000000000000000013230000
#0873b1:1323
#087371:00530000
#087340:000013230000000000000000
#087320:0013
#087360:00000053
#088320:23
#087391:000000000000000013230000
#0893b0:000013230000000000000000
#089320:000000000000000013230000
#0903b0:000013230000000000000000
#090320:000000000000000013230000
#091360:000013230000000000000000
#091370:000000000000000013230000
#092360:000013230000000000000000
#092320:00001353
#093360:23
#092371:00000013
#0933b1:23
#093361:000000000000000000000013
#094321:002300000000
#095361:13
#095321:00230000
#0953b0:13230000
#095380:0053000000000000
#095370:0013
#0953b0:00000023
#095321:00001323
#095351:0000000000530000
#096361:1323
#096321:00330000
#0963b0:1323
#096370:00330000
#0963b0:00000013
#097370:23
#097321:13
#097361:00230000
#0973b0:00130000
#097370:0023
#097321:0013
#097351:000000000000000000000000000000530000000000002300
#0973b0:000013
#097380:000000000000000000000000000000000000005300002300
#098350:000000000000000000000013
#099320:005300000000000000000000000000000000000000000000
#099350:002300000000
#099380:000000000013000023000000
#0993b0:000000000000000000000000005300000000000000000000
#099350:000000000000000000000013
#100320:005300000000000000000000000000000000000000000000
#100350:002300000000
#100380:000000000013000023000000
#1003b0:000000000000000000000000005300000000000000000000
#101360:13
#101320:002300000000
#101371:000013230000000000000000
#101371:0013
#1013b1:000023
#101360:000000000000000013230000
#102360:13
#102320:002300000000
#102371:000013230000000000000000
#103371:13
#1033b1:002300000000
#103360:000013230000000000000000
#103360:0013
#103320:000023
#103371:000000000000000013230000
#104371:13
#1043b1:002300000000
#104360:000013230000000000000000
#105320:13
#105360:002300000000
#1053b1:000013230000000000000000
#1053b1:0013
#105371:000023
#105320:000000000000000013230000
#106360:13
#106320:002300000000
#106371:000013230000000000000000
#106371:0013
#1063b1:000023
#106360:000000000000000013230000
#107320:13
#107360:002300000000
#1073b1:000013230000000000000000
#1073b1:0013
#107371:000023
#107320:000000000000000013230000
#108360:13
#108320:002300000000
#108371:000013230000000000000000
#111381:13230000
#1113b1:0053000000000000
#111320:13230000
#111350:0053000000000000
#111350:00001323
#111320:0000000000530000
#1113b1:00001323
#111381:0000000000530000
#112371:1323
#1123b1:00330000
#112320:1323
#112360:00330000
#112360:00000013
#1133b0:23
#113371:13
#113321:00230000
#113360:00130000
#1133b0:0023
#113350:000000000000000000000013
#114320:000000000000000000000000000000000053000000000000
#115350:0023
#113381:000000000000000000000013
#1143b1:000000000000000000000000000000000053000000000000
#115381:0023
#116361:0013
#116371:000000000000000000000000003333330000000000000000
#116381:000000000000000000000000000000003333330000000000
#116391:000000000000000000000000000000000000003333330000
#1163a1:000000000000000000000000000000000000000000003333
#1173b1:23
#117320:14
#119360:34
#120320:000024
#121370:13
#1213b0:00230000
#121321:00130000
#121371:000023
#1213b1:000000000000000000000013
#122371:002300000000
#122321:000000000013000000000000
#122361:000023
#124361:000000000013000000000000
#124371:000000000000000000000033000000000000000000000000
#124381:0033
#124391:000000000000000000000000003333330000000000000000
#1243a1:000000000000000000000000000000003333000000000000
#1243b1:00000023
