This file was generated by Ched 2.6.2.0.
#TITLE ""
#ARTIST ""
#DESIGNER ""
#DIFFICULTY 0
#PLAYLEVEL
#SONGID ""
#WAVE ""
#WAVEOFFSET 0
#JACKET ""
#REQUEST "ticks_per_beat 480"
#00002: 4
#BPM01: 215
#00008: 01
#TIL00: ""
#HISPEED 00
#MEASUREHS 00
#0001a:14141400
#00112:14141400
#00218:14141400
#00314:14141400
#00814:0014
#0081a:24
#00810:41
#01012:14
#01018:0014
#01112:1414
#01118:00140000
#01314:1414
#01318:00140000
#0091a:1414
#00914:00140000
#01714:1414
#01718:00140000
#01614:00140000
#01618:1414
#01814:00140000
#0181a:1414
#01912:1414
#01918:00140000
#03214:14000014
#03218:0014
#03210:41
#03418:14000014
#03414:0014
#0381a:00140014
#03814:1414
#0441a:1414
#04412:00140014
#04518:1414
#04514:00140014
#0481a:00000014
#04818:00140000
#04814:0014
#04812:24
#04810:41
#05014:00140000
#05018:0014
#0501a:14
#05012:00000014
#05212:00140014
#05218:0014
#05318:14
#05314:00140014
#0531a:0014
#0541a:14
#05414:00140000
#05418:0014
#05518:0014
#05514:00000014
#05618:14
#05612:0014
#0561a:00000014
#05812:16
#05814:0016
#0571a:00140014
#05712:1414
#1011a:24140000
#10112:00001414
#10114:24140000
#10118:00001414
#10318:14140000
#10314:00001414
#10312:14140000
#1031a:00001414
#10512:00141400
#10518:00000014
#10618:14
#10614:00141400
#1061a:00000014
#1071a:14
#10714:00140000
#10718:0014
#10818:0014
#10814:00000014
#1091a:14
#10914:0014
#10918:00000014
#1101a:00140000
#11014:0014
#11018:00000014
#11012:14
#06014:14
#06019:00140000
#06013:0014
#06018:00000014
#0591a:00000014
#06112:14
#06118:0014
#06114:00000014
#11314:14
#11319:00140000
#11313:0014
#11318:00000014
#1121a:00000014
#11818:00000014
#11814:00000014
#1241a:14140024
#12412:14140024
#1231a:14
#12314:00140000
#12318:0014
#12312:00000014
#1211a:1414
#12112:00140014
#12218:1414
#12214:00140014
#03618:1414
#03612:00140014
#06218:14
#08413:14141400
#08419:14141400
#06314:00000014
#06319:14
#06313:14
#08318:00140014
#08314:0014
#0811a:00000014
#08212:0014
#08214:14
#0801a:0014
#08018:14
#07912:00000014
#07918:0014
#07914:00140000
#0791a:14
#07812:00000014
#07818:0014
#07814:00140000
#0781a:14
#07712:00140014
#07718:1414
#07614:00140014
#0761a:1414
#0761f:11
#07218:0014
#0721a:14
#07414:0014
#07412:14
#06418:14
#06410:41
#06614:14
#07318:00000014
#07114:00000014
#0671a:00000014
#06518:00000014
#0691a:00000014
#06912:14
#06914:0014
#06918:00140000
#08512:00000014
#08514:00140000
#08518:0014
#0851a:24
#0851f:21
#08718:00140000
#08714:0014
#08712:14
#0871a:00000014
#08710:41
#09114:0014
#09112:14
#09118:00140000
#09214:0014
#09218:00000014
#09314:14
#0931a:0014
#09312:00000014
#09412:00140014
#0941a:1414
#09718:14
#09713:00140000
#09719:0014
#09714:00000014
#09612:00000014
#0981a:14
#09814:0014
#09818:00000014
#09914:14
#09912:0014
#09918:0014
#02518:1414
#02514:00140000
#02418:00140000
#02414:1414
#02618:00140000
#02612:1414
#0271a:1414
#02714:00140000
#0891a:00140014
#08914:0014
#09014:14
#09018:00140014
#09012:0014
#0411a:00140000
#04114:0014
#04118:00000014
#04312:00140000
#04318:0014
#04314:00000014
#06814:14
#06818:00140014
#06812:0014
#09518:16
#09516:0016
#11112:16
#11114:0016
#10012:0014
#1001a:14
#10018:0014
#10014:14
#11712:24
#1171a:24
#1161a:2424
#11612:2424
#02210:41
#01552:0000001400000000
#0155a:0000001400000000
#05852:56
#05854:0026
#12452:00000014
#1245a:00000014
#11854:00000024
#11858:00000024
#11752:54
#1175a:64
#00655:0000000000000016
#04759:0000001400000000
#04753:0000001400000000
#08453:0014
#08459:0014
#08252:0024
#08254:64
#0805a:0024
#08058:54
#07258:0024
#0725a:64
#07454:0024
#07452:54
#06458:54
#06654:64
#05952:16
#09558:66
#09556:0026
#09658:16
#11152:56
#11154:0026
#11252:16
#0043a0:14342400
#005320:14342400
#006350:1600360036000026
#0123a0:1424
#014320:1424
#015320:1434002400000000
#0153a1:1434002400000000
#0203a1:14
#020381:0024
#021321:14
#021341:0024
#0223a1:14
#022381:0024
#023321:14
#023341:0024
#028321:14
#028341:0024
#0293a1:14
#029381:0024
#030321:14
#030341:0024
#0313a1:14
#031381:0024
#033381:1424
#035341:1424
#037381:1424
#039341:1424
#040381:14
#0413a1:24
#042341:14
#043321:24
#046391:14
#047391:3400002400000000
#046330:14
#047330:3400002400000000
#049320:1400002400000000
#0513a0:1400002400000000
#054340:00000014
#055340:00240000
#058320:16
#058340:0036
#059320:26
#064380:14
#0653a0:24
#066340:14
#067320:24
#070340:14
#070320:00000024
#071380:14
#0713a0:0024
#0723a0:14
#072380:0054
#0733a0:24
#074320:14
#074340:0054
#075320:24
#080380:14
#0803a0:0054
#081380:24
#082340:14
#082320:0054
#083340:24
#0863a0:1400002400000000
#088320:1400002400000000
#091380:00000014
#092380:00240000
#095380:16
#095360:0036
#096380:26
#102340:14
#102320:0000002400000000
#1023a1:14
#102381:0000002400000000
#104381:14
#1043a1:0000002400000000
#104320:14
#104340:0000002400000000
#107320:00000014
#108320:00240000
#111320:16
#111340:0036
#112320:26
#114320:14
#115320:0024
#1173a0:14
#118380:00000054
#1203a0:0024
#117321:14
#118341:00000054
#120321:0024
