This file was generated by Ched 2.6.2.0.
#TITLE ""
#ARTIST ""
#DESIGNER ""
#DIFFICULTY 0
#PLAYLEVEL
#SONGID ""
#WAVE ""
#WAVEOFFSET 0
#JACKET ""
#REQUEST "ticks_per_beat 480"
#00002: 4
#BPM01: 172
#00008: 01
#TIL00: ""
#HISPEED 00
#MEASUREHS 00
#00019:0014
#00119:0014
#00213:0014
#00313:0014
#00419:0014
#00519:14
#00510:41
#00719:14
#0211a:14
#02110:41
#02314:14
#04512:0016
#04518:26
#0451f:21
#01612:14
#0131a:14
#01310:41
#01414:14
#01518:14
#0171a:14
#01814:14
#01918:14
#0371f:11
#0371a:14
#00613:14
#00813:14
#02012:14
#0221a:14
#02414:14
#02518:14
#02712:14
#02618:14
#02812:14
#03914:14
#03212:14
#0291a:14
#02910:41
#03014:14
#03118:14
#0331a:14
#03414:14
#03518:14
#03612:14
#0381a:14
#04014:14
#04118:14
#04312:14
#04218:14
#04412:14
#04618:16
#04712:16
#04718:0016
#04710:41
#04812:16
#04918:1616
#05018:16
#05112:1616
#05212:16
#05318:0016
#05312:26
#05412:16
#05518:16
#05512:0016
#05618:16
#05712:1616
#05812:16
#05918:1616
#06018:16
#06013:0024
#06019:0024
#06119:14
#06110:41
#06319:14
#06213:14
#06413:14
#009390:14
#010390:24
#011330:14
#012330:24
#065390:14
#066390:24
#067330:14
#068330:00000024
