This file was generated by Ched 2.6.2.0.
#TITLE ""
#ARTIST ""
#DESIGNER ""
#DIFFICULTY 0
#PLAYLEVEL
#SONGID ""
#WAVE ""
#WAVEOFFSET 0
#JACKET ""
#REQUEST "ticks_per_beat 480"
#00002: 4
#BPM01: 172
#00008: 01
#TIL00: ""
#HISPEED 00
#MEASUREHS 00
#00318:00131314
#00315:1300000000130000
#00314:0000000000000014
#00312:00130000
#0031b:13
#00418:15160000
#00413:0015000000000000
#00417:0012
#0051b:00130000
#00517:0000001300000000
#00514:0000000000130000
#00513:00000013
#00512:0000000000000013
#00515:13
#00518:23
#00510:41
#00619:0013000000000000
#0061a:00130000
#0061b:0000001300000000
#00618:0000000000140000
#00614:00000014
#04515:0013130000130000
#04518:00000013000000001300000013000000
#04512:2300001300001300
#0451b:2300001300000000
#0451f:21
#0461b:1300001300001300
#04618:0013130000130000
#04615:00000013000000001300000013000000
#04612:1300001300000000
#0481b:0000000000131300
#04812:0013
#04816:0000000000130000
#05912:00131300
#05915:1300001300001300
#05918:00131300
#0591b:1300001300001300
#04315:16130013
#04318:0000130000000013
#04412:1300001300002600
#04415:000000000000130000000000133333133300000000000000
#0441b:1300001300000000
#04418:000000130000000000000000133333133300260000000000
#04414:000000000000000000000000000000000033000000000000
#04419:000000000000000000000000000000000033000000000000
#04712:1300130000130000
#04715:0013001300001300
#04718:00000013000000001300130000000000
#0471b:1300001300000000
#04710:41
#05313:00130000000000000000000000000000
#05319:0013000000000000
#05315:00000013000000000000000000000000
#0531b:00130000
#05312:0000001300140000
#05316:00000014
#05318:0000001300000000
#05317:23
#00715:13
#00712:00130000
#00716:0000001300000000
#00719:0000000000130000
#0071a:00000013
#0071b:0000000000000013
#00718:13
#00814:0013000000140000
#00813:00130000
#00812:0000001300000000
#00818:00000014
#00917:00130000
#0091b:2300001300000000
#00916:0000000000130000
#00914:00000013
#00912:0000000000000013
#00915:13
#01017:0013000000000000
#01019:00130000
#0101b:0000001300000000
#01016:0000000000140000
#01012:0000000000141400
#01112:1300001300000000
#01116:00130000
#01117:0000000000130000
#01119:00000013
#0111b:0000000000000013
#01118:13
#01216:0013000000140000
#01214:00130000
#01212:0000001300000000
#0121a:0000000000141400
#02116:1300000000130013
#02112:00000013
#02117:00130013
#0211b:2300001300130000
#02110:41
#02217:0013001300000000
#0221b:00130013
#02218:0000000000130000
#02216:00130000
#02212:0013000000130000
#02215:00000013
#02516:1300001300000013
#02512:0000130000130000
#02518:00000013000000000000001300000000
#0251b:2300001300000000
#02514:00000013
#0251a:00000000000000000000000000130000
#01517:13
#01519:0013000000330000
#0151b:00130000
#01516:0000001413000014
#01514:0033000000130000
#01512:00000013
#01513:00330000000000000000000000000000
#01515:00000033000000000000000000000000
#0151a:00000000000000000033000000000000
#01518:00000000000000000000003300000000
#01617:0000001300000000
#01616:0013000000130000
#01612:13000013
#01716:13
#01712:0000131300130000
#0171b:1313000013130000
#01717:00130000
#01715:0000000013000013
#01718:00000013
#02016:0000001300000013
#02017:0013000000130000
#0201b:13000013
#00212:0000001300001300
#0021b:1313
#00215:0013
#00218:00000013
#0001b:00002313
#00015:00002313
#00112:13130000
#00118:13130000
#00115:00001313
#0011b:00001313
#01318:00000013000000001300000000001300
#01315:0013130000001300
#0131b:2300001300130000
#01312:2300000013130000
#01310:41
#01415:00000013000000001300130013000000
#01418:0013130000000000
#01412:0000001300000000
#0141b:0000000013131300
#01916:0000001400001314
#0191b:13
#01919:0013000000330000
#01917:00130000
#01912:0013
#01914:0033000000130000
#01915:00330000000000000000000000000000
#01913:00000033000000000000000000000000
#01918:00000000000000000033000000000000
#0191a:00000000000000000000003300000000
#01818:00000013000000001300130013000000
#01815:0013130000000000
#0181b:0000001300000000
#01812:0000000013131300
#03119:13000000130000000033003300000000
#0311b:0013000000000000
#03116:0000001400000014
#03114:00330033000000001300000013000000
#03112:0000000000130000
#03216:0014001400140000
#03212:13000013
#03315:1300130013000013
#03312:0013001300130000
#0331b:13131313
#03318:0013001300130000
#03616:0014001400140014
#0361b:13000013
#02918:00000013000000001300000000001300
#02912:23131313
#0291b:2300001300130000
#02915:0013000000130000
#02910:41
#03015:00000013000000000000000013000000
#03018:0013000000000000
#0301b:00130013
#03012:0000001300000000
#03019:0013
#0301a:0000000000130000
#03014:0000000000130000
#03013:0013
#03516:0000001400000014
#03514:13000000130000000033003300000000
#03512:0013000000000000
#03519:00330033000000001300000013000000
#0351b:0000000000130000
#03418:00000013000000000000000013000000
#03415:0013000000000000
#03412:00130013
#0341b:0000001300000000
#03414:0013
#03413:0000000000130000
#03419:0000000000130000
#0341a:0013
#0371b:23131313
#03715:00000013
#0371f:11
#03912:13131313
#03918:00000013
#03818:00130013
#03815:0000001313000013
#03812:00130013
#0381b:0000000013130000
#04118:00000013
#04115:00000013
#04212:0000001300000013
#0421b:0000000000130000
#04215:00161616
#04918:0013130000130000
#04915:00000013000000001300000013000000
#0491b:2300001300001300
#04912:2300001300000000
#05012:1300001300001300
#05015:0013130000130000
#05018:00000013000000001300000013000000
#0501b:1300001300000000
#0511b:1300130000130000
#05118:0013001300001300
#05115:00000013000000001300130000000000
#05112:1300001300000000
#05416:13000014
#0541a:00130000000000000000140000000000
#05414:0013000000000000
#05418:00000013000000000000000000000000
#05412:00130000
#0541b:0000001300000000
#05415:0000001300000000
#05517:13
#05513:00130000000000000000000000000000
#05519:0013000000000000
#05515:00000013000000000000000000001300
#0551b:00130000
#05512:0000001300140000
#05516:00000014
#05518:0000001300000000
#05612:00000013
#05612:00000013
#05618:13130000
#05615:0013001300000000
#0561b:0013
#05617:0000000000130000
#05816:1414001414140000
#05812:00141400
#0581a:14000014
#0571a:00130000000000000000000000000000
#05714:0013000000000000
#05718:00000013000000000000000000000000
#05712:00130000
#0571b:0000001300000000
#05715:0000001300000000
#05716:23
#06012:00001323
#0601b:13000023
#06014:0000000000230000
#06019:0000000000230000
#06212:0013001300180000
#06216:00130018
#0621a:0000000000140000
#06116:13
#0611b:2300000000130013
#06117:00000013
#06112:0000001300000000
#06110:41
#06813:0000000000131300
#0681a:0013000000131300
#06814:00130000
#06817:0000001300000000
#06718:00130000
#06715:0000001300000000
#06713:0000000000130000
#06719:00000013
#06716:0000000000000013
#0671b:23
#06712:23
#0651b:2300000000130013
#06518:00000013
#06516:13
#06515:0000001300000000
#0521b:00001323
#05217:0000000000130000
#05214:0000000000130000
#05212:00000023
#05212:00000023
#06317:13
#0631b:0000001300000000
#06312:2300000000130013
#06316:00000013
#02317:1300000000130013
#0231b:00000013
#02316:00130013
#02312:1300001300130000
#02416:0013001300000000
#02412:00130013
#02415:0000000000130000
#02417:00130000
#0241b:0013000000130000
#02418:00000013
#0261b:0013000000130000
#02615:00000013000000000000130000000000
#02619:00130000
#02617:0000001300000000
#02613:00000000001300000000000000000000
#02612:00000013
#02618:00000013
#02717:1300001300000013
#0271b:0000130000130000
#02715:00000013000000000000001300000000
#02712:1300001300000000
#02719:00000013
#02713:00000000000000000000000000130000
#02812:0013000000130000
#02818:00000000000033330000130000000000
#0281b:2313000000002300
#02815:23000000000033330000000023000000
#02813:00000033000000000000000000000000
#02814:00000000333300000000000000000000
#0281a:00000033000000000000000000000000
#02819:00000000333300000000000000000000
#04015:00130013
#04018:0000001313000013
#0401b:00130013
#04012:0000000013130000
#06416:0000000000180000
#06412:0000000000141800
#0641b:0013001300000000
#06417:00130000
#06616:0000000000180000
#06612:0013001300141800
#06615:00130000
#00654:00000014
#00658:0000000000140000
#00555:53
#00854:0000000000140000
#00858:00000014
#00758:63
#01056:0000000000140000
#01052:00000014
#00955:53
#01256:0000000000140000
#0125a:00000014
#01158:63
#00457:0012
#02156:53
#0215b:0000000000530000
#02157:00000023
#02252:0053000000000000
#02256:00230000
#02258:0000000000430000
#02255:00000033
#02556:53
#01652:00000013
#0165b:00000013
#01352:0000000000630000
#01355:00000023
#01758:00000023
#0175b:0000000000530000
#03252:00000013
#0325b:00000013
#03055:00000013
#0305b:00000013
#02952:00000023
#02955:0000000000530000
#03458:00000013
#03452:00000013
#0335b:00000023
#03358:0000000000630000
#0375b:00000063
#03952:00000053
#04158:00000063
#04355:00530000
#04552:00000013
#0465b:00000013
#0485b:00000043
#04856:0000000000230000
#04852:00006333
#04452:00000036
#04455:0000000063230000
#04458:0000000053234600
#04955:00000013
#05058:00000013
#05356:00000014
#0535a:00000014
#05652:00000033
#05652:00000033
#05658:63630000
#05655:0053005300000000
#0565b:00005343
#05657:0000000000230000
#05555:0000000000000053
#0555a:00000014
#05556:00000014
#0585a:64
#05856:0024000000240000
#05852:0054
#06052:00000033
#0605b:00000043
#06059:0000000000430000
#06054:0000000000330000
#05958:0063
#05952:0063
#0595b:00000053
#05955:00000053
#06156:53
#06252:0000000000380000
#06256:00000048
#05456:00000014
#05452:00000014
#0525b:00005343
#05257:0000000000230000
#05252:00000033
#05252:00000033
#06357:63
#06556:53
#02455:0000000000330000
#02457:00230000
#0245b:0063000000000000
#02458:00000043
#02357:63
#02356:00000023
#02352:0000000000630000
#02652:00000033
#0265b:0000000000430000
#02757:63
#02852:0063000000330000
#0285b:0053000000004300
#06456:0000000000480000
#06452:00000038
#06656:0000000000480000
#06652:00000038
#06853:00000013
#0685a:00000013
#002350:13000023000000000000000000000000
#002381:00000013000023000000000000000000
#005351:13
#005321:0000002300000000
#005371:0000000000130023
#006361:0013002300000000
#007381:13
#0073b1:0000002300000000
#007361:0000000000130023
#008371:0013002300000000
#009351:13
#009321:0000532300000000
#0093b1:0000000000130000
#009371:0000000000000023
#010321:0013000000000000
#010361:0000002300000000
#011381:13
#0113b1:0000532300000000
#011321:0000000000130000
#011361:0000000000000023
#0123b1:0013000000000000
#012371:0000002300000000
#013321:0000000000130023
#013351:00000053
#015321:13
#015331:00330000000000000000000000000000
#015341:0033000000000000
#015351:00000033000000000000000000000000
#015361:00230000
#0153b1:0013
#0153a1:00000000000000000033000000000000
#015391:0000000000330000
#015381:00000000000000000000003300000000
#015371:00000023
#0163b1:13230000
#016320:00132300
#0163b1:00001323
#0173b1:0000000000130023
#017381:00000053
#019361:13
#019351:00330000000000000000000000000000
#019341:0033000000000000
#019331:00000033000000000000000000000000
#019321:00230000
#019371:0013
#019381:00000000000000000033000000000000
#019391:0000000000330000
#0193a1:00000000000000000000003300000000
#0193b1:00000023
#020321:13230000
#0203b0:00132300
#020321:00001323
#021361:13
#021321:0000332300000000
#0213b1:0000000000130023
#021371:00000053
#022321:0013002300000000
#022361:00530000
#023371:13
#0233b1:0000332300000000
#023321:0000000000130023
#023361:00000053
#0243b1:0013002300000000
#024371:00530000
#025361:13
#025321:00000023000000000000000000000000
#027371:13
#0273b1:00000023000000000000000000000000
#028321:0013000000000000
#028331:00000033000000000000000000000000
#028341:00000000333300000000000000000000
#028351:00000000000033332300000000000000
#0283b0:0013000000000000
#0283a0:00000033000000000000000000000000
#028390:00000000333300000000000000000000
#028380:00000000000033332300000000000000
#029350:0000000000130023
#029320:00000053
#031320:13230000
#031340:00330033000000000000000000000000
#031360:0033000000000000
#0313b0:00001323
#031390:00000000000000000033003300000000
#031370:0000000000330000
#0323a0:13
#0323b0:0053230000000000
#032331:00130000
#032321:0000005323000000
#0323a0:0013
#0323b0:0000000000532300
#033380:0000000000130023
#0333b0:00000053
#0353b0:13230000
#035390:00330033000000000000000000000000
#035370:0033000000000000
#035320:00001323
#035340:00000000000000000033003300000000
#035360:0000000000330000
#036320:13230000
#0363b1:00132300
#036320:00001323
#037350:1300005323000000
#037320:0053330000000000
#0373b0:00000013
#037380:0000000000000033
#038380:23
#037351:0000000000000013
#038351:23
#039381:1300005323000000
#0393b1:0053330000000000
#039321:00000013
#039351:0000000000000033
#040351:23
#039380:0000000000000013
#040380:23
#0413b0:1300005323000000
#041380:0053330000000000
#041351:1300005323000000
#041321:0053330000000000
#041381:00000013
#0413b1:0000000000000033
#0423b1:23
#041320:0000000000000013
#042320:23
#043350:00130000
#043320:0000003323000000
#0433b1:0000001323000000
#044351:000000000000000000000000133333333300000000000000
#044341:000000000000000000000000000000000033000000000000
#044321:00000026
#044380:000000000000000000000000133333333300260000000000
#044390:000000000000000000000000000000000033000000000000
#0473b0:0000000000000013
#048380:23
#048321:1323000000000000
#048380:0013000000000000
#0483b0:00230000
#048351:0000132300000000
#0483b0:0000001300000000
#048380:0023
#048321:00001323
#048361:0000000000530000
#051321:0000000000000013
#052351:23
#0523b0:1323000000000000
#052351:0013000000000000
#052321:00230000
#052380:0000132300000000
#052321:0000001300000000
#052351:0023
#0523b0:00001323
#052370:0000000000530000
#0533a0:00001424
#054320:00001424
#0553a0:00001424
#055350:0000000000000013
#056320:23
#056381:13
#0563b1:0023000000000000
#056350:0013000000000000
#056320:00230000
#056381:00130000
#0563b1:0000002300000000
#056350:0000001300000000
#056320:0023
#0563b1:00001323
#056371:0000000000530000
#057321:00001333
#057351:0000000000330023
#057380:00001333
#0573b0:0000000000330023
#0583a0:14240000
#058360:0054000000000000
#058320:00001424
#058360:0000000000540000
#059380:0013
#0593b0:0000000000230000
#059321:0013
#059351:0000000000230000
#059351:00000013
#059321:0000000000000023
#0593b0:00000013
#059380:0000000000000023
#060320:1323000000000000
#060381:0013230000000000
#060350:0000132300000000
#0603b1:0000001323000000
#061361:13
#061321:00230000
#061370:0000132300000000
#061350:0000000000130000
#061320:0000000000005323
#062380:0013000000000000
#0623b0:0000532300000000
#063370:13
#0633b0:00230000
#063361:0000132300000000
#063381:0000000000130000
#0633b1:0000000000005323
#064351:0013000000000000
#064321:0000532300000000
#065361:13
#065321:00230000
#065380:00130000
#0653b0:0000002300000000
#065320:0000000000130023
#065350:00000053
#0663b0:0013002300000000
#066380:00530000
