This file was generated by Ched 2.6.2.0.
#TITLE ""
#ARTIST ""
#DESIGNER ""
#DIFFICULTY 0
#PLAYLEVEL
#SONGID ""
#WAVE ""
#WAVEOFFSET 0
#JACKET ""
#REQUEST "ticks_per_beat 480"
#00002: 4
#BPM01: 172
#00008: 01
#TIL00: ""
#HISPEED 00
#MEASUREHS 00
#00318:00001414
#00314:0000000000140014
#00315:13130000
#0031b:13130000
#00418:16160000
#00412:0016000000000000
#00416:0014
#00518:0000001300000000
#0051a:00000033
#00510:41
#00618:0000000000140000
#00614:00000014
#00613:00330000
#04518:0013130000000000
#04515:00000013000000000000000013000000
#0451b:0000000013131300
#04512:2300001300000000
#0451f:21
#04318:1300001300001300
#04315:0000130013000013
#04419:13
#04414:0013000000000000
#0441a:00130000
#04413:0000001300000000
#0441b:0000000000130000
#04418:00000026
#04712:1300001300000013
#04718:0013130000130000
#04715:00000013000000001300000000000000
#0471b:00000013
#04710:41
#05312:0013130000000000
#05318:00000013000000000000000000000000
#0531b:0000001300000000
#05315:23
#00814:0000000000140000
#00818:00000014
#0081a:00330000
#00918:0000001300000000
#0091b:13
#00915:13
#00919:00000033
#0101a:0000000000140000
#01012:00000014
#01014:00330000
#02218:0000000000140000
#02214:00000014
#02215:00130000
#02212:0013000000000000
#0211b:1300000000130000
#02118:0000001300001300
#02115:13
#02110:41
#01515:00000033000013000000000000000000
#01518:00000000000000000000003300001300
#01514:0033000000000000
#01513:00330000000000000000000000000000
#0151a:00000000000000000033000000000000
#01519:0000000000330000
#0161b:0000001300001300
#01618:0013000000130000
#01612:13000013
#01615:00131300
#01715:0013001300130000
#01712:13000013
#01718:00130000
#0171b:0013
#0001b:00002313
#00015:00002313
#00114:13130000
#0011a:13130000
#00113:00001313
#00119:00001313
#00218:00001313
#00212:00001313
#01318:0013001300130000
#01312:2313
#0131b:23000013
#01315:00130000
#01310:41
#01418:0000001300000000
#0141b:0000000013131300
#01415:0000130013131300
#01412:0013000000000000
#0311b:0000001313000000
#03112:1300000000000013
#03115:0013000000000000
#03118:0000000000130000
#03114:00330033000000000000000000000000
#03119:00000000000000000033003300000000
#03313:13131300
#03317:0013000000000000
#0331a:13131300
#03316:0000001300000000
#0331b:00000013
#03318:0000000000130000
#03212:0000001300001300
#0321b:13000013
#03215:0013000013000000
#03218:0000130000130000
#03012:0000001300000000
#03015:0013000013001300
#0301b:00000013
#03018:0000130000130000
#02912:23000013
#02915:0000000000130000
#02918:0013
#0291b:23
#0291a:00000033000000000000000000000000
#02914:00000033000000000000000000000000
#02910:41
#03818:1300000000130013
#03812:13000013
#0381b:0000001300000000
#03815:00131300
#0421b:00131300
#04218:00000013
#04212:0000000000130013
#04215:0000001300000000
#04214:13
#04219:13
#05515:1300001300001300
#05512:0013130000000014
#05518:00000013000000000000130000000000
#0551b:0013
#05612:0000000000140000
#05618:00000014
#05615:14
#0561a:00140000
#05617:0000001400000000
#06815:0000000000130000
#06818:0013000000001300
#06814:00130000
#0681b:0000001300000000
#06718:00130013
#06715:0000001300130000
#06712:0000000000000013
#0671b:23
#01115:0000001300000000
#01112:13
#01118:13
#01114:00000033
#01212:0000000000140000
#0121a:00000014
#01219:00330000
#01815:0000001300000000
#01812:0000000013131300
#01818:0000130013131300
#0181b:0013000000000000
#0201b:1313
#02015:0013000000130000
#02018:00130013
#02012:0000001300000013
#02414:0000000000140000
#02418:00130014
#0241b:0013000000000000
#02612:0000000000140000
#0261a:00000014
#0261b:00130000
#02618:0013000000000000
#02512:13000013
#02515:0000000000130000
#02518:0000001300000000
#0251b:13
#0281a:0000000000140000
#02812:00130024
#02815:0013000000000000
#02715:0000001300000000
#0271b:13000013
#02712:13
#02718:0000000000130000
#0341b:0000001300000000
#03418:0013000013001300
#03412:00000013
#03415:0000130000130000
#03612:13000013
#03618:0013000013000000
#03615:0000130000130013
#0361b:0000001300000000
#03718:0000000000001313
#03712:0000000000001313
#0371f:11
#04015:1300000000130013
#0401b:13000013
#04012:0000001300000000
#04018:00131300
#03915:0000000000001313
#0391b:0000000000001313
#04112:00000013
#04113:0000000000000013
#0411b:00000013
#0411a:0000000000000013
#04615:0013130000000000
#04618:00000013000000000000000013000000
#04612:0000000013131300
#0461b:1300001300000000
#04915:0013130000000000
#04918:00000013000000000000000013000000
#04912:0000000013131300
#0491b:2300001300000000
#0511b:1300001300000013
#05115:0013130000130000
#05118:00000013000000000000000013000000
#05112:0013
#05018:0013130000000000
#05015:00000013000000000000000013000000
#0501b:0000000013131300
#05012:1300001300000000
#0541b:0013130000000000
#05415:00000013000000000000000000000000
#05418:13
#05412:0000001300000000
#05718:0013130000000000
#05715:00000013000013000000000000000000
#05712:23
#0571b:0000000000333300
#05915:00001313
#05918:0000000000130013
#05912:13130000
#0591b:1300001300000000
#06012:1300000000240000
#06015:0013000013000000
#0601b:00130000
#06018:0000001300000000
#0601a:00000024
#0621a:0000000000140000
#06214:00000014
#06213:00330000
#06412:0000000000140000
#06418:00000014
#0641a:00330000
#0661a:0000000000140000
#06614:00000014
#06615:0013000000000000
#06613:00330000
#06518:1300000000130000
#06512:13
#0651a:00000033
#00715:0000001300000000
#00713:00000033
#01918:00000033000013000000000000000000
#01915:00000000000000000000003300001300
#01919:0033000000000000
#0191a:00330000000000000000000000000000
#01913:00000000000000000033000000000000
#01914:0000000000330000
#03512:0000001313000000
#0351b:1300000000000013
#03518:0013000000000000
#03515:0000000000130000
#03519:00330033000000000000000000000000
#03514:00000000000000000033003300000000
#04818:13
#04812:0013000000000000
#0481b:00130000
#04815:0000001300000000
#05215:13
#0521b:0013000000000000
#05212:00130023
#05218:0000001300000000
#05814:13
#05813:00140000
#05812:0015
#05819:13141500
#02312:1300000000130000
#02315:0000001300001300
#02318:13
#0611a:00000033
#06110:41
#06313:00000033
#0095b:53
#00955:53
#00456:0014
#0215b:5300000000530000
#02158:00000023
#02155:53
#01652:00000013
#0165b:00000013
#01358:0000000000630000
#0135b:00000023
#03252:00000013
#0325b:00000013
#03055:00000013
#0305b:00000013
#02952:00000023
#02955:0000000000530000
#0335b:00000023
#03358:0000000000630000
#05652:0000000000340000
#05658:00000044
#05655:24
#0565a:00640000
#05657:0000002400000000
#05552:0000000000000054
#06052:0000000000340000
#0605a:00000044
#0445b:0000000000230000
#04458:00000016
#02652:0000000000140000
#0265a:00000014
#0265b:00230000
#02658:0063000000000000
#02552:53000023
#02555:0000000000530000
#0255b:63
#0285a:0000000000140000
#02852:00230014
#02855:0053000000000000
#03458:00000013
#03452:00000013
#06254:00000014
#0625a:0000000000140000
#06452:0000000000140000
#06458:00000014
#0665a:0000000000140000
#06654:00000014
#06655:0063000000000000
#06558:6300000000630000
#06552:63
#01752:00000023
#01755:0000000000530000
#06858:00000013
#05854:33
#05853:00340000
#05852:0035
#05859:43444500
#01152:63
#01158:63
#02255:00230000
#02252:0063000000000000
#02258:0000000000140000
#02254:00000014
#02352:6300000000630000
#02355:00000023
#02358:63
#02458:00230014
#0245b:0053000000000000
#02454:0000000000140000
#0275b:63000023
#02752:53
#02758:0000000000630000
#03152:53
#0315b:0053
#03155:0023000000000000
#03158:0000000000230000
#00658:0000000000140000
#00654:00000014
#00854:0000000000140000
#00858:00000014
#0105a:0000000000140000
#01052:00000014
#01252:0000000000140000
#0125a:00000014
#0355b:53
#03552:0053
#03558:0023000000000000
#03555:0000000000230000
#0485b:00000013
#05252:00000013
#05355:00000013
#05458:00000013
#002380:13000033000023000000000000000000
#002321:13000033000023000000000000000000
#005351:13
#005321:00230000
#0053b0:13
#005380:00230000
#005380:0000000000130000
#0053a0:00000033
#0053b0:0000000000000023
#006350:0013000000000000
#006330:00330000
#006320:0000002300000000
#007380:13
#0073b0:00230000
#007321:13
#007351:00230000
#007351:0000000000130000
#007331:00000033
#007321:0000000000000023
#008381:0013000000000000
#0083a1:00330000
#0083b1:0000002300000000
#0093b1:13
#009381:00230000
#009350:13
#009320:00230000
#0093b0:0000000000130000
#009390:00000033
#009380:0000000000000023
#010320:0013000000000000
#010340:00330000
#010350:0000002300000000
#011320:13
#011350:00230000
#011381:13
#0113b1:00230000
#011321:0000000000130000
#011341:00000033
#011351:0000000000000023
#0123b1:0013000000000000
#012391:00330000
#012381:0000002300000000
#013381:0000000000130023
#0133b1:00000053
#015321:13
#015331:00330000000000000000000000000000
#015341:0033000000000000
#015351:00000033230000000000000000000000
#0153b1:0013
#0153a1:00000000000000000033000000000000
#015391:0000000000330000
#015381:00000000000000000000003323000000
#017351:0000000000130023
#017321:00000053
#0193b1:13
#0193a1:00330000000000000000000000000000
#019391:0033000000000000
#019381:00000033230000000000000000000000
#019321:0013
#019331:00000000000000000033000000000000
#019341:0000000000330000
#019351:00000000000000000000003323000000
#0213b1:13
#021381:00230000
#021350:13
#021320:00230000
#0213b0:0000000000130023
#021380:00000033
#022320:0013002300000000
#022350:00330000
#023320:13
#023350:00230000
#023381:13
#0233b1:00230000
#023321:0000000000130023
#023351:00000033
#0243b1:0013002300000000
#024381:00330000
#025321:13
#025351:00230000
#0253b0:13
#025380:00230000
#025350:0000000000130023
#025320:00000033
#026380:0013002300000000
#0263b0:00330000
#0273b0:13
#027380:00230000
#027321:13
#027351:00230000
#027381:0000000000130023
#0273b1:00000033
#028351:0013002300000000
#028321:00330000
#0293b1:0013000000000000
#0293a1:00000033000000000000000000000000
#029381:0000332300000000
#029350:0013000000000000
#029340:00000033000000000000000000000000
#029320:0000332300000000
#029350:0000000000130023
#029320:00000053
#031320:13230000
#031340:00330033000000000000000000000000
#031350:0033000000000000
#0313b0:00001323
#031390:00000000000000000033003300000000
#031380:0000000000330000
#033380:0000000000130023
#0333b0:00000053
#0353b0:13230000
#035390:00330033000000000000000000000000
#035380:0033000000000000
#035320:00001323
#035340:00000000000000000033003300000000
#035350:0000000000330000
#037380:1300005323000000
#0373b0:0053330000000000
#039350:1300005323000000
#039320:0053330000000000
#0413b0:1300005323000000
#041380:0053330000000000
#041321:1300005323000000
#041351:0053330000000000
#0443b1:0000000013530000
#044381:00000026
#0483b1:00001323
#052321:00001323
#053351:0000000013332300
#054381:0000000013332300
#055321:0000000000000014
#056351:34
#056321:0024000000000000
#0563a1:00142400
#056371:0000003400000000
#0573b1:0000000013333300
#057381:0000000000000023
#061321:13
#061351:0000332300000000
#061380:13
#0613b0:0000332300000000
#061380:0000000000130000
#0613a0:00000033
#0613b0:0000000000000023
#062350:0013000000000000
#062330:00330000
#062320:0000002300000000
#0633b0:13
#063380:0000332300000000
#063351:13
#063321:0000332300000000
#063351:0000000000130000
#063331:00000033
#063321:0000000000000023
#064381:0013000000000000
#0643a1:00330000
#0643b1:0000002300000000
#065321:13
#065351:0000332300000000
#065380:13
#0653b0:0000332300000000
#065380:0000000000130000
#0653a0:00000033
#0653b0:0000000000000023
#066350:0013000000000000
#066330:00330000
#066320:0000002300000000
