This file was generated by Ched 2.6.2.0.
#TITLE ""
#ARTIST ""
#DESIGNER ""
#DIFFICULTY 0
#PLAYLEVEL
#SONGID ""
#WAVE ""
#WAVEOFFSET 0
#JACKET ""
#REQUEST "ticks_per_beat 480"
#00002: 4
#BPM01: 172
#00008: 01
#TIL00: ""
#HISPEED 00
#MEASUREHS 00
#00417:0012
#00414:13130000
#00419:1313130000000000
#04515:00001300000000000000001300000000
#04512:23160013
#04518:00000013000000000000000016000000
#04516:0014
#0451b:2300000000130000
#0451f:21
#04816:00130016
#04814:0000000000160000
#04817:1313
#0481a:0013000000000000
#0481b:0000001300000000
#05914:00130000
#05916:0000001400000000
#05919:00130000
#0591b:0000000013000013
#04315:0000001600001300
#04318:0000000000000013
#0431b:00131313
#04316:14
#04312:13131300
#04415:130000000000130000000000000000133333000000000000
#04418:000000130000000000130000000000133333260000000000
#04412:0013001313002600
#0441b:1313
#0441a:000000000000000000000000003300000000000000000000
#04419:000000000000003300000000
#04414:000000000000003300000000
#04413:000000000000000000000000003300000000000000000000
#05315:00141400000000000000000000000000
#05319:00000013000000000000000000000000
#05312:2300131300130016
#0531b:0000000013000013
#05317:0000000000130000
#05316:0013
#00212:0000001300001300
#0021b:1313
#00216:0013
#00217:00000013
#00017:00000013
#00012:00000013
#0001b:0023
#00016:0023
#00116:1313
#0011b:1313
#00117:00130013
#00112:00130013
#00316:13
#00312:00130000
#00317:00130000
#0031b:13
#00314:0000000013001313
#00319:0000000013131300
#01318:00000013000000000000000000000000
#01312:2300130000130000
#01319:0000001300000000
#01317:0000000000000013
#01315:0013000000000000
#01316:00000013
#0131b:23
#01310:41
#01415:00000013000000000000000000000000
#01418:0013000000000000
#0141b:00131300
#01412:0000001300001300
#01419:0000000000130000
#01417:00000013
#01414:0000000000130000
#01416:0013
#01717:000000000000000000000000000000000000000000000000000000000000000000000000000000000000000000000000000000000000000000000000000000000000000000000000000000000000000000000000000000000000000000000000000000000000000000000000000000000000000000000000000000000000000000000000000000000000000000000000000000000000000000000000000000000000000000000000000000000000000000000000000000000000000000000000000000000000000000000000000000000000000000000000000000000000000000000000000000000000000000000000000000000000000000000000000000000000000000000000000000000000000000000000000000000000000000000000000000000000000000000000000000000000000000000000000000000000000000000000000000000000000000000000000000000000000000000000000000000000000000000000000000000000000000000000000000000000000000000000000000000000000000000000000000000000000000000000000000000000000000000000000000000000000000000000000000000000000000000000000000000000000000000000000000000000000000000000000000000000000000000000000000000000000000000000000000000000000000000000000000000000000000000000000000000000000000000000000000000000000000000000000000000000000000000000000000000000000000000000000000000000000000000000000000000000000000000000000000000000000000000000000000000000000000000000000000000000000000000000000000000000000000000000000000000000000000000000000000000000000000000000000000000000000000000000000000000000000000000000000000000000000000000000000000000000000000000000000000000000000000000000000000000000000000000000000000000000000000000000000000000000000000000000000000000000000000000000000000000000000000000000000000000000000000000000000000000000000000000000000000000000000000000000000000000000000000000000000000000000000000000000000000000000000000000000000000000000000000000000000000000000000000000000000000000000000000000000000000000000000000000000000000000000000000000000000000000000000000000000000000000000000000000000000000000000000000000000000000000000000000000000000000000000000000000000000000000000000000000000000000000000000000000000000000000000000000000000000000000000000000000000000000000000000000000000000000000000000000000000000000000000000000000000000000000000000000000000000000000000000000000000000000000000000000000000000000000000000000000000000000000000000000000000000000000000000000000000000000000000000000000000000000000000000000000000000000000000000000000000000000000000000000000000000000000000000000000000000000000000000000000000000000000000000000000000000000000000000000000000000000000000000000000000000000000000000000000000000000000000000000000000000000000000000000000000000000000000000000000000000000000000000000000000000000000000000000000000000000000000000000000000000000000000000000000000000000000000000000000000000000000000000000000000000000000000000000000000000000000000000000000000000000000000000000000000000000000000000000000000000000000000000000000000000000000000000000000000000000000000000000000000001300000000000000000000000000000000000000000000000000000000000000000000000000000000000000000000000000000000000000000000000000000000000000000000000000000000000000000000000000000000000000000000000000000000000000000000000000000000000000000000000000000000000000000000000000000000000000000000000000000000000000000000000000000000000000000000000000000000000000000000000000000000000000000000000000000000000000000000000000000000000000000000000000000000000000000000000000000000000000000000000000000000000000000000000000000000000000000000000000000000000000000000000000000000000000000000000000000000000000000000000000000000000000000000000000000000000000000000000000000000000000000000000000000000000000000000000000000000000000000000000000000000000000000000000000000000000000000000000000000000000000000000000000000000000000000000000000000000000000000000000000000000000000000000000000000000000000000000000000000000000000000000000000000000000000000000000000000000000000000000
#0171b:0000000000130000
#01716:00000013
#01712:0000000000130000
#01715:13
#06718:00130000
#06712:2300001300000000
#06715:00000013000000000000001200120000
#0671b:2300001300000000
#06719:0000000000121212
#06813:0012000000140000
#06817:00120000
#0681b:0000001200000000
#06819:0000000000140000
#00517:2300001300000000
#00515:0000000000130000
#0051b:0000000000000013
#00516:00000014000000000000000000001300
#00512:2300001300001300
#00518:00000000000000000000001300000000
#0051a:00140000
#00510:41
#05816:0014001400140000
#0581a:1414
#05812:14140014
#03519:0000001300000013
#03514:0000001300000013
#03512:1313000000001300
#03515:00140000130000000000001300000000
#0351b:0000130013130000
#03518:00000013000000000000000013000000
#03517:00000000000000000014000000000000
#02915:00000013000000000000000000000000
#02918:0000131300000000
#0291b:0013000000000013
#02916:00000013
#02912:0000000000130000
#02913:24
#02919:24
#02910:41
#03018:00000013000000000000000000000000
#03012:0013000000000000
#03015:00130000
#0301b:0000001300000000
#03016:0013
#03816:00141414
#03812:1313
#03819:0000001300000013
#0381b:13130013
#03814:0000000000130000
#0421b:00130013
#04215:16
#04219:0000001300000013
#04216:00141414
#04212:0013
#04214:0000000000130000
#0471b:1300000000130013
#04712:13160013
#04715:0013000000000000
#04718:00000013000000000000000000000000
#04716:0000000014141400
#04710:41
#00612:0013000013001300
#00614:00130000
#00616:0013001300130000
#0061b:1313
#00619:00000000000000000000003300000000
#06118:00000013000013000000000013000000
#06116:13
#0611b:2300000000130000
#06115:00000000130000000000001300000000
#06112:0000001300000000
#06110:41
#03712:0000000000001313
#03717:00000013
#0371f:11
#03716:00130000
#0371b:2313
#03719:0000000000000013
#01818:00000013000000000000000000000000
#01815:0013000000000000
#01812:00131300
#0181b:0000001300001300
#01814:0000000000130000
#01816:00000013
#01819:0000000000130000
#01817:0013
#02316:1300001300000000
#02312:0000000013140000
#0231b:1300001300000000
#02317:00000000000000001300001400000000
#0231a:00000000000000000000000000140000
#02315:00000015150000000000000014000000
#02318:0000000000000014
#02412:13000000001400000000140000000000
#02418:00000000000000000000000000000013
#02415:00000014000000000000000000001300
#02417:13140000
#0241a:0014000000001400
#0241b:0013
#02414:0000001400000000
#02416:0000000013141400
#0251b:1300001300000000
#02512:00000013130000001300000000130000
#02515:23000000000000000000001300001300
#02517:00130000
#02516:0000001300000000
#02518:0013
#02616:1400000014141400
#02618:00000013000013000000000000000000
#0261b:00000000001300000000000000000000
#0261a:0000000000140000
#02612:00000014
#02712:1300001300000000
#02718:13000000000000000000001300001300
#0271b:00000013130000001300000000130000
#02716:00130000
#02717:0000001300000000
#02715:0013
#02818:0013000000130000
#0281b:00000013000000000000000023000000
#02816:00130000
#02819:24000000001300000000000000000000
#02814:0000001300000000
#02817:00000000000000130000000000000000
#02812:00001323
#02815:00000000000000000000001300000000
#02813:24
#03316:000000000000000000000000000000000000000000000000000000000000000000000000000000000000000000000000000000000000000000000000000000000000000000000000000000000000000000000000000000000000000000000000000000000000000000000000000000000000000000000000000000000000000000000000000000000000000000000000000000000000000000000000000000000000000000000000000000000000000000000000000000000000000000000000000000000000000000000000000000000000000000000000000000000000000000000000000000000000000000000000000000000000000000000000000000000000000000000000000000000000000000000000000000000000000000000000000000000000000000000000000000000000000000000000000000000000000000000000000000000000000000000000000000000000000000000000000000000000000000000000000000000000000000000000000000000000000000000000000000000000000000000000000000000000000000000000000000000000000000000000000000000000000000000000000000000000000000000000000000000000000000000000000000000000000000000000000000000000000000000000000000000000000000000000000000000000000000000000000000000000000000000000000000000000000000000000000000000000000000000000000000000000000000000000000000000000000000000000000000000000000000000000000000000000000000000000000000000000000000000000000000000000000000000000000000000000000000000000000000000000000000000000000000000000000000000000000000000000000000000000000000000000000000000000000000000000000000000000000000000000000000000000000000000000000000000000000000000000000000000000000000000000000000000000000000000000000000000000000000000000000000000000000000000000000000000000000000000000000000000000000000000000000000000000000000000000000000000000000000000000000000000000000000000000000000000000000000000000000000000000000000000000000000000000000000000000000000000000000000000000000000000000000000000000000000000000000000000000000000000000000000000000000000000000000000000000000000000000000000000000000000000000000000000000000000000000000000000000000000000000000000000000000000000000000000000000000000000000000000000000000000000000000000000000000000000000000000000000000000000000000000000000000000000000000000000000000000000000000000000000000000000000000000000000000000000000000000000000000000000000000000000000000000000000000000000000000000000000000000000000000000000000000000000000000000000000000000000000000000000000000000000000000000000000000000000000000000000000000000000000000000000000000000000000000000000000000000000000000000000000000000000000000000000000000000000000000000000000000000000000000000000000000000000000000000000000000000000000000000000000000000000000000000000000000000000000000000000000000000000000000000000000000000000000000000000000000000000000000000000000000000000000000000000000000000000000000000000000000000000000000000000000000000000000000000000000000000000000000000000000000000000000000000000000000000000000000000000000000000000000000000000000000000000000000000000000000000000000000000000000001300000000000000000000000000000000000000000000000000000000000000000000000000000000000000000000000000000000000000000000000000000000000000000000000000000000000000000000000000000000000000000000000000000000000000000000000000000000000000000000000000000000000000000000000000000000000000000000000000000000000000000000000000000000000000000000000000000000000000000000000000000000000000000000000000000000000000000000000000000000000000000000000000000000000000000000000000000000000000000000000000000000000000000000000000000000000000000000000000000000000000000000000000000000000000000000000000000000000000000000000000000000000000000000000000000000000000000000000000000000000000000000000000000000000000000000000000000000000000000000000000000000000000000000000000000000000000000000000000000000000000000000000000000000000000000000000000000000000000000000000000000000000000000000000000000000000000000000000000000000000000000000000000000000000000000000000000000000000000000000
#03312:0000000000130000
#03317:00000013
#0331b:0000000000130000
#03318:13
#03415:00000013000000000000000000000000
#0341b:0013000000000000
#03418:00130000
#03412:0000001300000000
#03417:0013
#04016:00141414
#0401b:1313
#04014:0000001300000013
#04012:13130013
#04019:0000000000130000
#0391b:0000000000001313
#03916:00000013
#03914:0000000000000013
#03917:00130000
#03912:1313
#04115:00000016
#04112:0000000000000013
#0411b:0000000000000013
#04916:00001414000000000000000000001400
#0491b:00130013
#04912:23001313
#04917:0013
#04919:0000001300000000
#04915:00000000000000000000001300000000
#04918:26
#05118:1613000000000000
#05115:00000013000000000000000000000000
#0511b:0000130000130000
#05112:1300000013001313
#05116:00001414
#05117:0000000000120000
#05119:0000001300000000
#05216:1300000013260000
#05213:0013000000000000
#05217:00130000
#05212:0000001300000000
#05214:00000026
#05016:00001414000000001300000000001400
#05012:16130013
#0501b:13001313
#05014:0000001300000000
#05018:00000000000000000000001300000000
#05616:0013000000141400
#05617:1313
#05612:00130014
#0561b:0000001300000000
#0561a:0000000000140000
#0551b:0000000013000013
#05517:0000000000130000
#05512:1300131300130000
#05516:0013
#05515:00141400000000000000000000000000
#05519:00000013000000000000000000000000
#05712:00130000130000000000000000000000
#05718:0013000000000000
#05715:23000013000000000000000000000000
#0571b:23131313
#05716:0000001400130013
#06315:00000013000013000000000013000000
#06317:13
#06312:2300000000130000
#06318:00000000130000000000001300000000
#0631b:0000001300000000
#06518:00000013000013000000000013000000
#06516:13
#0651b:2300000000130000
#06515:00000000130000000000001300000000
#06512:0000001300000000
#06012:00130024
#0601b:00130000
#06018:1333000000230000
#06015:1333000000230000
#0601a:0000003300002400
#06014:0000003300000000
#06212:13000000000000000013000000000000
#06216:0000001300000000
#06217:0000000000130000
#00716:13000014000013000000000000000000
#00718:0000000000130000
#00712:0000140000000013
#0071b:1300001300001300
#00715:00000000000000000000001300000000
#00717:0000000000000013
#01018:0000000014130000
#01012:0013000014001300
#01015:00000000000000000000001300000000
#0101b:00000013
#0101a:14
#01014:14130000
#01016:0000001300000000
#01017:00000013000000000000000000000000
#01019:00000000001300000000000000000000
#0081b:0013000013001300
#00819:00130000
#00817:0013001300130000
#00812:1313
#00814:00000000000000000000003300000000
#0091b:0000130000130000
#00917:2300001300000013
#00916:00000013000000000000001300000000
#00912:2300001300000000
#00919:00001313
#00914:00000000000000000000000000130000
#01115:13
#0111b:1300001300000000
#01112:0000130000130000
#01117:00000013000000000000001300000000
#01116:0000001300000013
#01114:00001313
#01119:00000000000000000000000000130000
#01212:14000013
#01214:00000000001300001400000000000000
#0121b:0013000000001300
#01219:00130000
#01217:0000001300000000
#01216:00000013000000000000000000000000
#01218:14000000000000000000001300000000
#0121a:0014
#01215:0000000000130000
#01512:1400140000140014
#01516:00140014000000000014001400000000
#0151a:0014001414001400
#01916:1414141414141414
#0191a:00140000000000000000001400000000
#01912:00000014000000000014000000000000
#02018:1600160016001613
#02012:1600160016131600
#02015:0013000000000000
#0201b:0000001300000000
#02117:2300001300001400
#0211a:0000000000140000
#02116:00000015150000001300000000000000
#02112:23000000000013000000000000140000
#02115:00000000000000000000001400000000
#02114:0000000000000014
#0211b:0013
#02110:41
#02216:1300000000141400
#0221a:00000000001400000000140000000000
#0221b:13
#02212:0014000013001400
#02217:00000014000000001300000000000000
#02215:00140000
#02218:0000001400000000
#03612:1600161316001600
#03618:1613160016001600
#0361b:0000000000130000
#03615:0000000000000013
#05412:0000000013000013
#05416:0000000000130000
#0541b:1300131300130000
#05417:00141400000000001300000000000000
#05414:00000013000000000000000000000000
#05418:0000000000000016
#04612:1300000000131600
#0461b:13000013
#04618:00001300160000000000001300000000
#04615:00000013000000000000000000000000
#04616:0014
#0161b:00000013
#0161a:0013
#01619:00130000
#01618:13000000000000000000141400000000
#01612:13
#01613:00130000
#01614:0013
#01615:00000013
#01616:0014000000000000
#01617:0000001400000000
#03212:00000013
#03213:0013
#03214:00000000130000000000141400000000
#03215:1300001400000000
#0321b:13
#0321a:00130000
#03219:0013
#03218:00000013
#03216:0014000000000000
#0641b:13000000000000000013000000000000
#06417:0000001300000000
#06416:0000000000130000
#06612:13000000000000000013000000000000
#06616:0000001300000000
#06617:0000000000130000
#03113:00130000000000000000130000000000
#0311a:00001300000000000013000000000000
#03116:14000014000000001400001400000000
#03112:00130013
#0311b:00130013
#03114:0000001300000013
#03119:0000001300000013
#00457:0012
#01352:0000000000630000
#01356:00000023
#01757:000000000000000000000000000000000000000000000000000000000000000000000000000000000000000000000000000000000000000000000000000000000000000000000000000000000000000000000000000000000000000000000000000000000000000000000000000000000000000000000000000000000000000000000000000000000000000000000000000000000000000000000000000000000000000000000000000000000000000000000000000000000000000000000000000000000000000000000000000000000000000000000000000000000000000000000000000000000000000000000000000000000000000000000000000000000000000000000000000000000000000000000000000000000000000000000000000000000000000000000000000000000000000000000000000000000000000000000000000000000000000000000000000000000000000000000000000000000000000000000000000000000000000000000000000000000000000000000000000000000000000000000000000000000000000000000000000000000000000000000000000000000000000000000000000000000000000000000000000000000000000000000000000000000000000000000000000000000000000000000000000000000000000000000000000000000000000000000000000000000000000000000000000000000000000000000000000000000000000000000000000000000000000000000000000000000000000000000000000000000000000000000000000000000000000000000000000000000000000000000000000000000000000000000000000000000000000000000000000000000000000000000000000000000000000000000000000000000000000000000000000000000000000000000000000000000000000000000000000000000000000000000000000000000000000000000000000000000000000000000000000000000000000000000000000000000000000000000000000000000000000000000000000000000000000000000000000000000000000000000000000000000000000000000000000000000000000000000000000000000000000000000000000000000000000000000000000000000000000000000000000000000000000000000000000000000000000000000000000000000000000000000000000000000000000000000000000000000000000000000000000000000000000000000000000000000000000000000000000000000000000000000000000000000000000000000000000000000000000000000000000000000000000000000000000000000000000000000000000000000000000000000000000000000000000000000000000000000000000000000000000000000000000000000000000000000000000000000000000000000000000000000000000000000000000000000000000000000000000000000000000000000000000000000000000000000000000000000000000000000000000000000000000000000000000000000000000000000000000000000000000000000000000000000000000000000000000000000000000000000000000000000000000000000000000000000000000000000000000000000000000000000000000000000000000000000000000000000000000000000000000000000000000000000000000000000000000000000000000000000000000000000000000000000000000000000000000000000000000000000000000000000000000000000000000000000000000000000000000000000000000000000000000000000000000000000000000000000000000000000000000000000000000000000000000000000000000000000000000000000000000000000000000000000000000000000000000000000000000000000000000000000000000000000000000000000000000000000000000000000000002300000000000000000000000000000000000000000000000000000000000000000000000000000000000000000000000000000000000000000000000000000000000000000000000000000000000000000000000000000000000000000000000000000000000000000000000000000000000000000000000000000000000000000000000000000000000000000000000000000000000000000000000000000000000000000000000000000000000000000000000000000000000000000000000000000000000000000000000000000000000000000000000000000000000000000000000000000000000000000000000000000000000000000000000000000000000000000000000000000000000000000000000000000000000000000000000000000000000000000000000000000000000000000000000000000000000000000000000000000000000000000000000000000000000000000000000000000000000000000000000000000000000000000000000000000000000000000000000000000000000000000000000000000000000000000000000000000000000000000000000000000000000000000000000000000000000000000000000000000000000000000000000000000000000000000000000000000000000000000000
#0175b:0000000000530000
#01756:00000023
#01752:0000000000630000
#04856:00000046
#04854:0000000000360000
#06052:00230034
#0605a:00000044
#06055:5300000000330000
#06058:5300000000430000
#0605b:00230000
#05254:00000036
#05256:0000000000460000
#0585a:6464
#05856:0024002400240000
#05852:00540000
#06854:00000012
#0685a:00000012
#06853:0000000000540000
#06859:0000000000540000
#02956:00000023
#02952:0000000000630000
#04458:0000000000234600
#0445b:0053
#04452:00006336
#04455:0000000000230000
#06156:63
#06152:0000005300000000
#00656:0053000000000000
#00652:00000033
#02852:00000033
#0285b:00000043
#03052:00000033
#03356:000000000000000000000000000000000000000000000000000000000000000000000000000000000000000000000000000000000000000000000000000000000000000000000000000000000000000000000000000000000000000000000000000000000000000000000000000000000000000000000000000000000000000000000000000000000000000000000000000000000000000000000000000000000000000000000000000000000000000000000000000000000000000000000000000000000000000000000000000000000000000000000000000000000000000000000000000000000000000000000000000000000000000000000000000000000000000000000000000000000000000000000000000000000000000000000000000000000000000000000000000000000000000000000000000000000000000000000000000000000000000000000000000000000000000000000000000000000000000000000000000000000000000000000000000000000000000000000000000000000000000000000000000000000000000000000000000000000000000000000000000000000000000000000000000000000000000000000000000000000000000000000000000000000000000000000000000000000000000000000000000000000000000000000000000000000000000000000000000000000000000000000000000000000000000000000000000000000000000000000000000000000000000000000000000000000000000000000000000000000000000000000000000000000000000000000000000000000000000000000000000000000000000000000000000000000000000000000000000000000000000000000000000000000000000000000000000000000000000000000000000000000000000000000000000000000000000000000000000000000000000000000000000000000000000000000000000000000000000000000000000000000000000000000000000000000000000000000000000000000000000000000000000000000000000000000000000000000000000000000000000000000000000000000000000000000000000000000000000000000000000000000000000000000000000000000000000000000000000000000000000000000000000000000000000000000000000000000000000000000000000000000000000000000000000000000000000000000000000000000000000000000000000000000000000000000000000000000000000000000000000000000000000000000000000000000000000000000000000000000000000000000000000000000000000000000000000000000000000000000000000000000000000000000000000000000000000000000000000000000000000000000000000000000000000000000000000000000000000000000000000000000000000000000000000000000000000000000000000000000000000000000000000000000000000000000000000000000000000000000000000000000000000000000000000000000000000000000000000000000000000000000000000000000000000000000000000000000000000000000000000000000000000000000000000000000000000000000000000000000000000000000000000000000000000000000000000000000000000000000000000000000000000000000000000000000000000000000000000000000000000000000000000000000000000000000000000000000000000000000000000000000000000000000000000000000000000000000000000000000000000000000000000000000000000000000000000000000000000000000000000000000000000000000000000000000000000000000000000000000000000000000000000000000000000000000000000000000000000000000000000000000000000000000000000000000000000000000000000000000000002300000000000000000000000000000000000000000000000000000000000000000000000000000000000000000000000000000000000000000000000000000000000000000000000000000000000000000000000000000000000000000000000000000000000000000000000000000000000000000000000000000000000000000000000000000000000000000000000000000000000000000000000000000000000000000000000000000000000000000000000000000000000000000000000000000000000000000000000000000000000000000000000000000000000000000000000000000000000000000000000000000000000000000000000000000000000000000000000000000000000000000000000000000000000000000000000000000000000000000000000000000000000000000000000000000000000000000000000000000000000000000000000000000000000000000000000000000000000000000000000000000000000000000000000000000000000000000000000000000000000000000000000000000000000000000000000000000000000000000000000000000000000000000000000000000000000000000000000000000000000000000000000000000000000000000000000000000000000000000000
#03352:0000000000630000
#03357:00000023
#0335b:0000000000530000
#0345b:00000043
#03856:00344434
#04056:00443444
#04256:00344434
#04356:44
#05656:0000000000344400
#06357:53
#0635b:0000006300000000
#06556:63
#06552:0000005300000000
#06256:0000005300004300
#06252:00000000000000000023000000000000
#06257:0000000000430000
#01058:0000000000430000
#01052:00000033
#00857:0063000000000000
#0085b:00000043
#00952:0000006300000000
#0115b:0000005300000000
#01255:0000000000330000
#0125b:00000043
#01552:00640000
#0155a:00000054
#01956:00640054
#02052:00160016
#02058:1616
#02357:0023
#0235b:0000006300000000
#02256:0000000000340000
#02252:00000034
#02152:0000005300000000
#02156:0023
#02556:0000006300000000
#02552:0023
#0255b:53
#02757:0000005300000000
#0275b:0023
#02752:63
#03652:1616
#03658:00160016
#05356:00006343
#0535b:00000043
#05352:0000000000230000
#05357:0000000000230000
#05456:0000000000230000
#0545b:0000000000230000
#05457:00005333
#05452:00000033
#05557:0000000000230000
#05552:0000000000230000
#05556:00006343
#0555b:00000043
#04552:00000033
#0465b:00000043
#04952:00000033
#0505b:00000043
#01658:43
#01659:00430000
#0165a:0043
#0165b:00000043
#03252:00000033
#03253:0033
#03254:00330000
#03255:33
#02456:0000000000440000
#0245a:00000044
#02656:0000000000340000
#02652:00000034
#0645b:00000000000000000023000000000000
#06457:0000006300003300
#06456:0000000000330000
#06652:00000000000000000023000000000000
#06656:0000005300004300
#06657:0000000000430000
#002360:13
#002320:00000023000000000000000000000000
#002371:00000013000000000000000000000000
#0023b1:0000002300000000
#0053b1:0000000013230000
#006361:0013000000000000
#0063b1:0000002300000000
#0063b1:0000000000130000
#006391:00000000000000000000003300000000
#006371:00000023
#007321:0000000013230000
#008371:0013000000000000
#008321:0000002300000000
#008321:0000000000130000
#008341:00000000000000000000003300000000
#008361:00000023
#009321:0000001300000000
#009371:0000000000230000
#0113b1:0000001300000000
#011361:0000000000230000
#013361:0000001323000000
#0133b0:0000000013230000
#013321:0000000000130023
#013361:00000053
#015321:00140000
#015361:0000002400000000
#0153a1:00000014
#015361:0000000000000024
#0173b1:13230000
#017381:0033000000000000
#017350:0013002300000000
#017320:00330000
#0173b1:0000001300330023
#017381:0033
#017371:000000000000000000000000000000000000000000000000000000000000000000000000000000000000000000000000000000000000000000000000000000000000000000000000000000000000000000000000000000000000000000000000000000000000000000000000000000000000000000000000000000000000000000000000000000000000000000000000000000000000000000000000000000000000000000000000000000000000000000000000000000000000000000000000000000000000000000000000000000000000000000000000000000000000000000000000000000000000000000000000000000000000000000000000000000000000000000000000000000000000000000000000000000000000000000000000000000000000000000000000000000000000000000000000000000000000000000000000000000000000000000000000000000000000000000000000000000000000000000000000000000000000000000000000000000000000000000000000000000000000000000000000000000000000000000000000000000000000000000000000000000000000000000000000000000000000000000000000000000000000000000000000000000000000000000000000000000000000000000000000000000000000000000000000000000000000000000000000000000000000000000000000000000000000000000000000000000000000000000000000000000000000000000000000000000000000000000000000000000000000000000000000000000000000000000000000000000000000000000000000000000000000000000000000000000000000000000000000000000000000000000000000000000000000000000000000000000000000000000000000000000000000000000000000000000000000000000000000000000000000000000000000000000000000000000000000000000000000000000000000000000000000000000000000000000000000000000000000000000000000000000000000000000000000000000000000000000000000000000000000000000000000000000000000000000000000000000000000000000000000000000000000000000000000000000000000000000000000000000000000000000000000000000000000000000000000000000000000000000000000000000000000000000000000000000000000000000000000000000000000000000000000000000000000000000000000000000000000000000000000000000000000000000000000000000000000000000000000000000000000000000000000000000000000000000000000000000000000000000000000000000000000000000000000000000000000000000000000000000000000000000000000000000000000000000000000000000000000000000000000000000000000000000000000000000000000000000000000000000000000000000000000000000000000000000000000000000000000000000000000000000000000000000000000000000000000000000000000000000000000000000000000000000000000000000000000000000000000000000000000000000000000000000000000000000000000000000000000000000000000000000000000000000000000000000000000000000000000000000000000000000000000000000000000000000000000000000000000000000000000000000000000000000000000000000000000000000000000000000000000000000000000000000000000000000000000000000000000000000000000000000000000000000000000000000000000000000000000000000000000000000000000000000000000000000000000000000000000000000000000000000000000000000000000000000000000000000000000000000000000000000000000000000000000000000000000000000000000000000000000005300000000000000000000000000000000000000000000000000000000000000000000000000000000000000000000000000000000000000000000000000000000000000000000000000000000000000000000000000000000000000000000000000000000000000000000000000000000000000000000000000000000000000000000000000000000000000000000000000000000000000000000000000000000000000000000000000000000000000000000000000000000000000000000000000000000000000000000000000000000000000000000000000000000000000000000000000000000000000000000000000000000000000000000000000000000000000000000000000000000000000000000000000000000000000000000000000000000000000000000000000000000000000000000000000000000000000000000000000000000000000000000000000000000000000000000000000000000000000000000000000000000000000000000000000000000000000000000000000000000000000000000000000000000000000000000000000000000000000000000000000000000000000000000000000000000000000000000000000000000000000000000000000000000000000000000000000000000000000000000
#017350:0013
#017320:0000000000330023
#017360:00000053
#019360:00140000
#0193a0:0000002400000000
#019360:00000014
#019320:0000000000000024
#021320:0000001300230000
#021360:0053
#0233b0:0000001300230000
#023370:0053
#0253b0:13
#025370:00000023000000000000000000000000
#025360:0000001300230000
#025320:0053
#0253b1:00000000000000000000132300000000
#025381:00000000000000000000000013230000
#026321:00001323000000000000000000000000
#026351:00000000132300000000000000000000
#027321:13
#027361:00000023000000000000000000000000
#027371:0000001300230000
#0273b1:0053
#027320:00000000000000000000132300000000
#027350:00000000000000000000000013230000
#029320:0000001300000000
#029360:0023
#0293b1:0013
#029371:0000000000230000
#029320:0000000000130023
#029360:00000053
#0303b0:0013
#030370:00000023
#030341:0000000000130000
#030321:00000023
#033321:13230000
#033351:0033000000000000
#033380:0013002300000000
#0333b0:00330000
#033321:0000001300330023
#033351:0033
#033361:000000000000000000000000000000000000000000000000000000000000000000000000000000000000000000000000000000000000000000000000000000000000000000000000000000000000000000000000000000000000000000000000000000000000000000000000000000000000000000000000000000000000000000000000000000000000000000000000000000000000000000000000000000000000000000000000000000000000000000000000000000000000000000000000000000000000000000000000000000000000000000000000000000000000000000000000000000000000000000000000000000000000000000000000000000000000000000000000000000000000000000000000000000000000000000000000000000000000000000000000000000000000000000000000000000000000000000000000000000000000000000000000000000000000000000000000000000000000000000000000000000000000000000000000000000000000000000000000000000000000000000000000000000000000000000000000000000000000000000000000000000000000000000000000000000000000000000000000000000000000000000000000000000000000000000000000000000000000000000000000000000000000000000000000000000000000000000000000000000000000000000000000000000000000000000000000000000000000000000000000000000000000000000000000000000000000000000000000000000000000000000000000000000000000000000000000000000000000000000000000000000000000000000000000000000000000000000000000000000000000000000000000000000000000000000000000000000000000000000000000000000000000000000000000000000000000000000000000000000000000000000000000000000000000000000000000000000000000000000000000000000000000000000000000000000000000000000000000000000000000000000000000000000000000000000000000000000000000000000000000000000000000000000000000000000000000000000000000000000000000000000000000000000000000000000000000000000000000000000000000000000000000000000000000000000000000000000000000000000000000000000000000000000000000000000000000000000000000000000000000000000000000000000000000000000000000000000000000000000000000000000000000000000000000000000000000000000000000000000000000000000000000000000000000000000000000000000000000000000000000000000000000000000000000000000000000000000000000000000000000000000000000000000000000000000000000000000000000000000000000000000000000000000000000000000000000000000000000000000000000000000000000000000000000000000000000000000000000000000000000000000000000000000000000000000000000000000000000000000000000000000000000000000000000000000000000000000000000000000000000000000000000000000000000000000000000000000000000000000000000000000000000000000000000000000000000000000000000000000000000000000000000000000000000000000000000000000000000000000000000000000000000000000000000000000000000000000000000000000000000000000000000000000000000000000000000000000000000000000000000000000000000000000000000000000000000000000000000000000000000000000000000000000000000000000000000000000000000000000000000000000000000000000000000000000000000000000000000000000000000000000000000000000000000000000000000000000000000000000000000005300000000000000000000000000000000000000000000000000000000000000000000000000000000000000000000000000000000000000000000000000000000000000000000000000000000000000000000000000000000000000000000000000000000000000000000000000000000000000000000000000000000000000000000000000000000000000000000000000000000000000000000000000000000000000000000000000000000000000000000000000000000000000000000000000000000000000000000000000000000000000000000000000000000000000000000000000000000000000000000000000000000000000000000000000000000000000000000000000000000000000000000000000000000000000000000000000000000000000000000000000000000000000000000000000000000000000000000000000000000000000000000000000000000000000000000000000000000000000000000000000000000000000000000000000000000000000000000000000000000000000000000000000000000000000000000000000000000000000000000000000000000000000000000000000000000000000000000000000000000000000000000000000000000000000000000000000000000000000000000
#033380:0013
#0333b0:0000000000330023
#033370:00000053
#034320:0013
#034360:00000023
#034391:0000000000130000
#0343b1:00000023
#037361:1300005323000000
#037321:0053330000000000
#039371:1300005323000000
#0393b1:0053330000000000
#041321:1300005323000000
#041361:0053330000000000
#0413b0:1300005323000000
#041370:000000000000000000000000000000000000000000000000000000000000000000000000000000000000000000000000000000000000000000000000000000000000000000000000000000000000000000000000000000000000000000000000000000000000000000000000000000000000000000000000000000000000000000000000000000000000000000000000000000000000000000000000000000000000000000000000000000000000000000000000000000000000000000000000000000000000000000000000000000000000000000000000000000000000000000000000000000000000000000000000000053000000000000000000000000000000000000000000000000000000000000000000000000000000000000000000000000000000000000000000000000000000000000000000000000000000000000000000000000000000000000000000000000000000000000000000000000000000000000000000000000000000000000000000000000000000000000000000000000000000000000000000000000000000000000000000000000000000000000000000000000000000000000000000000000000000000000000000000000000000000000000000000000000000000000000000000000000000000000000033000000000000000000000000000000000000000000000000000000000000000000000000000000000000000000000000000000000000000000000000000000000000000000000000000000000000000000000000000000000000000000000000000000000000000000000000000000000000000000000000000000000000000000000000000000000000000000000000000000000000000000000000000000000000000000000000000000000000000000000000000000000000000000000000000000000000000000000000000000000000000000000000000000000000000000000000000000000000000000000000000000000000000000000000000000000000000000000000000000000000000000000000000000000000000000000000000000000000000000000000000000000000000000000000000000000000000000000000000000000000000000000000000000000000000000000000000000000000000000000000000000000000000000000000000000000000000000000000000000000000000000000000000000000000000000000000000000000000000000000000000000000000000000000000000000000000000000000000000000000000000000000000000000000000000000000000000000000000000000000000000000000000000000000000000000000000000000000000000000000000000000000000000000000000000000000000000000000000000000000000000000000000000000000000000000000000000000000000000000000000000000000000000000000000000000000000000000000000000000000000000000000000000000000000000000000000000000000000000000000000000000000000000000000000000000000000000000000000000000000000000000000000000000000000000000000000000000000000000000000000000000000000000000000000000000000000000000000000000000000000000000000000000000000000000000000000000000000000000000000000000000000000000000000000000000000000000000000000000000000000000000000000000000000000000000000000000000000000000000000000000000000000000000000000000000000000000000000000000000000000000000000000000000000000000000000000000000000000000000000000000000000000000000000000000000000000000000000000000000000000000000000000000000000000000000000000000000000000000000000000000000000000000000000000000000000000000000000000000000000000000000000000000000000000000000000000000000000000000000000000000000000000000000000000000000000000000000000000000000000000000000000000000000000000000000000000000000000000000000000000000000000000000000000000000000000000000000000000000000000000000000000000000000000000000000000000000000000000000000000000000000000000000000000000000000000000000000000000000000000000000000000000000000000000000000000000000000000000000000000000000000000000000000000000000000000000000000000000000000000000000000000000000000000000000000000000000000000000000000000000000000000000000000000000000000000000000000000000000000000000000000000000000000000000000000000000000000000000000000000000000000000000000000000000000000000000000000000000000000000000000000000000000000000000000000000000000000000000000000000000000000000000000000000000000000000000000000000000000000000000000000000000000000000000000000000000000000000000000000000000000000000000000000000000000000000000000000000000000000000000
#0443b0:0013
#0443a0:000000000000000000000000003300000000000000000000
#044390:000000000000003300000000
#044380:000000000000000000000000000000333333260000000000
#044321:00001326
#044331:000000000000000000000000003300000000000000000000
#044341:000000000000003300000000
#044351:000000000000000000000000000000333333000000000000
#0453b1:0000132300000000
#045320:0000001323000000
#046320:0000132300000000
#0463b1:0000001323000000
#0473b1:0000132300000000
#047320:0000001323000000
#047360:0000000000000013
#048320:33332300
#048360:0033003300000000
#049320:00130000
#049360:0000002300000000
#049380:00000000000000000000132300000000
#0503b0:00130000
#050370:0000002300000000
#050350:00000000000000000000132300000000
#051320:00130000
#051360:0000002300000000
#051370:0000000000000013
#0523b0:33332300
#052370:0033003300000000
#053360:0000132300000000
#053360:00001323
#053320:0000000000330000
#053371:0000000000130000
#0533b1:00000023
#054371:0000132300000000
#054371:00001323
#0543b1:0000000000330000
#054360:0000000000130000
#054320:00000023
#055360:0000132300000000
#055360:00001323
#055320:0000000000330000
#055371:0000000000130000
#0553b1:00000023
#055361:0000000000000013
#056321:23
#0563b1:0013000000000000
#056371:00230000
#056361:0000001300000000
#056321:0023
#057361:00001333
#057321:0000000000330023
#0583a1:14240000
#058361:0034000000000000
#058320:00142400
#058360:0000003400000000
#0583a1:00001424
#058361:0000000000340000
#0593b1:1323000000000000
#059320:1323000000000000
#059350:0000000013230000
#059381:0000000000132300
#059320:0000000000001323
#060350:1333000033230000
#060320:00330000
#060340:0000003300000000
#060381:1333000033230000
#0603b1:00330000
#0603a1:0000003300000000
#061361:13
#061321:00000023000000000000000000000000
#061321:0000001300000000
#061371:0000000000230000
#061321:00000000000000000000000000132300
#061350:0000000000000013
#062350:0023000000000000
#062321:00001323000000000000000000000000
#062380:00000013230000000000000000000000
#062341:00000000132300000000000000000000
#0623b0:00000000001300002300000000000000
#062361:0000001300002300
#062321:00000000000000000053000000000000
#063371:13
#0633b1:00000023000000000000000000000000
#0633b1:0000001300000000
#063361:0000000000230000
#0633b1:00000000000000000000000000132300
#063380:0000000000000013
#064380:0023000000000000
#0643b1:00001323000000000000000000000000
#064350:00000013230000000000000000000000
#064391:00000000132300000000000000000000
#064320:00000000001300002300000000000000
#064371:0000001300002300
#0643b1:00000000000000000053000000000000
#065361:13
#065321:00000023000000000000000000000000
#065321:0000001300000000
#065371:0000000000230000
#065321:00000000000000000000000000132300
#065350:0000000000000013
#066350:0023000000000000
#066321:00001323000000000000000000000000
#066380:00000013230000000000000000000000
#066341:00000000132300000000000000000000
#0663b0:00000000001300002300000000000000
#066361:0000001300002300
#066321:00000000000000000053000000000000
#068331:0000000000140000
#068341:00000022
#068390:0000000000140000
#0683a0:00000022
