This file was generated by Ched 2.6.2.0.
#TITLE ""
#ARTIST ""
#DESIGNER ""
#DIFFICULTY 0
#PLAYLEVEL
#SONGID ""
#WAVE ""
#WAVEOFFSET 0
#JACKET ""
#REQUEST "ticks_per_beat 480"
#00002: 4
#BPM01: 172
#00008: 01
#TIL00: ""
#HISPEED 00
#MEASUREHS 00
#00119:14140000
#00113:00001414
#00019:00001414
#00213:14140000
#00219:00001414
#00313:14140000
#0031a:00001414
#00314:00001414
#00418:14140000
#00412:14141500
#00419:0015
#0051a:1414
#00514:00140000
#00510:41
#0211a:14
#02118:0014
#02119:00140000
#02110:41
#04512:24140000
#04514:00001414
#04518:2400140000140000
#0451f:21
#04812:16161600
#04818:0016001600000000
#00618:1414
#00612:00140000
#0091a:14
#00918:0014
#00914:00140000
#0101a:14
#01018:0014
#01014:00140000
#00712:1414
#00718:00140000
#00814:1414
#0081a:00140000
#01112:14
#01114:0014
#01118:00140000
#01212:14
#01214:0014
#01218:00140000
#0131a:14
#01314:00140000
#01319:0014
#01313:00000014
#01310:41
#01418:14001414
#01414:0000000000140000
#01412:00140000
#02212:14
#02213:00140000
#02214:0014
#0231a:14
#02318:00140000
#02316:0014
#02414:00140000
#02412:14
#02416:0014
#0251a:14
#02514:0014
#02517:00140000
#02612:14
#02618:0014
#02615:00140000
#0271a:14
#02716:00140000
#02712:0014
#02812:14
#0281a:0014
#02816:00140000
#04413:0015001500000000
#04418:15152500
#0461a:14140000
#04614:1400140000140000
#04618:00001414
#05218:16161600
#05212:0016001600000000
#05618:16161600
#05612:0016001600000000
#05412:14141400
#0541a:14140000
#05414:00000014
#05418:0000000000140000
#05518:14
#05514:0014
#06018:16162600
#06012:0016001600000000
#0371f:11
#0381a:14
#03814:14
#03818:0014
#03812:0014
#04018:14
#04012:14
#0401a:0014
#04014:0014
#04212:1414
#0421a:1414
#0511a:14
#05112:0014
#05814:1414
#05818:00140000
#05919:14000014
#05913:14000014
#0591a:00141400
#05912:00141400
#06514:00140014
#0651a:14
#06518:0014
#06113:0014
#06119:00000014
#0611a:00140000
#06114:14
#06110:41
#06218:00140000
#06212:1414
#0661a:14
#06618:00140014
#06614:0014
#06612:14
#01612:14000014
#01618:14000014
#01614:00141400
#0161a:00141400
#01712:14
#01718:00140000
#01713:0014
#01719:00000014
#01814:14001414
#01818:0000000000140000
#0181a:00140000
#0291a:14
#02912:00140000
#02918:0014
#02914:00000014
#02910:41
#03018:00001414
#0301a:14
#03014:0000000000140000
#03012:00140000
#03212:14140000
#03218:0014000000000000
#0321a:00001414
#03214:0000000000140000
#03112:14
#0311a:0014
#03312:14
#0331a:00140000
#03314:0014
#03318:00000014
#03414:00001414
#03412:14
#03418:0000000000140000
#0341a:00140000
#0351a:14
#03512:0014
#06319:0014
#06313:00000014
#06312:00140000
#06318:14
#06414:00140000
#0641a:1414
#06712:14
#0671a:0000000000130013
#06715:00000013
#06813:0013001300000000
#06819:0000000000130000
#06814:00000013
#06818:00130000
#0201a:14000014
#02014:14000014
#02018:00141400
#02012:00141400
#0361a:14140000
#03614:0014000000000000
#03612:00001414
#03618:0000000000140000
#0491a:14140000
#04914:1400140000140000
#04918:00001414
#05012:14140000
#05018:1400140000140000
#05014:00001414
#0531a:24141400
#05318:00000014
#05312:24140000
#05314:0000000000140000
#0571a:14141400
#05712:14140000
#05718:00000014
#05714:0000000000140000
#04710:41
#05558:64
#05554:0064
#04458:0015
#0515a:64
#05152:0064
#04852:0016
#05258:0016
#05658:0016
#05854:1414
#05858:00140000
#03152:54
#0315a:0054
#0355a:64
#03552:0064
#06058:0016
#06859:0000000000130000
#06854:00000013
#015320:14
#015340:00240000
#0153a0:0014
#015380:00000024
#0193a0:14
#019380:00240000
#019320:0014
#019340:00000024
#031320:14
#031340:00240000
#0313a0:0014
#031380:00000024
#0353a0:14
#035380:00240000
#035320:0014
#035340:00000024
#037320:14
#037340:00342400
#037381:14
#0373a1:00342400
#0393a1:14
#039381:00342400
#039340:14
#039320:00342400
#041320:14
#041340:00342400
#0413a1:14
#041381:00342400
#0433a1:14
#043381:00240000
#043321:0014
#043341:00000024
#047321:14
#047341:00240000
#0473a1:0014
#047381:00000024
#0513a1:14
#051381:00240000
#051321:0014
#051341:00000024
#055381:14
#0553a1:00240000
#055341:0014
#055321:00000024
