This file was generated by Ched 2.6.2.0.
#TITLE ""
#ARTIST ""
#DESIGNER ""
#DIFFICULTY 0
#PLAYLEVEL
#SONGID ""
#WAVE ""
#WAVEOFFSET 0
#JACKET ""
#REQUEST "ticks_per_beat 480"
#00002: 4
#BPM01: 123
#00008: 01
#TIL00: ""
#HISPEED 00
#MEASUREHS 00
#00119:14
#00213:14
#00319:14
#00413:14
#0051a:14
#00510:41
#01319:14
#01310:41
#03719:14
#03713:0014
#03819:14
#03813:0014
#03912:0016
#03918:26
#03910:41
#04018:1616
#04112:16
#04118:0016
#06214:1414
#06412:1414
#06519:14
#06513:0014
#06619:14
#06613:0014
#06713:0014
#06719:14
#06813:0014
#06819:14
#0211a:1414
#02110:41
#02214:1414
#0471f:11
#04719:1414
#00614:14
#00718:14
#00812:14
#0091a:14
#01014:14
#01118:14
#01212:14
#01419:14
#01513:14
#01613:14
#01719:14
#01819:14
#01913:14
#02013:14
#02318:1414
#02412:1414
#02519:1414
#02613:1414
#02919:1414
#02910:41
#03019:14
#03113:1414
#03213:14
#03319:14
#03313:0014
#03419:14
#03513:14
#03519:0014
#03613:14
#04212:1616
#04318:0016
#04312:26
#04412:1616
#04518:16
#04512:0016
#04618:1616
#04813:1414
#05312:0016
#05314:24
#0531a:24
#0531f:21
#05418:1616
#05512:16
#05518:0016
#05510:41
#05612:16
#05618:0016
#05718:2416
#05712:24
#05812:1616
#05918:16
#05912:0016
#06018:16
#06012:0016
#0611a:1414
#06318:1414
#07019:0014
#07213:00000014
#07219:00000014
#027390:1424
#028330:1424
#049390:14
#050390:24
#051330:14
#052330:24
#069390:14
#070390:24
#071330:14
#072330:24
