This file was generated by Ched 2.6.2.0.
#TITLE ""
#ARTIST ""
#DESIGNER ""
#DIFFICULTY 0
#PLAYLEVEL
#SONGID ""
#WAVE ""
#WAVEOFFSET 0
#JACKET ""
#REQUEST "ticks_per_beat 480"
#00002: 4
#BPM01: 123
#00008: 01
#TIL00: ""
#HISPEED 00
#MEASUREHS 00
#00217:13000013
#00212:13001313
#00216:0000000000130000
#0021b:00001300000000130000130000000000
#00215:00130000
#00218:00000000001300000000000000000000
#00012:13000000000013000000000000130000
#00014:00000000130000000000001300000000
#00016:00000000000000000013000000000000
#00019:00130013
#00017:0000000000000013
#0001b:1300001300130000
#00118:00000000130000000000001300000000
#00115:00000000001300000000000013000000
#00112:00001300000000000013000000000000
#0011b:13000000000000130000000000001300
#00116:13
#00517:0000001300000000
#0051b:1300000000130000
#00512:00000000230000130000000013000000
#00515:00000000000000000013000000001300
#00519:0013
#00510:41
#00612:1300000000130000
#0061b:13000000000000130000000013000000
#00613:00130000
#00616:0000001300000000
#00617:00000000000000000013000000000000
#00615:00000013
#00618:0013000000000013
#01418:00000013
#01415:13000000000000000000000000130000
#01417:0013
#0141b:00000000000013000000000000000013
#01412:00000013000000001300000000000013
#01416:0000001300000000
#01318:00000000000000000000001300000013
#01312:0000000000000013
#01315:0000000000130000
#01317:0013
#0131b:00130000
#01319:2400001300000000
#01313:24
#01310:41
#01912:13140013
#01916:00000000001400140000000000000000
#0191a:0014
#01917:13000013
#01919:0000000000000013
#01914:0000000000000013
#0201b:13130013
#02018:0000001300000000
#02012:00130013
#02015:00000000000000130000000000000000
#02014:0000000000000013
#02019:0000000000000013
#02016:13
#02918:2313000013000013
#0291b:00000000130013000000131300000000
#02910:41
#03018:13131300
#03015:0013001300130000
#03012:13000013
#03115:2313000000130013
#03112:00000000130013130000000013000000
#03215:13000000130000001300000000000013
#03218:0013001300130013
#0321b:13000013
#03315:00001300000013000000001300000000
#03312:00131300
#03318:00000013000000001300000000001300
#0331b:13000000000000000000131300000000
#0361b:13131323
#03612:0013001300130023
#03616:00131323
#03617:0000001300130023
#03618:0013000000000000
#0371b:00000000130000000013000000001300
#03716:00000000001300000000000000000000
#03712:00000000000000130000001300000000
#03715:00000000000000000013000000001300
#03717:00000013
#03718:00000000000000130000000000000000
#0381b:00130000
#03816:00000000001300000000000000000000
#03817:00000000000000130000000000000000
#03812:00001315
#03814:0000000000130000
#03819:0000000000131500
#03917:00000000000000000000001300000000
#0391a:14240000
#0391b:0013
#03916:00001400000000000013000000001400
#03912:24000013
#03910:41
#04719:0000000012120000
#04715:00000000000000000012000000000000
#0471f:11
#04713:0000000000000012
#04716:00000012
#0471b:00000012
#04718:0000000000000012
#0481b:1200001200121200
#04815:00120000001200000000001200000012
#04819:0012120012000012
#04813:00000012000000120012000000120000
#00817:00130000000000000013000000000000
#00812:1300001313000013
#00815:00000013000000000000001300000000
#00915:13
#00916:0000001300000000
#00912:0000000000130000
#0091b:00000000000000130000000013000000
#00918:00000000230000000013000000001300
#00914:0013
#01615:00000013
#01618:13000000000000000000000000130000
#01616:0013
#01612:0000001300000000
#0161b:00000013000000001300000000000013
#01617:0000001300000000
#01815:13
#01814:0000000000000013
#01816:0000001300001300
#01817:0013
#0181b:00130000000013000000000013000000
#01812:00000013000000001300000000000000
#01819:0000000000000013
#01718:00000000000000000000001300000013
#01712:2300000000000013
#01715:0000000000130000
#01717:0013
#0171b:00130000
#01719:0000001300000000
#01716:00130000
#02115:0000130000130000
#02112:24000000000000130000000000001300
#02118:00000000000000001300000000000013
#0211b:00130000
#0211a:24
#02110:41
#02218:0013001300000013
#02215:13000013
#0221b:00131313
#02212:0000000000000013
#02512:0000130000130013
#02518:00000000130000000000000000000013
#02517:13
#0251b:0013
#02515:00000000000000130000000000000000
#02612:0013001300000000
#02615:1300130013002313
#0261b:0000000000000013
#04117:0013
#04116:0014000000001300
#04112:2413
#0411a:14240000
#0421b:13000000000000000000001300000000
#04217:0013000000000013
#04213:00130000
#0421a:00130000
#04216:0000001300000000
#04212:0000000013000013
#04218:00000000000000000013000000000000
#04215:00000000000000000000001300000000
#04316:24000000000000000014001400001300
#0431b:0000000013000013
#04312:14240013
#04515:0013
#04518:00000013
#0451b:0013
#04512:14240000
#04516:24
#04916:00130000
#0491a:14
#0491b:00231300
#04919:00000013
#05216:14
#05214:0013000013000000
#0521a:00130000
#05219:0013000013000000
#05213:00130000
#05212:0000001300000000
#0521b:0000001300000000
#0531b:0013
#05316:00000000000000000013000000000000
#05312:24000000000014000000001300001300
#05315:0014000000000000
#05317:00000014
#0531a:1313240000000000
#0531f:21
#05512:2400001413000013
#0551b:00001313
#05518:0000000000130000
#05515:0014000000000000
#0551a:1313240000000000
#05510:41
#05615:13000000000000000013000000001300
#0561b:0013001300000013
#05618:00000000130000001300001300000000
#05612:00001300000013000000001300000000
#0571a:24000000000014000000001400000000
#05716:0014000000000000
#05712:1313000014000000
#05717:00000000000000000014000000000000
#05715:00000014
#05718:0000000000000013
#05714:00240000
#05812:24000000000014000000001400000000
#0581a:0014
#05815:00001400000000000014000000001300
#0581b:1313000000000000
#05817:00000014
#05818:00240000
#0591a:2400001400000000
#0591b:0000000013000013
#05912:1313000013001300
#05915:0000000000130000
#05917:0014000000000000
#05914:00240000
#06018:13000000000000000013000000001300
#06012:00001300000013000000001300000000
#06015:00131300
#0601b:0013001300000000
#07018:0000000013130000
#07015:1300000000001313
#07012:0013000023000000
#0701b:2300001300002300
#06115:1300001300001300
#0611a:00000000000000000000001400000014
#06119:0000000000141414
#06118:00000000000000000000000000140000
#0611b:13
#06112:0000130000000013
#06218:00140000001400000000000000000000
#06219:1414140000000000
#0621a:00000014000000000000000000000000
#06212:00130000
#06215:0000001300000000
#06718:13000000000000000013000000001300
#06715:00001300000000130000000000000000
#06712:13000000140000000013000000001300
#06716:00000000001400000000000014000000
#0671b:00001300000000130000000000000000
#0671a:00000000000000000000001400000000
#06816:14000014000000001300000000000000
#0681a:00140000000000000000000000000000
#06819:0000001300000000
#06812:00000000140000000000000013330033
#06814:0000001300000000
#0681b:00000000000000001333003300000000
#06818:0000000000130000
#06815:0000000000000013
#0631b:0000130013000013
#06312:1300001300001300
#06315:0013
#05116:13130000
#05117:00000013
#05119:0013
#0511b:00230000
#05017:13130000
#05012:00231300
#05014:00000013
#00416:13000013
#0041b:13001313
#00417:0000130000130000
#00412:00001300000000130000130000000000
#00414:00000000001300000000000000000000
#00316:00000000000000000000001300000000
#00314:00130000
#00317:13000000001300000000000000000000
#0031b:00001300000000000013000000000000
#00312:13000000000000130000000000001300
#00319:00000013
#01216:00130000000000000013000000000000
#0121b:1300001313000013
#01218:00000013000000000000001300000000
#01515:00000000000000000000001300000013
#0151b:0000000000000013
#01518:0000000000130000
#01516:0013
#01512:00130000
#01514:0000001300000000
#0231b:00000000000000130000000000001300
#02312:00000000130000000000000000000013
#02318:0000130000130000
#02315:0013
#02415:00130000000013000000000000000000
#02418:13
#02412:00000013000000001300000000000013
#02416:00000000000000000000000000130000
#0241b:00000013000000000000000013000000
#02712:0000001300000000
#02718:0000231300002300
#02715:0000000000000013
#0271b:0000000000000013
#02818:0000001300000000
#02812:0000001300000000
#02815:00230000
#03418:1300130013000013
#03412:13000013
#03415:00001300000013000000130000000013
#0351b:1300000000130000
#03512:0013000013000000
#03518:00001300000000130000000000001300
#03515:00000000000013000000001300000013
#04016:00001400000000000000001300001400
#04012:14241300
#04017:00000000000000000013000000000000
#0401b:00000013
#0401a:24
#04416:24000000000000000014001400000000
#04412:0000000013000013
#0441b:00000013
#04417:0000000000000013
#0441a:14240000
#04612:13000000000000000000001300130000
#04616:0013000000000000
#0461a:00130000
#04613:00130000
#04617:0000001300000000
#0461b:00000000000000001300001300000000
#04615:00000000000000000013000000000000
#04618:0000000000000013
#05412:00241300
#05417:00001400000000000013000000000000
#0541b:00000000000000000000001300001300
#05413:1313000000000000
#05415:00000014
#0541a:24
#0641b:00130000
#06412:1300001300000000
#06418:13
#06518:13000013
#06515:00131300
#06512:0000001300000000
#0651b:0000000013000013
#06618:13000013
#06615:00131300
#06612:1300001300000000
#0661b:0000000013000013
#0711b:1323
#07118:0000001300130000
#07115:0013000000000013
#07112:2313
#07218:0000001300130013
#07215:0013000013001300
#07212:2300000000130013
#0721b:13001313
#06912:0013000023000013
#0691b:0000001300130000
#06918:2313
#00712:1300000000130000
#00716:0000001300001300
#0071b:00000000230000130000000013000000
#00717:00000000000000000013000000000000
#00714:0000000000000013
#00719:0000000000000013
#01118:13
#01117:0000001300001300
#01112:00000000000000130000000013000000
#01116:00000000000000000013000000000000
#0111b:0000000000130000
#01119:0000000000000013
#01114:0000000000000013
#01115:00230000
#0101b:1300000000130000
#01012:13000000000000130000000013000000
#0101a:00130000
#01017:0000001300000000
#01016:00000000000000000013000000000000
#01018:00000013
#01015:0013000000000013
#00252:00000013
#00257:00000013
#03058:53535300
#03055:0053005300000000
#0305b:00000013
#00857:00530000000000000053000000000000
#0085b:0000001300000013
#01452:00000000000000000000000000000013
#0145b:00000000000000000000000000000013
#01756:00630000
#0215b:00530000
#02158:0053
#0215a:14
#02152:14
#0335b:63
#03358:00000023000000000000000000000000
#03355:00000000000000000000002300000000
#03352:0063
#0395a:00440000
#03956:0024000000000000
#03952:54340000
#04156:0024000000006300
#04157:0063
#0415a:00440000
#04152:54340000
#04555:0053
#04558:00000053
#04552:00140000
#04556:54
#0455a:00140000
#04956:00530000
#0495a:14
#05254:0013
#05259:0013
#05355:0024000000000000
#05357:00000064
#0535a:00440000
#05352:00340000
#05552:00345300
#0555b:00000053
#05555:0024000000000000
#0555a:00440000
#05756:0024000000000000
#05754:00440000
#05755:00000054
#0575a:54440000
#0595b:0063
#05952:00000063
#05957:0024000000000000
#05954:00440000
#0595a:64440000
#06158:00000000000000000000000000240000
#0615a:00000000000000000000002400000024
#06159:0000000000545454
#0615b:53
#06152:0000000000000013
#06258:00240000002400000000000000000000
#06259:5454540000000000
#0625a:00000024000000000000000000000000
#06255:0000001300000000
#06352:6300001300000000
#0635b:0000000063000013
#0685b:0053
#06858:0000000000230000
#06852:00000063
#06855:0000000000000023
#05156:00530000
#00456:00000013
#0045b:00000013
#01256:00630000000000000063000000000000
#01252:0000001300000013
#0185b:00530000000000000000000043000000
#01859:0000000000000043
#02557:13
#0255b:0063
#02558:00630000
#02655:0000000000000023
#0265b:0000000000000023
#02752:0000002300000000
#02758:0000002300000000
#02755:0000000000000023
#0275b:0000000000000023
#02858:0000002300000000
#02852:0000002300000000
#03255:63636300
#03258:0063006300000000
#03252:00000013
#03458:53535300
#03455:0063006300000000
#0345b:00000013
#06452:6300001300000000
#06558:63
#06552:0000001300000000
#06555:0053
#0655b:0000000000000013
#06658:63
#06655:0053
#05057:00630000
#02355:0063
#02352:00630000
#04352:00140000
#04356:54
#0435a:00140000
#07252:0000000000000013
#07258:0000000000000013
#01957:43
#01952:00000033
#01954:0000000000000033
#02056:33
#03859:00000015
#03852:00000015
#04056:0024000000000000
#04052:00340000
#0405a:64440000
#0445a:00140000
#04456:64
#04452:00140000
#05457:0024000000000000
#05452:00340000
#0545a:00440000
#05455:00000054
#05855:0024000000000000
#05852:54340000
#05858:00340000
#05857:00000064
#005320:13
#005350:0023000000000000
#005381:0013000000000000
#0053b1:00230000
#0073b1:13
#007381:0023000000000000
#007350:0013000000000000
#007320:00230000
#008370:00130000000000000000000000000000
#0083b0:00000053000023000000000000000000
#008370:00000000000000000013000000000000
#0083b0:00000000000000000000005300002300
#009380:13
#0093b0:0023000000000000
#009321:0013000000000000
#009351:00230000
#011351:13
#011321:0023000000000000
#0113b0:0013000000000000
#011380:00230000
#012360:00130000000000000000000000000000
#012320:00000053000023000000000000000000
#012360:00000000000000000013000000000000
#012320:00000000000000000000005300002300
#013360:00130000
#013320:0023
#0143b0:00130023000000000000000000000000
#015370:00130000
#0153b0:0023
#016320:00130023000000000000000000000000
#017360:00130000
#017320:0023
#0183b0:00130000000000000000000000000000
#018380:00000023000000000000000000000000
#0213b0:00130000
#021380:00000000000000230000000000000000
#021380:0013
#0213b0:0000000000230000
#022320:0013000000000000
#022350:00230000
#022320:0000001300000000
#022350:0023
#023320:00130000
#023350:00000000000000230000000000000000
#023350:0013
#023320:0000000000230000
#0243b0:0000001300000000
#024380:0023
#025380:00130000
#0253b0:00000000000000230000000000000000
#0253b0:0013
#025380:0000000000230000
#026380:0013000000000000
#0263b0:00230000
#026380:0000001300000000
#0263b0:0023
#0263b0:0000000000001353
#027380:23
#026351:0000000000000013
#027321:23
#027321:0000135300000000
#027351:0023
#027380:0000001300000000
#0273b0:0023
#027350:0000000000001353
#028320:23
#0273b1:0000000000000013
#028381:23
#028381:0000135300000000
#0283b1:0023
#028320:0000001300000000
#028350:0023
#029320:1300000000530023
#029350:0053000053000000
#030380:13
#0303b0:0023000000000000
#030351:0013000000000000
#030321:00230000
#030380:00130000
#0303b0:0000002300000000
#030351:0000001300000000
#030321:0023
#030380:0013
#0303b0:0000000000532300
#0313b0:1300000000530023
#031380:0053000053000000
#032350:13
#032320:0023000000000000
#032381:0013000000000000
#0323b1:00230000
#032350:00130000
#032320:0000002300000000
#032381:0000001300000000
#0323b1:0023
#032350:0013
#032320:0000000000532300
#0333b0:1300002300000000
#033380:00000053000000000000000000000000
#033320:0000000013000023
#033350:00000000000000000000005300000000
#034380:13
#0343b0:0023000000000000
#034351:0013000000000000
#034321:00230000
#034380:00130000
#0343b0:0000002300000000
#034351:0000001300000000
#034321:0023
#034380:0013
#0343b0:0000000000532300
#037350:1323000000000000
#0373b1:1323000000000000
#038381:1323000000000000
#038320:1323000000000000
#039320:14240000
#039360:0054000000000000
#0403a0:14240000
#040360:0054000000000000
#041320:14240000
#041360:0054000000000000
#041370:0013
#0413b0:00000023
#041361:00000013
#042321:23
#043361:14
#0433a1:00240000
#044361:14
#044321:00240000
#045361:14
#0453a1:00240000
#045351:0013
#045321:00000023
#045380:00000013
#0463b0:23
#0473b0:1222000000000000
#047351:0012220000000000
#047390:0000122200000000
#047331:0000001222000000
#049361:00130000
#049321:0000005300000000
#050321:23
#050371:00130000
#0503b1:0000005300000000
#0513b1:23
#051361:00130000
#051321:0000005300002300
#053321:14240000
#053351:0034000000000000
#053371:00000014
#0533a1:0000000000000024
#0543a1:14240000
#054371:0034000000000000
#054351:00000014
#054321:0000000000000024
#055321:14240000
#055351:0034000000000000
#055321:0013
#055351:00000023
#0553b0:00000013
#056380:23
#0573a0:14240000
#057360:0034000000000000
#057350:00000014
#057320:0000000000000024
#058320:14240000
#058350:0034000000000000
#058370:00000014
#0583a0:0000000000000024
#0593a0:14240000
#059370:0034000000000000
#0593b0:0013
#059380:00000023
#059321:00000013
#060351:23
#0613b1:13
#061381:00230000
#061391:0000000000145454
#0613a1:00000000000000000000005400000054
#061381:00000000000000000000000000540000
#062391:5454542400000000
#062381:00540000005400000000000000000000
#0623a1:00000054000000000000000000000000
#062321:0000000013230000
#0623b0:0000000000132300
#062351:0000000000001323
#062380:0000000000000013
#063380:23
#063321:13
#063351:00230000
#0633b1:0013
#063381:00000023
#064321:13
#064351:00230000
#064381:0000000013230000
#064350:0000000000132300
#0643b1:0000000000001323
#064320:0000000000000013
#065320:23
#065381:13
#0653b1:00230000
#065351:0013
#065321:00000023
#066381:13
#0663b1:00230000
#066351:0013
#066321:00000023
#0683b1:00000000000000001333003323000000
#068381:0000000000330000
#068320:00000000000000000000000013330033
#068350:0000000000000033
#069320:23
#069380:0013000000000000
#0693b0:00230000
#069321:00130000
#069351:0000002300000000
#069351:0000000000130000
#069321:00000023
#0693b0:00000013
#069380:0000000000000023
#070380:0013000000000000
#0703b0:00230000
#070321:00130000
#070351:0000002300000000
#071381:0013000000000000
#0713b1:00230000
#071350:00130000
#071320:0000002300000000
#071350:0000000000130000
#071320:00000023
#071381:00000013
#0713b1:0000000000000023
#072381:0013000000000000
#0723b1:00230000
#072350:00130000
#072320:0000002300000000
