This file was generated by Ched 2.6.2.0.
#TITLE ""
#ARTIST ""
#DESIGNER ""
#DIFFICULTY 0
#PLAYLEVEL
#SONGID ""
#WAVE ""
#WAVEOFFSET 0
#JACKET ""
#REQUEST "ticks_per_beat 480"
#00002: 4
#BPM01: 123
#00008: 01
#TIL00: ""
#HISPEED 00
#MEASUREHS 00
#00015:1300001300131313
#0001b:00000000000000000013001300130000
#00018:00130000
#00218:00000000001300001300000000000000
#0021b:0013000000001300
#00212:1300000000130000
#00215:00000000130000130000000000000000
#00118:00000000130000000000001300000000
#00115:00000000001300000000000013000000
#00112:00001300000000000013000000000000
#0011b:13000000000000130000000000001300
#0051b:0000000013130000
#00512:00000013
#00518:0000000000000013
#00515:00000000000000000013000000000000
#0051a:00240000
#00510:41
#00612:1300000000130013
#00615:00000000130000130000000000000000
#0061b:0000001300001300
#00618:00001300000000000013000000000000
#0141b:13000013000000000000000000000000
#01412:0000001300000000
#01418:0013
#01415:00130000000000000000000000000000
#01315:00000000000000000000001300000013
#0131b:0000000000000013
#01318:0000000000130000
#01310:41
#0181b:00000013000000000000000013000000
#01815:00130000000000000000000000001300
#01818:13
#01918:13000000001400000000000000001300
#01914:00000000140000140000000000000000
#01912:00000013
#02014:0000001400000000
#02018:00140000
#02015:13
#02918:0013000000130000
#02915:00000000130000000000001300000000
#0291b:2300001300000000
#02912:0013
#02910:41
#03718:00000000130000130013000013000000
#03715:13001300001300000000001300001300
#03712:00000000000000130013000000000000
#0371b:1313000000000013
#0391b:00000000000000001300001300000000
#03915:00000000000000000013000013000000
#03918:0000000000000013
#0391a:24
#03910:41
#04719:0000000012120000
#0471f:11
#04715:00000000000000000012000000000000
#0471a:12120000
#04714:0012001200000000
#0481b:1212000012120000
#04815:00120012000000000012001200000000
#04819:0000121200001212
#04813:00000000001200120000000000120012
#01712:0000000000000013
#01718:00000000130000000000001300000000
#01715:0000000000130000
#02112:2400000000000013
#02118:00000000000000001300000000000013
#0211b:00130000
#0211a:24
#02110:41
#0221b:0013000000000000
#02215:13130000
#02218:0000001300000000
#02212:0013
#0421b:13130000
#04215:00001300000013000013000000000000
#04218:0013
#04112:0013
#04118:0013
#0411b:00000013
#04115:00000013
#0411a:24
#0431b:0000000013001313
#04315:00000000000000000013001300000000
#04317:24
#0521b:13
#05215:0013000000000000
#05219:00130000
#05217:0013
#05213:0000001300000000
#07015:0000000000130000
#0701b:0000130000000013
#07012:0023
#07018:00000023
#06115:13
#06118:0000001300000000
#0611b:1300000000130000
#06718:13001300001300000000001300001300
#06712:1313000000000013
#06715:00000000130000130013000013000000
#0671b:00000000000000130013000000000000
#06815:1300001300000000
#06818:00130000000000000000000000000000
#06812:00000013000000000000000013000000
#0681b:0000131313000000
#00812:1313
#0081b:00130000000000000013000000000000
#03412:0000130000000013
#0341b:1313
#03415:1300001300000000
#03418:0013130000000000
#0351b:1300000000130000
#03512:0013000013000000
#03518:0013001300000000
#03515:0000000000130013
#0361b:13
#03618:0013000000000000
#03612:0013000000000000
#04618:00001300000013000013000000000000
#04612:13130000
#04615:0013
#03812:00000000001300000000150015000000
#03819:0000000000151500
#03818:00130000
#0381b:13001300000000130000000000000000
#03815:1313000013000000
#00415:00000000001300001300000000000000
#00412:0013000000001300
#0041b:1300000000130000
#00418:00000000130000130000000000000000
#00315:00000000130000000000001300000000
#00318:00000000001300000000000013000000
#0031b:00001300000000000013000000000000
#00312:13000000000000130000000000001300
#0071b:0013
#00715:0000000013000013
#00718:0000000000131300
#00712:00240013
#00912:0000000013130000
#0091b:00000013
#00915:0000000000000013
#00918:00000000240000000013000000000000
#0101b:1300000000130013
#01018:00000000130000130000000000000000
#01012:0000001300001300
#01015:00001300000000000013000000000000
#0121b:1313
#01212:00130000000000000013000000000000
#01112:0013
#01118:0000000013000013
#01115:0000000000131300
#0111b:00000013
#01114:00240000
#01612:13000013000000000000000000000000
#0161b:0000001300000000
#01615:0013
#01618:00130000000000000000000000000000
#01518:00000000000000000000001300000013
#01512:0000000000000013
#01515:0000000000130000
#0151a:0000003300000000
#0231b:0000000000000013
#02315:00000000000000001300000000000013
#02312:00130000
#02412:00130000000000001300000000000000
#02418:13
#0241b:00000013000000000000000000000000
#02512:0000000000000013
#02518:00000000130000000000000000000013
#0251b:0013
#0261b:0013000000002300
#02615:1300001300001300
#02612:00130000
#02618:0013
#02718:00130000
#02715:0000000000001313
#0271b:0000000000002313
#02712:00230000
#02818:0000131300000000
#02812:0000231300000000
#0301b:1313000000000000
#03015:13
#03018:0000131313000000
#03012:00130000
#03115:0013000000001300
#03118:00000000130000130000000000001300
#03112:2300001300000000
#03212:1313000000000000
#03218:1300000000000013
#03215:00000000130013001300000000000013
#0321b:00130000
#03312:0013000000000000
#03318:23000000130000000000001300000000
#03315:0000001300130000
#0331b:0013
#04012:24000000000000001300001300000000
#04018:00000000000000000013000013000000
#04015:0000000000000013
#04412:0000000013001313
#04418:00000000000000000013001300000000
#04415:24
#0451b:0013
#04515:0013
#04512:00000013
#04518:00000013
#04517:24
#05318:00000000000000000000001300001300
#0531b:0013
#05315:00000000000000000013000000000000
#05312:0000000000001313
#0531f:21
#0531a:24
#05618:1313
#05615:00001300000013000013000000000000
#0561b:00130000
#05612:13
#05512:0013
#05518:0000000013000013
#0551b:00000013
#05515:0000000000131300
#0551a:24
#05510:41
#05415:00000000000000000000001300001300
#05412:2413
#05418:00000000000000000013000000000000
#0541b:0000000000001313
#0571b:0000000000001313
#05718:0013
#05712:00000000000000000013000000000000
#05715:00000000000000000000001300001300
#05717:24
#06018:00001300000013000013000000000000
#06015:1313
#06012:00130000
#0601b:13
#05812:0000000000001313
#05815:2413
#0581b:00000000000000000013000000000000
#05818:00000000000000000000001300001300
#0591b:0000000013130000
#05915:0013
#05912:0000000000001313
#05918:00000013
#05917:24
#06212:0000000013130000
#06215:0000000000001313
#06218:0000000013130000
#0621b:0000000000001313
#06318:00000013
#06312:0000000000000013
#0631b:00130000
#06315:0000001300000000
#0641b:00130000
#06415:0000001300000000
#06412:00001414
#06414:0000000000140014
#06418:00001414
#0641a:0000000000140014
#06515:00000013
#0651b:0000000000000013
#06512:00130000
#06518:0000001300000000
#06612:00130013
#06618:0000001300130000
#06615:0013
#0661b:0000000000000013
#0691b:00130000
#06912:00000013
#06918:23
#07218:0000000000131300
#0721b:0000000013000013
#07212:0000130000131300
#07215:0000000013000013
#07112:00130000
#0711b:00000013
#04918:14
#0025b:00000013
#0305b:00000013
#03058:0053
#01758:00530000
#0215b:00530000
#02158:0053
#02152:14
#0215a:14
#05257:0013
#0685b:0053
#06852:00000063
#00452:00000013
#01458:0053
#01655:0063
#0185b:00000053000000000000000013000000
#01855:0000000000000013
#01958:1300000000000013
#01952:00000013
#02055:13
#02252:0053
#0245b:00000063000000000000000000000000
#02452:0053
#02352:00630000
#02355:0063
#02558:00630000
#0255b:0063
#0275b:0000000000000053
#02755:0000000000000053
#02852:0000005300000000
#02858:0000005300000000
#02955:00000000000000000000005300000000
#03255:0063
#03252:00000013
#03158:00000000000000530000000000000000
#03358:00000000000000000000005300000000
#0345b:0063
#03458:00000013
#06158:0000005300000000
#0615b:0000000000530000
#06452:00005454
#06454:0000000000240024
#06458:00005454
#0645a:0000000000240024
#06455:0000001300000000
#0695b:00630000
#06952:00000063
#0705b:00630000
#07152:00530000
#0715b:00000053
#07252:00530000
#07255:0000000000000013
#0725b:0000000000000013
#0055a:00140000
#00752:00140000
#00958:00140000
#01154:00140000
#03859:00000015
#03852:00000015
#03957:00140000
#0395a:54
#04055:00140000
#04052:54
#0415a:54
#04157:00140000
#04357:54
#0435a:00140000
#04455:64
#04452:00140000
#04557:54
#0455a:00140000
#05357:00140000
#0535a:54
#05452:64
#05455:00140000
#0555a:54
#05557:00140000
#05757:54
#0575a:00140000
#05855:64
#05852:00140000
#05957:54
#0595a:00140000
#06355:0000001300000000
#06352:0000000000000013
#06558:0000001300000000
#0655b:0000000000000013
#0053a0:14240000
#005370:0034000000000000
#007320:14240000
#007350:0034000000000000
#008350:00000013000023000000000000000000
#008350:00000000000000000000001300002300
#009380:14240000
#0093a0:0034000000000000
#011340:14240000
#011320:0034000000000000
#012380:00000013000023000000000000000000
#012380:00000000000000000000001300002300
#013350:00130000
#013320:0023
#014380:0013
#0143b0:00000023
#015380:00130000
#0153a0:0000003300000000
#0153b0:0023
#016350:0013
#016320:00000023
#017380:00130000
#0173b0:0023
#0183b0:00000013000000000000000000000000
#018380:0000003323000000
#020380:00000000000000140000000024000000
#0213b0:0000130000230000
#021380:00000000000000333300000000000000
#022320:0013
#022350:0000000000003323
#023320:0000130000230000
#023350:00000000000000333300000000000000
#0243b0:00000013000000000000000000000000
#024380:0000002300000000
#024320:0013
#024350:00000023
#025380:0000130000230000
#0253b0:00000000000000333300000000000000
#0263b0:0000000000000013
#027380:23
#026351:0000000000000013
#027321:23
#027321:0000001300000000
#027351:0023
#027380:0000001300000000
#0273b0:0023
#0273b0:0000000000000013
#028380:23
#027351:0000000000000013
#028321:23
#028321:0000001300000000
#028351:0023
#028380:0000001300000000
#0283b0:0023
#029350:00000000000000000000001300000000
#029320:0000000000000023
#030380:0013
#0303b0:00000023
#031380:00000000000000130000000000000000
#0313b0:0000000000230000
#032350:0013
#032320:00000023
#033380:00000000000000000000001300000000
#0333b0:0000000000000023
#0343b0:0013
#034380:00000023
#0363b0:00133333
#036390:0000003300330023
#036351:00133333
#036331:0000003300330023
#0393a1:14
#039371:00240000
#040321:14
#040351:00240000
#0413a1:14
#041371:00240000
#042381:00000000000000000000001300002300
#042320:00000000000000000000001300002300
#043370:14
#0433a0:00240000
#044350:14
#044320:00240000
#045370:14
#0453a0:00240000
#046350:00000000000000000000001300332300
#0463b1:00000000000000000000001300332300
#047351:0000000000001222
#049381:00140000
#0493a1:0054
#0503a1:24
#050341:00140000
#050321:0054
#051321:24
#051381:00140000
#0513a1:00005424
#0533a1:14
#053371:00240000
#054321:14
#054351:00240000
#0553a1:14
#055371:00240000
#056381:00000000000000000000001300002300
#056320:00000000000000000000001300002300
#057370:14
#0573a0:00240000
#058350:14
#058320:00240000
#059370:14
#0593a0:00240000
#060350:00000000000000000000001300002300
#0603b1:00000000000000000000001300002300
#061381:0000001300000000
#0613b1:0000000000330000
#062371:0000002300000000
#064321:00001454
#064341:0000000000540054
#065321:24
#064380:00001454
#0643a0:0000000000540054
#065380:24
#0683b0:0013
#068380:0000000000230000
#068320:00000013
#068350:0000000000000023
#0693b0:00130000
#069380:0000002300000000
#069320:00000013
#069350:0000000000000023
#0703b0:00130000
#070380:0000002300000000
#071320:00130000
#071350:0000002300000000
#0713b0:00000013
#071380:0000000000000023
#072320:00130000
#072350:0000002300000000
