This file was generated by Ched 2.6.2.0.
#TITLE ""
#ARTIST ""
#DESIGNER ""
#DIFFICULTY 0
#PLAYLEVEL
#SONGID ""
#WAVE ""
#WAVEOFFSET 0
#JACKET ""
#REQUEST "ticks_per_beat 480"
#00002: 4
#BPM01: 123
#00008: 01
#TIL00: ""
#HISPEED 00
#MEASUREHS 00
#01418:13000000000000000000000012000013
#01416:00000013000000000000000000120000
#0141b:00000013000000001300000000000000
#01412:00130000000000000000000000000013
#01415:0000000000120000
#01419:0000000000120000
#01315:00000000000000000000000000000013
#01318:00000000000012000000001200000000
#01314:0000000000120000
#0131c:00121200
#01316:00130000
#01312:2500001300000000
#0131b:0000000000000013
#01319:25
#01310:41
#03012:13131313
#03015:0013001300130000
#03018:00130000001300000000001300000000
#0301b:00000013000000130000000013000000
#03014:0000000000000013
#03019:0000000000000013
#03215:00130000001300000000001300001300
#03218:00001300000013000000130000000013
#0321b:13131313
#03212:00000013000000130000000013000000
#03716:13000000001400000013000014000000
#03717:00001300000000130000000000000000
#0371a:00140000
#03712:00001300000000130000001400001300
#0371b:13000000000000000013000000001300
#03919:0000000000000013
#03916:1414241413000000
#03914:00340034000000000000000000001300
#0391b:00000000000000001313000000000000
#03912:24000000000000000000001313000000
#0391a:0014000000000000
#03917:00000000000000000000001300000000
#03910:41
#03412:13131313
#0341b:13000013001300000013000013000000
#03416:0000000000000014
#03415:0013001300130000
#03418:00130000000000130000001300000000
#00812:00130000000000000013000000000000
#00817:1313
#02015:0000000000000013
#0201b:00000000130000000000001300000000
#02014:0013000000000000
#02019:00001300000000000013000000000000
#02016:00131313
#02018:00000000000000000000000000000013
#02012:1300001300000000
#02017:1300001300000000
#02117:00131300
#02116:0000000000130000
#02115:00000000000000000000000012000013
#0211b:2300130000000013
#02119:00000012
#02112:23000000000000130000000000000000
#02110:41
#02416:00000013000000000000000000140014
#02412:00130000000013000000000014000000
#02418:13
#02417:0000000000000000000000130000000000000000000000000000000000000000
#0241b:00000013000000000000000000000000
#0251a:14
#0251b:0000130000130000
#02512:0000000013000013
#02516:00130000
#02518:00000000000000000000000000000013
#02515:00000012
#02519:00000012
#02517:00000000000000130000000000000000
#02616:1300001300001300
#02617:0013130000000013
#02612:0000130014000013
#02619:0000000000130000
#0261b:13000023
#0261a:0014
#02816:0000001300001300
#0281b:0000001300001300
#02814:0013000000130000
#02819:0013000000130000
#02812:00130000
#02817:00230000
#04117:0000000013130000
#04112:2400000013000013
#0411b:0000000000130000
#04115:00000013
#04116:1414241400000013
#0411a:0014000000000000
#04114:00340034000000000000000000000000
#0421b:13000000130000000000001300000000
#04212:00001300000013001600001300000000
#04217:0013001300000000
#04214:0000000000000013
#04219:0000000000000013
#04216:00130000
#04218:00000000000000000016000000000000
#04319:0000000000000013
#04314:0000000000000013
#04316:2414001400000000
#04312:00001400000000000000001300000000
#0431b:0013
#0431a:14240000
#04318:00000000000000000013000000000000
#04315:00000013
#04313:00340034000000000000000000000000
#05216:14
#05214:0018000000000000
#05219:0000001514000000
#05213:001a1400
#05212:0000001500000000
#03815:0000000000000000000000000000000000000000000000130000000000000000
#03818:0000000000000000000000000000000000000000000000130000000000000000
#03814:1313000000000000
#03819:1313000000000000
#03812:00000000131300000000000000000000
#0381b:00000000000000131300000000000000
#02218:13000000000000000000000000130000
#02215:0000000000000013
#02212:001c2c1c2c1c1300
#0231b:13000000000000130000000000001300
#02315:00000000000000000000000012000013
#02312:13130000
#02319:00000012
#02316:00131300
#02317:0000000000130000
#02714:0013000000130000
#02714:0000000000130000
#02719:0013000000130000
#02719:0000000000130000
#0271b:0000001300001300
#02712:0000230000000013
#02717:0000130000000013
#02716:0000001300002300
#0471c:12000012
#04719:0012000000120000
#04715:00121200
#04712:0000001200000012
#04718:0000000000000012
#04717:00000000000000000012000000000000
#04716:00000012
#0471f:11
#07212:00130000140000001300000000001300
#0721b:2300000013000013
#07218:0013000000000000
#07216:0000001400000000
#07215:1300000000161600
#0721a:0000001400000000
#06116:13000000130000000000001300000013
#06114:0000000000131313
#06112:00000000000000000000000000130000
#0611b:13000000000000000000001300000013
#06119:0000000000131313
#06117:00001300000013001300000000130000
#06712:13000000000000000000001300001300
#06719:00001300000000000013000000000000
#0671b:00000000130000130000000000000000
#06717:13000000000000000000001300001300
#06714:00001300000000000013000000000000
#06716:00000000130000130000000000000000
#0671a:00000013
#06713:00000000001300000000000000000000
#0361b:13130000
#03616:13
#03615:00130000
#03612:0000001300140015
#03618:0000001300140015
#0361a:0014
#03614:0014
#03619:00000015
#03613:00000015
#03517:13
#03512:1300001300000013
#03515:0013
#03518:00000000130000000000001300000013
#0351b:00000000000000130000000000000000
#01518:00000000000000000000000000000013
#0151b:0000001300000013
#01516:00000000000012000000001200000000
#0151a:0000000000120000
#01512:00121200
#01515:0012000000000000
#01519:0012000000000000
#01517:00130000
#01715:00000000000000000000000000000013
#01718:00000000000012000000001200000000
#01714:0000000000120000
#0171c:00121200
#01712:0000001300000013
#01716:00130000
#0171b:23
#01919:0013000000130013
#01914:0013000000130013
#0191b:1300001300001300
#01916:1300001300001300
#01912:00130000
#01917:00131300
#02915:00001300000000130000130000000013
#02918:00000013000013000000001300001300
#0291b:00130013
#02912:2313
#02910:41
#03315:00001300000000130000130000000013
#03318:00000013000013000000001300001300
#0331b:00130013
#03312:2313
#01616:00000012
#01618:00000000000000000000000000120000
#01615:13000000000000000000120000000013
#01619:0000000000120000
#01612:00000013000000001300000000000000
#01617:00000013000000000000000000000000
#0161b:00130000000000000000000000000000
#0681b:00001313
#06818:16000012000000000013001300000000
#06815:0000000000130033
#06812:1613
#06816:000000000000000000120000000000000000000000000000000000000000000000000000000000000000000033003300
#06813:000000000000000000000000000000000000003300000000
#06814:000000000033
#06316:13130013
#06312:0013001300130013
#0631b:23131313
#06317:0013001300130013
#06417:000000130000000000130000000000000033000000000000
#0641b:0000130013000013
#06412:0013001300001300
#06416:130000130000000000000013
#0641a:000000000000000000000000003300000000000000000000
#06419:000000000000000000000000000033330000000000000000
#06418:000033
#0621b:00000013000000001300000000000000
#06212:00130000001300000000000000001300
#06214:1313130000141400
#06216:00000013000000000000000000001300
#06217:00130000001300001300000000000000
#06219:1313130000000000
#06218:00000000000000000000001400000000
#04918:12
#04915:00190000
#04912:0000230000000013
#04914:00000000000000000033000000000000
#04916:0000000000330000
#05012:00190000
#05019:00000000000000000033000000001300
#05014:13
#05016:0013000000000000
#0501b:00230000
#05018:0000000000330000
#05117:13
#05118:000000000000000000000000000000000000000000000000000000000000000000000000000000000000000000000000000000000000000000000000000000000000000000000000000000000000000000000000000000000000000000000000000000000000000000000000000000000000000000000000000000000000000000000000000000000000000000000000000000000000000000000000000000000000000000000000000000000000000000000000000000000000000000000000000000000000000000000000000000000000000000000000000000000000000000000000000000000000000000000000000000000000000000000000000000000000000000000000000000000000000000000000000000000000000000000000000000000000000000000000000000000000000000000000000000000000000000000000000000000000000000000000000000000000000000000000000000000000000000000000000000000000000000000000000000000000000000000000000000000000000000000000000000000000000000000000000000000000000000000000000000000000000000000000000000000000000000000000000000000000000000000000000000000000000000000000000000000000000000000000160000000000000000000000000000000000000000000000000000000000000000000000000000000000000000000000000000000000000000000000000000000000000000000000000000000000000000000000000000000000000000000000000000000000000000000000000000000000000000000000000000000000000000000000000000000000000000000000000000000000000000000000000000000000000000000000000000000000000000000000000000000000000000000000000000000000000000000000000000000000000000000000000000000000000000000000000000000000000000000000000000000000000000000000000000000000000000000000000000000000000000000000000000000000000000000000000000000000000000000000000000000000000000000000000000000000000000000000000000000000000000000000000000000000000000000000000000000000000000000000000000000000000000000000000000000000000000000000000000000000000000000000000000000000000000000000000000000000000000000000000000000000000000000000000000000000000000000000000000000000000000000000000000000000000000000000000000000000000000000000001600000000000000000000000000000000000000000000000000000000000000000000000000000000000000000000000000000000000000000000000000000000000000000000000000000000000000000000000000000000000000000000000000000000000000000000000000000000000000000000000000000000000000000000000000000000000000000000000000000000000000000000000000000000000000000000000000000000000000000000000000000000000000000000000000000000000000000000000000000000000000000000000000000000000000000000000000000000000000000000000000000000000000000000000000000000000000000000000000000000000000000000000000000000000000000000000000000000000000000000000000000000000000000000000000000000000000000000000000000000000000000000000000000000000000000000000000000000000000000000000000000000000000000000000000000000000000000000000000000000000000000000000000000000000000000000000000000000000000000000000000000000000000000000000000000000000000000000000000000000000000000000000000000000000000000000000000000000000000000000000000000000000000000000000000000000000000000000000000000000000000000000000000000000000000000000000000000000000000000000000000000000000000000000000000000000000000000000000000000000000000000000000000000000000000000000000000000000000000000000000000000000000000000000000000000000000000000000000000000000000000000000000000000000000000000000000000000000000000000000000000000000000000000000000000000000000000000000000000000000000000000000000000000000000000000000000000000000000000000000000000000000000000000000000000000000000000000000000000000000000000000000000000000000000000000000000000000000000000000000000000000000000000000000000000000000000000000000000000000000000000000000000000000000000000000000000000000000000000000000000000000000000000000000000000000000000000000000000000000000000000000000000000000000000000000000000000000000000000000000000000000000000000000000000000000000000000000000000000000000000000000000000000000000000000000000000000000000000000000000
#05112:000000000000000000000000000000000000000000000000000000000000000000000000000000000000000000000000000000000000000000000000000000000000000000000000000000000000000000000000000000000000000000000000000000000000000000000000000000000000000000000000000000000000000000000000000000000000000000000000000000000000000000000000000000000000000000000000000000000000000000000000000000000000000000000000000000000000000000000000000000000000000000000000000000000000000000000000000000000000000000000000000000000000000000000000000000000000000000000000000000000000000000000000000000000000000000000000000000000000000000000000000000000000000000000000000000000000000000000000000000000000000000000000000000000000000000000000000000000000000000000000000000000000000000000000000000000000000000000000000000000000000000000000000000000000000000000000000000000000000000000000000000000000000000000000000000000000000000000000000000000000000000000000000000000000000000000000000000000000000000000000160000000000000000000000000000000000000000000000000000000000000000000000000000000000000000000000000000000000000000000000000000000000000000000000000000000000000000000000000000000000000000000000000000000000000000000000000000000000000000000000000000000000000000000000000000000000000000000000000000000000000000000000000000000000000000000000000000000000000000000000000000000000000000000000000000000000000000000000000000000000000000000000000000000000000000000000000000000000000000000000000000000000000000000000000000000000000000000000000000000000000000000000000000000000000000000000000000000000000000000000000000000000000000000000000000000000000000000000000000000000000000000000000000000000000000000000000000000000000000000000000000000000000000000000000000000000000000000000000000000000000000000000000000000000000000000000000000000000000000000000000000000000000000000000000000000000000000000000000000000000000000000000000000000000000000000000000000000000000000000000001600000000000000000000000000000000000000000000000000000000000000000000000000000000000000000000000000000000000000000000000000000000000000000000000000000000000000000000000000000000000000000000000000000000000000000000000000000000000000000000000000000000000000000000000000000000000000000000000000000000000000000000000000000000000000000000000000000000000000000000000000000000000000000000000000000000000000000000000000000000000000000000000000000000000000000000000000000000000000000000000000000000000000000000000000000000000000000000000000000000000000000000000000000000000000000000000000000000000000000000000000000000000000000000000000000000000000000000000000000000000000000000000000000000000000000000000000000000000000000000000000000000000000000000000000000000000000000000000000000000000000000000000000000000000000000000000000000000000000000000000000000000000000000000000000000000000000000000000000000000000000000000000000000000000000000000000000000000000000000000000000000000000000000000000000000000000000000000000000000000000000000000000000000000000000000000000000000000000000000000000000000000000000000000000000000000000000000000000000000000000000000000000000000000000000000000000000000000000000000000000000000000000000000000000000000000000000000000000000000000000000000000000000000000000000000000000000000000000000000000000000000000000000000000000000000000000000000000000000000000000000000000000000000000000000000000000000000000000000000000000000000000000000000000000000000000000000000000000000000000000000000000000000000000000000000000000000000000000000000000000000000000000000000000000000000000000000000000000000000000000000000000000000000000000000000000000000000000000000000000000000000000000000000000000000000000000000000000000000000000000000000000000000000000000000000000000000000000000000000000000000000000000000000000000000000000000000000000000000000000000000000000000000000000000000000000000000000000000000000000
#05116:0013000000000000
#0511b:0013000000000000
#04016:14001400240014000000001300000000
#04012:00001400000000001313000000000000
#04014:0000000000000013
#04017:0013
#04019:0000000000000013
#0401b:00000000000000000000001313000000
#0401a:24
#04018:00340034000000000000000000000000
#0531b:2300000013000013
#05316:23000000000000001313000000001300
#05318:000000003300000033000000000000000000000000000000000000000000000000130000000000000000000000000000
#05317:0013001300000000
#05315:00000013
#05312:0013000000000000
#0531f:21
#05319:003300000033000000000000000000000000000000000000
#05314:003300000033000000000000000000000000000000000000
#05313:003333000000000000000000
#05517:0013001300130000
#05516:2300000014000013
#0551b:2313
#05514:003300000033000000000000000000130000000000000000
#05512:0013001300001300
#05519:003300000033000000000000000000000000000000130000
#05518:003333000000000000000000
#05513:003333000000000000000000
#05510:41
#05616:14140000
#05612:00001400140014001600001300000000
#0561a:0014001400000000
#05618:00000000000000000016000000000000
#05614:0000000000000013
#0561b:00000000000000000000001300000000
#05619:0000000000000013
#05712:160000002c0000001313000000001300
#05716:00160000000000000000000000000000
#05714:0016000000000000
#05718:00000016000000000000000000000000
#0571b:00000000000000000000001313000000
#05717:0000000013000013
#05715:0000001200000000
#05719:0000001200000000
#0061b:00130000000000000013000000000000
#00617:00000000000000130000000013000000
#00619:0000120000000013
#00616:0013000000130000
#00614:0000000000000013
#00612:1300001300001300
#00615:00120000
#00514:0000001300000000
#00519:00000012000013000000000000000000
#00516:0012000000001212
#00518:00120000000000000000000000000000
#00512:13000000230000000013000000000000
#00517:0000000000130000
#0051b:00231300
#00510:41
#00712:00231300
#00716:00120000000000000000130000000000
#0071b:13230013
#00715:00000012000000000000000000000000
#00718:0012000000000000
#00714:0000001300000000
#00717:0000000000000013
#00719:0000001300000000
#0011b:00000000000000130013000000001300
#00116:1300000000000013
#00117:00000000000000130000000000000000
#00112:1313000000000000
#00118:00000000000000000000001313000000
#00115:00000000131300000000000000000000
#00119:0033000000000000
#00215:00000000131300000000000000000000
#00216:13000013
#00212:1313000013000000
#00217:00000000000000130000000000000000
#00219:0000000000130000
#00214:0000000000130000
#0021b:00000013
#00015:0000001200000000
#0001c:0000001200120000
#00019:00120000
#0001a:12000012
#00018:0000000000000012
#00012:00000000120000000000000000120000
#00014:12000000000000000000001200000000
#00016:00000000000000000012000000000000
#04516:2414001413130000
#0451b:0000000013000013
#04512:0014000000130000
#04518:00000013
#04517:0000000000000013
#0451a:14240000
#04513:00340034000000000000000000000000
#06517:13130013
#0651b:0013001300130013
#06512:23131313
#06516:0013001300130013
#06616:0013001300000000
#06612:00131313
#0661b:0013001300130013
#06617:13130013
#06917:0013000000000000
#06916:0000140000131400
#06912:0000001423000014
#0691a:0000001400000014
#0691b:23
#07017:0013000000000000
#07015:00000000000000000013001300001300
#07018:00000000000000000000130000130013
#0701b:23002313
#07012:0000001413002300
#07016:00140000
#0701a:0000001400000000
#07118:0013000013000000
#07112:00130000140000002300000000001400
#07116:0000001400000014
#07115:1300000000130000
#0711a:0000001400001400
#0711b:23000000000000000013000000000000
#01815:0000000000120000
#01819:0000000000120013
#01817:00000013
#01812:00130000000000000000000013000000
#01814:0000000000000013
#0181b:00000013000000001300000000000000
#01816:00000013000000000000000000000000
#01818:13
#00416:00000000000000130000000000000000
#00414:0000000000130000
#00419:0013000000130000
#00417:13000013
#0041b:00000000131300001300000000000000
#00412:13000013
#00312:13000000000000000000001313000000
#00319:0013000000000000
#00317:13
#0031b:00000000131300130000000000001300
#00314:00000000000000000013000000000000
#00316:00000000000000130000000000001300
#0121b:00130000000000000013000000000000
#01216:1313
#01012:00130000000000000013000000000000
#01016:00000000000000130000000013000000
#01014:0000000000000013
#01017:0013000000130000
#01015:00120000
#01019:0000120000000013
#0101b:1300001300001300
#00919:0000001300000000
#00915:00000012000000000000000000000000
#00918:0012000000001200
#00916:00120000000000000000130000000000
#0091b:13000000230000000013000000000000
#00914:0000001300000000
#0091c:0000000000000012
#00912:00231300
#01117:0013
#0111b:0000230000130000
#01116:0012000000001300
#01119:00000012000013000000000000000000
#01118:00120000000000000000000000000000
#01112:1300230000000013
#01114:0000001300000000
#03118:00001300000000130000130000000013
#03115:00000013000013000000001300001300
#03112:00130013
#0311b:2313
#04414:0000000000000013
#04419:00340034000000000000000000001300
#04416:2414001400000000
#04412:14241300
#04415:00000000000000000013000000000000
#0441b:00000000000000000000001300000000
#04418:00000013
#0441a:0014000000000000
#04612:13000000130000000016001300000000
#0461b:00001300000013000000001300000000
#04616:0013001300000000
#04619:0000000000000013
#04614:0000000000000013
#04617:00130000
#04618:0016
#05412:2300000013000013
#05417:23000000000000001313000000001300
#05415:000000003300000033000000000000000000000000000000000000000000000000130000000000000000000000000000
#05416:0013001300000000
#0541b:0013001300000000
#05418:00000013
#05414:003300000033000000000000000000000000000000000000
#05419:003300000033000000000000000000000000000000000000
#0541a:003333000000000000000000
#05818:16
#05814:00160000000000000000000000000000
#05816:0016000013000013
#05812:000000162c0000000000001313000000
#0581b:00000000000000001313000000001300
#05819:0000001200000000
#05815:0000001200000000
#05912:162c1300
#05916:00160000000000001400130000000000
#05914:0016000000000013
#05918:00000016000000000000000000000000
#05915:0000001200000000
#05919:0000001200130000
#05917:0000000000000013
#0591b:00000013
#06016:14140000
#0601a:0014141400000000
#06012:00001400000014000016001300000000
#0601b:00000000000000000000001300000000
#06019:0000000000000013
#06014:0000000000000013
#06018:0016
#00852:00530000000000000053000000000000
#0085b:0000001300000013
#00856:0000001300000013
#01456:00000063000000000000000000000000
#01452:00000000000000000000000000000013
#0145b:00000063000000000000000000000000
#0215b:43530000
#02157:0053
#02152:33
#0255a:14
#02552:0063
#02556:00630000
#03852:00000036
#03855:0000000000000000000000000000000000000000000000230000000000000000
#03858:0000000000000000000000000000000000000000000000234600000000000000
#03956:0024440000000000
#03952:54340000
#04157:0063
#0415b:0000000000230000
#04155:00000053
#04152:5400340000000023
#04156:0024440000000000
#05253:0014
#05259:0014
#01356:00530000
#01352:0000002300000000
#04352:0024000000000000
#0435a:00440000
#04356:54440000
#06156:00000000000000000000002300000023
#06154:0000000000535353
#06152:00000000000000000000000000230000
#0615b:53000000000000000000002300000023
#06159:0000000000535353
#06157:00002300000000000000000000230000
#0345b:00000043
#03452:00000033
#0365b:63430000
#03656:63
#03655:00430000
#03652:0000003300340035
#03658:0000003300340035
#0365a:0044
#03654:0044
#03659:00000045
#03653:00000045
#03552:53
#03557:53
#03555:0053
#03558:00130000
#0355b:00000000000000530000000000000000
#03052:00000033
#0305b:00000043
#02652:0000000000000053
#02657:0000530000000053
#02656:63000023
#02757:0000230013000053
#02752:0000000000000053
#0275b:0000006300002300
#02756:1300006300000000
#07252:00230000340000000000000000003300
#0725b:0000000000000043
#07256:0000003400000000
#07255:63
#02856:1300006300000000
#02852:00230000
#0285b:0000006300000000
#02857:0013
#06356:53630013
#06352:0023002300000013
#0635b:00135363
#06357:0000001300230023
#06457:0000001300000000
#0645b:00135300
#06456:53630000
#06452:0023002300000000
#06252:00230000002300000000000000000000
#06254:5353530000000000
#06256:00000023000000000000000000000000
#06257:00230000002300000000000000000000
#06259:5353530000000000
#0625b:00000023000000000000000000000000
#05052:00590000
#05158:000000000000000000000000000000000000000000000000000000000000000000000000000000000000000000000000000000000000000000000000000000000000000000000000000000000000000000000000000000000000000000000000000000000000000000000000000000000000000000000000000000000000000000000000000000000000000000000000000000000000000000000000000000000000000000000000000000000000000000000000000000000000000000000000000000000000000000000000000000000000000000000000000000000000000000000000000000000000000000000000000000000000000000000000000000000000000000000000000000000000000000000000000000000000000000000000000000000000000000000000000000000000000000000000000000000000000000000000000000000000000000000000000000000000000000000000000000000000000000000000000000000000000000000000000000000000000000000000000000000000000000000000000000000000000000000000000000000000000000000000000000000000000000000000000000000000000000000000000000000000000000000000000000000000000000000000000000000000000000000000560000000000000000000000000000000000000000000000000000000000000000000000000000000000000000000000000000000000000000000000000000000000000000000000000000000000000000000000000000000000000000000000000000000000000000000000000000000000000000000000000000000000000000000000000000000000000000000000000000000000000000000000000000000000000000000000000000000000000000000000000000000000000000000000000000000000000000000000000000000000000000000000000000000000000000000000000000000000000000000000000000000000000000000000000000000000000000000000000000000000000000000000000000000000000000000000000000000000000000000000000000000000000000000000000000000000000000000000000000000000000000000000000000000000000000000000000000000000000000000000000000000000000000000000000000000000000000000000000000000000000000000000000000000000000000000000000000000000000000000000000000000000000000000000000000000000000000000000000000000000000000000000000000000000000000000000000000000000000000000000005600000000000000000000000000000000000000000000000000000000000000000000000000000000000000000000000000000000000000000000000000000000000000000000000000000000000000000000000000000000000000000000000000000000000000000000000000000000000000000000000000000000000000000000000000000000000000000000000000000000000000000000000000000000000000000000000000000000000000000000000000000000000000000000000000000000000000000000000000000000000000000000000000000000000000000000000000000000000000000000000000000000000000000000000000000000000000000000000000000000000000000000000000000000000000000000000000000000000000000000000000000000000000000000000000000000000000000000000000000000000000000000000000000000000000000000000000000000000000000000000000000000000000000000000000000000000000000000000000000000000000000000000000000000000000000000000000000000000000000000000000000000000000000000000000000000000000000000000000000000000000000000000000000000000000000000000000000000000000000000000000000000000000000000000000000000000000000000000000000000000000000000000000000000000000000000000000000000000000000000000000000000000000000000000000000000000000000000000000000000000000000000000000000000000000000000000000000000000000000000000000000000000000000000000000000000000000000000000000000000000000000000000000000000000000000000000000000000000000000000000000000000000000000000000000000000000000000000000000000000000000000000000000000000000000000000000000000000000000000000000000000000000000000000000000000000000000000000000000000000000000000000000000000000000000000000000000000000000000000000000000000000000000000000000000000000000000000000000000000000000000000000000000000000000000000000000000000000000000000000000000000000000000000000000000000000000000000000000000000000000000000000000000000000000000000000000000000000000000000000000000000000000000000000000000000000000000000000000000000000000000000000000000000000000000000000000000000000000000000000
#05152:000000000000000000000000000000000000000000000000000000000000000000000000000000000000000000000000000000000000000000000000000000000000000000000000000000000000000000000000000000000000000000000000000000000000000000000000000000000000000000000000000000000000000000000000000000000000000000000000000000000000000000000000000000000000000000000000000000000000000000000000000000000000000000000000000000000000000000000000000000000000000000000000000000000000000000000000000000000000000000000000000000000000000000000000000000000000000000000000000000000000000000000000000000000000000000000000000000000000000000000000000000000000000000000000000000000000000000000000000000000000000000000000000000000000000000000000000000000000000000000000000000000000000000000000000000000000000000000000000000000000000000000000000000000000000000000000000000000000000000000000000000000000000000000000000000000000000000000000000000000000000000000000000000000000000000000000000000000000000000000000560000000000000000000000000000000000000000000000000000000000000000000000000000000000000000000000000000000000000000000000000000000000000000000000000000000000000000000000000000000000000000000000000000000000000000000000000000000000000000000000000000000000000000000000000000000000000000000000000000000000000000000000000000000000000000000000000000000000000000000000000000000000000000000000000000000000000000000000000000000000000000000000000000000000000000000000000000000000000000000000000000000000000000000000000000000000000000000000000000000000000000000000000000000000000000000000000000000000000000000000000000000000000000000000000000000000000000000000000000000000000000000000000000000000000000000000000000000000000000000000000000000000000000000000000000000000000000000000000000000000000000000000000000000000000000000000000000000000000000000000000000000000000000000000000000000000000000000000000000000000000000000000000000000000000000000000000000000000000000000000005600000000000000000000000000000000000000000000000000000000000000000000000000000000000000000000000000000000000000000000000000000000000000000000000000000000000000000000000000000000000000000000000000000000000000000000000000000000000000000000000000000000000000000000000000000000000000000000000000000000000000000000000000000000000000000000000000000000000000000000000000000000000000000000000000000000000000000000000000000000000000000000000000000000000000000000000000000000000000000000000000000000000000000000000000000000000000000000000000000000000000000000000000000000000000000000000000000000000000000000000000000000000000000000000000000000000000000000000000000000000000000000000000000000000000000000000000000000000000000000000000000000000000000000000000000000000000000000000000000000000000000000000000000000000000000000000000000000000000000000000000000000000000000000000000000000000000000000000000000000000000000000000000000000000000000000000000000000000000000000000000000000000000000000000000000000000000000000000000000000000000000000000000000000000000000000000000000000000000000000000000000000000000000000000000000000000000000000000000000000000000000000000000000000000000000000000000000000000000000000000000000000000000000000000000000000000000000000000000000000000000000000000000000000000000000000000000000000000000000000000000000000000000000000000000000000000000000000000000000000000000000000000000000000000000000000000000000000000000000000000000000000000000000000000000000000000000000000000000000000000000000000000000000000000000000000000000000000000000000000000000000000000000000000000000000000000000000000000000000000000000000000000000000000000000000000000000000000000000000000000000000000000000000000000000000000000000000000000000000000000000000000000000000000000000000000000000000000000000000000000000000000000000000000000000000000000000000000000000000000000000000000000000000000000000000000000000000000000000000000
#05557:0023000000630000
#0555b:53432300
#05556:5300430000000053
#05552:0023000000002300
#05356:53000000430000000053000000000000
#05357:0023000000000000
#0535b:53430000
#05352:0023000000000000
#05656:44440000
#05652:0034003400000000
#05752:000000003c0000000053000000000000
#00256:63000033
#0025b:00000043
#00157:00000000000000530000000000000000
#00156:63
#04955:00690000
#0425b:43430000
#04252:0033003300000000
#04556:54445300
#04552:0024000000230000
#04558:00000063
#0455b:0000000000000023
#0455a:00440000
#06557:63530013
#0655b:0023002300000013
#06552:00136353
#06556:0000001300230023
#06656:0000001300000000
#06652:00136363
#06657:63530000
#0665b:0023002300000000
#07152:00230000340000000000000000000000
#07156:0000003400000044
#07155:63
#0715a:00000044
#0715b:00000000000000000023000000000000
#07158:0053
#06956:00340044
#06952:0000003400000000
#0695a:0000000000000044
#00457:00000043
#00452:63000033
#00352:63
#0035b:00000000000000530000000000000000
#0125b:00630000000000000063000000000000
#01252:0000001300000013
#01257:0000001300000013
#01857:00000043
#01859:0000000000000043
#01856:00000063000000000000000000000000
#0185b:00000063000000000000000000000000
#0195b:43
#01956:0000002300003300
#01954:0000000000000033
#01952:00530000
#02052:33
#02057:0000002300000000
#0205b:00630000
#01657:00000053000000000000000000000000
#01652:00000053000000000000000000000000
#01557:00630000
#0155b:0000002300000000
#02356:0063
#02352:00630000
#02452:0000002300000000
#02457:0000000000000000000000230000000000000000000000000000000000000000
#0245b:00000063000000000000000000000000
#0325b:00000043
#03252:00000033
#04056:0024340000000000
#0405a:64440000
#04652:33330000
#0465b:0043004300000000
#05457:63000000330000000063000000000000
#05456:0023000000000000
#0545b:0023000000000000
#05452:63330000
#0585b:00000000000000000063000000000000
#05852:004c0000
#05952:003c2300
#05956:0000000000530000
#05957:0000000000000063
#0595b:00000023
#06056:34340000
#0605a:0044004400000000
#06858:56000022000000000000000000000000
#06852:66
#06856:00000022000000000000000000000000
#07056:00340000
#07052:0000003400000000
#01756:00530000
#01752:0000002300000000
#0445a:0024000000000000
#04452:00340000
#04456:64340000
#001360:13
#001390:0033000000000000
#0013b0:00000000332300000000000000000000
#001370:00000000000000130000000000000000
#001320:00000000000000000000003323000000
#002360:13
#0023b0:00000000332300000000000000000000
#003320:13
#003360:00000000332300000000000000000000
#0033b0:00000000000000130000000000000000
#003370:00000000000000000000003323000000
#004320:13
#004360:00000000332300000000000000000000
#0053c0:0000000000001222
#007370:0013
#0073b0:0000000000230000
#007360:00000013
#007320:0000000000000023
#008320:00130000000000000000000000000000
#008360:00000033003323000000000000000000
#0083b1:00000013003323000000000000000000
#008321:00000000000000000013000000000000
#008361:00000000000000000000003300332300
#0083b0:00000000000000000000001300332300
#009320:00000012
#009360:0000000000000022
#011320:0013
#011360:0000000000230000
#0113b0:00000013
#011370:0000000000000023
#0123b0:00130000000000000000000000000000
#012370:00000033003323000000000000000000
#012321:00000013003323000000000000000000
#0123b1:00000000000000000013000000000000
#012371:00000000000000000000003300332300
#012320:00000000000000000000001300332300
#013360:00132300
#013320:0000003300000000
#0143b0:00130033000000000000000000000000
#014370:0000002300000000
#014361:00000013000000000000000000000000
#014321:0000003323000000
#015371:00132300
#0153b1:0000005300000000
#016321:00130033000000000000000000000000
#016361:0000002300000000
#016370:00000013000000000000000000000000
#0163b0:0000003323000000
#017360:00132300
#017320:0000005300000000
#0183b0:00130033000000000000000000000000
#018370:0000002300000000
#018361:00000013000000000000000000000000
#018321:0000003323000000
#019321:00132300
#019361:0000005300000000
#0203b1:00132300
#020371:0000005300000000
#0213b1:00130000
#021371:00000000000000230000000000000000
#021371:0013
#0213b1:0000000000230000
#023321:00130000
#023361:00000000000000230000000000000000
#023361:0013
#023321:0000000000230000
#0243b1:00000013000000002300000000000000
#024371:0000000000000000000000530000000000000000000000000000000000000000
#024320:0000001300000000
#024360:0023
#025360:00130000
#025320:00000000000000230000000000000000
#025320:0013
#025360:0000000000230000
#026360:13
#026320:0023000000000000
#026370:00130000
#0263b0:0000002300000000
#026360:00000013
#026320:0000000000000033
#027360:23
#026371:0000000000000013
#0273b1:23
#027371:00132300
#0273b1:0000003300000000
#027360:0000001300000000
#027320:0023
#0273b0:00000013
#027370:0000000000000033
#0283b0:23
#027321:0000000000000013
#028361:23
#028321:00132300
#028361:0000003300000000
#0283b0:0000001300000000
#028370:0023
#029380:1323000000000000
#029320:0000132300000000
#029380:0000000013230000
#029320:0000000000001323
#031350:1323000000000000
#0313b0:0000132300000000
#031350:0000000013230000
#0313b0:0000000000001323
#0333b0:13
#033380:0023000000000000
#033320:00130000
#033350:0000002300000000
#0333b0:0013
#033380:0000000000230000
#033320:00000013
#033350:0000000000000023
#035320:13
#035360:0023000000000000
#035371:13
#0353b1:0023000000000000
#0353b1:00000000000000130000000000000000
#035381:0000000000230000
#035350:0013
#035320:00000000000000000000002300000000
#0363b0:13
#036370:0023000000000000
#036361:13
#036321:0023000000000000
#038351:0000000000000000000000000000000000000000130000530000000000000000
#038321:00000026
#038380:0000000000000000000000000000000000000000130000532600000000000000
#039320:14240000
#039340:00340034000000000000000000000000
#039360:0034000000000000
#0403a0:14240000
#040380:00340034000000000000000000000000
#040360:0034000000000000
#041320:14240000
#041340:00340034000000000000000000000000
#041360:0034000000000000
#041370:0013
#0413b0:0000000000530000
#041380:00000023
#041351:00000013
#041321:0000000000000053
#042361:23
#043361:14240000
#043331:00340034000000000000000000000000
#043321:0034000000000000
#043351:00000000000000001323000000000000
#043381:00000000000000000000001323000000
#044361:14240000
#044391:00340034000000000000000000000000
#0443a1:0034000000000000
#044381:00000000000000001323000000000000
#044351:00000000000000000000001323000000
#045361:14240000
#045331:00340034000000000000000000000000
#045321:0034000000000000
#045361:0013
#045321:0000000000530000
#045351:00000023
#045380:00000013
#0453b0:0000000000000053
#046370:23
#048370:12220000000000000000000000000000
#048331:00122200000000000000000000000000
#048370:00001222000000000000000000000000
#048331:00000012220000000000000000000000
#0483b0:00000000122200000000000000000000
#048371:00000000001222000000000000000000
#0483b0:00000000000012220000000000000000
#048371:00000000000000122200000000000000
#0483c0:00000000000000001222000000000000
#048351:00000000000000000012220000000000
#0483b0:00000000000000000000122200000000
#048341:00000000000000000000001222000000
#0483a0:00000000000000000000000012220000
#048331:00000000000000000000000000122200
#048390:00000000000000000000000000001222
#048321:00000000000000000000000000000012
#049321:22
#049351:00190000
#0493b1:0000005300000000
#0503b1:23
#049320:0013
#049340:00000000000000000033000000000000
#049360:00000000000000000000332300000000
#050321:0000195300000000
#051321:23
#0503b0:0013
#050390:00000000000000000033000000000000
#050380:0000000000330000
#050370:00000000000000000000002300000000
#051381:000000000000000000000000000000000000000000000000000000000000000000000000000000000000000000000000000000000000000000000000000000000000000000000000000000000000000000000000000000000000000000000000000000000000000000000000000000000000000000000000000000000000000000000000000000000000000000000000000000000000000000000000000000000000000000000000000000000000000000000000000000000000000000000000000000000000000000000000000000000000000000000000000000000000000000000000000000000000000000000000000000000000000000000000000000000000000000000000000000000000000000000000000000000000000000000000000000000000000000000000000000000000000000000000000000000000000000000000000000000000000000000000000000000000000000000000000000000000000000000000000000000000000000000000000000000000000000000000000000000000000000000000000000000000000000000000000000000000000000000000000000000000000000000000000000000000000000000000000000000000000000000000000000000000000000000000000000000000000000000000160000000000000000000000000000000000000000000000000000000000000000000000000000000000000000000000000000000000000000000000000000000000000000000000000000000000000000000000000000000000000000000000000000000000000000000000000000000000000000000000000000000000000000000000000000000000000000000000000000000000000000000000000000000000000000000000000000000000000000000000000000000000000000000000000000000000000000000000000000000000000000000000000000000000000000000000000000000000000000000000000000000000000000000000000000000000000000000000000000000000000000000000000000000000000000000000000000000000000000000000000000000000000000000000000000000000000000000000000000000000000000000000000000000000000000000000000000000000000000000000000000000000000000000000000000000000000000000000000000000000000000000000000000000000000000000000000000000000000000000000000000000000000000000000000000000000000000000000000000000000000000000000000000000000000000000000000000000000000000000000335600000000000000000000000000000000000000000000000000000000000000000000000000000000000000000000000000000000000000000000000000000000000000000000000000000000000000000000000000000000000000000000000000000000000000000000000000000000000000000000000000000000000000000000000000000000000000000000000000000000000000000000000000000000000000000000000000000000000000000000000000000000000000000000000000000000000000000000000000000000000000000000000000000000000000000000000000000000000000000000000000000000000000000000000000000000000000000000000000000000000000000000000000000000000000000000000000000000000000000000000000000000000000000000000000000000000000000000000000000000000000000000000000000000000000000000000000000000000000000000000000000000000000000000000000000000000000000000000000000000000000000000000000000000000000000000000000000000000000000000000000000000000000000000000000000000000000000000000000000000000000000000000000000000000000000000000000000000000000000000000000000000000000000000000000000000000000000000000000000000000000000000000000000000000000000000000000000000000000000000000000000000000000000000000000000000000000000000000000000000000000000000000000000000000000000000000000000000000000000000000000000000000000000000000000000000000000000000000000000000000000000000000000000000000000000000000000000000000000000000000000000000000000000000000000000000000000000000000000000000000000000000000000000000000000000000000000000000000000000000000000000000000000000000000000000000000000000000000000000000000000000000000000000000000000000000000000000000000000000000000000000000000000000000000000000000000000000000000000000000000000000000000000000000000000000000000000000000000000000000000000000000000000000000000000000000000000000000000000000000000000000000000000000000000000000000000000000000000000000000000000000000000000000000000000000000000000000000000000000000000000000000000000000000000000000000000000000000000000000000
#0513b1:00000023
#051320:000000000000000000000000000000000000000000000000000000000000000000000000000000000000000000000000000000000000000000000000000000000000000000000000000000000000000000000000000000000000000000000000000000000000000000000000000000000000000000000000000000000000000000000000000000000000000000000000000000000000000000000000000000000000000000000000000000000000000000000000000000000000000000000000000000000000000000000000000000000000000000000000000000000000000000000000000000000000000000000000000000000000000000000000000000000000000000000000000000000000000000000000000000000000000000000000000000000000000000000000000000000000000000000000000000000000000000000000000000000000000000000000000000000000000000000000000000000000000000000000000000000000000000000000000000000000000000000000000000000000000000000000000000000000000000000000000000000000000000000000000000000000000000000000000000000000000000000000000000000000000000000000000000000000000000000000000000000000000000000000160000000000000000000000000000000000000000000000000000000000000000000000000000000000000000000000000000000000000000000000000000000000000000000000000000000000000000000000000000000000000000000000000000000000000000000000000000000000000000000000000000000000000000000000000000000000000000000000000000000000000000000000000000000000000000000000000000000000000000000000000000000000000000000000000000000000000000000000000000000000000000000000000000000000000000000000000000000000000000000000000000000000000000000000000000000000000000000000000000000000000000000000000000000000000000000000000000000000000000000000000000000000000000000000000000000000000000000000000000000000000000000000000000000000000000000000000000000000000000000000000000000000000000000000000000000000000000000000000000000000000000000000000000000000000000000000000000000000000000000000000000000000000000000000000000000000000000000000000000000000000000000000000000000000000000000000000000000000000000000000335600000000000000000000000000000000000000000000000000000000000000000000000000000000000000000000000000000000000000000000000000000000000000000000000000000000000000000000000000000000000000000000000000000000000000000000000000000000000000000000000000000000000000000000000000000000000000000000000000000000000000000000000000000000000000000000000000000000000000000000000000000000000000000000000000000000000000000000000000000000000000000000000000000000000000000000000000000000000000000000000000000000000000000000000000000000000000000000000000000000000000000000000000000000000000000000000000000000000000000000000000000000000000000000000000000000000000000000000000000000000000000000000000000000000000000000000000000000000000000000000000000000000000000000000000000000000000000000000000000000000000000000000000000000000000000000000000000000000000000000000000000000000000000000000000000000000000000000000000000000000000000000000000000000000000000000000000000000000000000000000000000000000000000000000000000000000000000000000000000000000000000000000000000000000000000000000000000000000000000000000000000000000000000000000000000000000000000000000000000000000000000000000000000000000000000000000000000000000000000000000000000000000000000000000000000000000000000000000000000000000000000000000000000000000000000000000000000000000000000000000000000000000000000000000000000000000000000000000000000000000000000000000000000000000000000000000000000000000000000000000000000000000000000000000000000000000000000000000000000000000000000000000000000000000000000000000000000000000000000000000000000000000000000000000000000000000000000000000000000000000000000000000000000000000000000000000000000000000000000000000000000000000000000000000000000000000000000000000000000000000000000000000000000000000000000000000000000000000000000000000000000000000000000000000000000000000000000000000000000000000000000000000000000000000000000000000000000000000000000000
#051350:00000023
#0533b0:13230000
#053390:003300000033000000000000000000000000000000000000
#053380:003333000000000000000000
#053370:0033000000000000
#053361:13230000
#053341:003300000033000000000000000000000000000000000000
#053331:003333000000000000000000
#053321:0033000000000000
#053361:00000000000000000013000000000000
#053321:00000000000000000000002300000000
#054321:13230000
#054341:003300000033000000000000000000000000000000000000
#054351:003333000000000000000000
#054361:0033000000000000
#054370:13230000
#054390:003300000033000000000000000000000000000000000000
#0543a0:003333000000000000000000
#0543b0:0033000000000000
#054370:00000000000000000013000000000000
#0543b0:00000000000000000000002300000000
#0553b0:13230000
#055390:003300000033000000000000000000000000000000000000
#055380:003333000000000000000000
#055370:0033000000000000
#055361:13230000
#055341:003300000033000000000000000000000000000000000000
#055331:003333000000000000000000
#055321:0033000000000000
#0553b1:00001323
#055371:0000000000530000
#055320:00000013
#055360:0000000000000053
#056320:23
#057320:00000000000000000013000000000000
#057370:00000023
#0583b0:00000000000000000013000000000000
#058360:00000023
#059320:00001323
#059360:0000000000530000
#0593b1:00000013
#059371:0000000000000053
#0603b1:23
#0613b1:13230000
#061371:0053000000000000
#061321:0000001323000000
#061341:0000000000135353
#061361:00000000000000000000005300000053
#061321:00000000000000000000000000530000
#062341:5353532300000000
#062321:00530000005300000000000000000000
#062361:00000053000000000000000000000000
#061390:0000000000135353
#0613b0:00000000000000000000005300000053
#061370:00000000000000000000000000530000
#062390:5353532300000000
#062370:00530000005300000000000000000000
#0623b0:00000053000000000000000000000000
#063360:13332300
#063320:0033003300000000
#0633b1:00001333
#063371:0000000000330033
#0643b1:23
#064360:13332300
#064320:0033003300000000
#0643b1:0013
#0643a1:000000000000000000000000003300000000000000000000
#064391:000000000000000000000000000033330000000000000000
#064381:000033
#064371:000000000000000000000000000000000033000000000000
#064361:00000023
#065371:13332300
#0653b1:0033003300000000
#065320:00001333
#065360:0000000000330033
#066320:23
#066371:13332300
#0663b1:0033003300000000
#066320:0013
#066360:0000000000230000
#066320:00000013
#066360:0000000000000023
#068380:16000052000026000000000000000000
#068321:1600002600000000
#068361:00000052000000000000000000000000
#068321:00000013
#068331:000000000000000000000000000000000000003300000000
#068341:000000000033
#068351:0000000000000033
#068361:000000000000000000000000000000000000000000003333
#069371:23
#0693a1:00140000
#069361:00000000002400000000000000000000
#069371:0013
#0693b1:0000000000230000
#069321:00000014
#069361:00000000000000000000000000240000
#070361:13
#070321:0023000000000000
#0703a1:00140000
#070361:00000000002400000000000000000000
#071351:1323000000000000
#071321:00530000000000000000000000000000
#071361:00140000
#0713a1:00000000002400000000000000000000
#071381:0000000013230000
#0713b1:00000000000000000053000000000000
#071361:00000014
#071321:00000000000000000000000000240000
#072351:1323000000000000
#072321:00530000000000000000000000000000
#072361:00140000
#0723a1:00000000002400000000000000000000
