This file was generated by Ched 2.6.2.0.
#TITLE ""
#ARTIST ""
#DESIGNER ""
#DIFFICULTY 0
#PLAYLEVEL
#SONGID ""
#WAVE ""
#WAVEOFFSET 0
#JACKET ""
#REQUEST "ticks_per_beat 480"
#00002: 4
#BPM01: 123
#00008: 01
#TIL00: ""
#HISPEED 00
#MEASUREHS 00
#0011a:14141414
#00214:14140000
#00219:00001414
#00213:0000000000140000
#03712:14140000
#03714:0000000000140000
#03718:0014000000000000
#0371a:00001414
#03812:14140000
#03818:0014000000000000
#03819:0000000014141400
#03813:0000000014141400
#06212:14
#06214:0000001400000000
#07212:0000140000000014
#0721a:0014
#07214:0000000000140000
#07218:14000014
#00518:14140000
#00514:00001414
#00510:41
#00714:14140000
#00718:00001414
#00918:1414
#00914:00140014
#01114:1414
#01118:00140014
#0171a:14
#01718:0014
#01714:00140000
#01712:00000014
#02915:00160000
#02918:16000016
#02910:41
#03015:00160000
#03012:16000016
#03115:00160000
#03118:16
#03112:00000016
#03215:00160000
#03212:16
#03218:00000016
#03319:00150000
#03317:15
#03312:00000015
#03918:0014
#03914:24240014
#0391a:24240000
#03910:41
#04014:0014
#04018:24240014
#04012:24240000
#04118:0014
#04114:24240014
#0411a:24240000
#04314:2414
#04318:00240014
#0431a:24
#04312:00240000
#04418:2414
#04414:00240014
#04412:24
#0441a:00240000
#04514:2414
#04518:00240014
#0451a:24
#04512:00240000
#04218:16161600
#04212:0016001600001600
#04612:16161600
#04618:0016001600001600
#05312:00241414
#05318:0000240000140000
#0531f:21
#05314:24
#0531a:24
#0541a:00241414
#05414:0000240000140000
#05418:24
#05412:24
#05512:00241414
#05518:0000240000140000
#05514:24
#0551a:24
#05510:41
#0561a:1414000000000000
#05614:0000141400000000
#05618:00001515
#05612:0000000000150000
#0571a:00241400
#05718:24000014
#05712:2400000000140000
#05714:00240000
#05812:00241400
#05814:24000014
#0581a:2400000000140000
#05818:00240000
#0591a:00241400
#05918:24000014
#05912:2400000000140000
#05914:00240000
#0611a:14
#06118:0000001400000000
#06412:14
#06415:0000001400000000
#0631a:14
#06317:0000001400000000
#0651a:00140000
#06512:00000014
#06514:00140000
#06518:00000014
#0661a:00140000
#06614:00140000
#06613:0014
#06619:0014
#06612:00000014
#06618:00000014
#06712:00140000
#0671a:00000014
#06718:00140000
#06714:00000014
#06812:00140000
#06818:00140000
#06819:0014
#06813:0014
#0681a:00000014
#06814:00000014
#06912:14
#06918:00140000
#06913:0014
#06919:00000014
#07014:14000014
#0701a:00140014
#07012:0014
#07018:0014
#0211a:14
#02114:0014
#02117:00140014
#02110:41
#0261a:14
#02614:00000014
#0471f:11
#04718:13130000
#04715:00001313
#00312:14141414
#00418:14140000
#00413:00001414
#00419:0000000000140000
#0251a:14
#02514:0014
#02517:00140014
#03412:00150000
#03414:15
#03419:00000015
#04918:00000014
#04914:0014
#04919:14
#04913:14
#06012:1414000000000000
#06018:0000141400000000
#06013:00001515
#06019:0000000000150000
#05014:00000014
#05018:0014
#05013:14
#05019:14
#05118:00000014
#05114:0014
#05119:14
#05113:14
#05212:14
#05218:0014000000000000
#05213:00140000
#05219:0000001400000000
#05214:0014
#0711a:14
#07114:00140000
#07119:0014
#07113:00000014
#01812:00000014
#01912:14
#01918:00141400
#01914:00000014
#02014:14
#0201a:00141400
#02712:14
#02718:00140000
#0271a:0014
#02714:00000014
#02812:14
#02818:00140000
#0281a:0014
#0481b:13130000
#04812:00001313
#0141a:0014
#01414:00140000
#01418:14
#01312:00000014
#01314:00140000
#01318:0014
#0131a:14
#01310:41
#01612:0014
#01618:00140000
#01614:14
#0151a:00000014
#01518:00140000
#01514:0014
#01512:14
#0221a:14
#02217:00140000
#02214:0014
#02312:14
#02318:0014
#02315:00140014
#02412:14
#02415:00140000
#02418:0014
#03512:14140000
#03518:14140000
#0351a:00001414
#03514:00001414
#03612:14
#03618:00140000
#03614:0014
#0361a:00000014
#01018:00343400
#01214:00343400
#06252:64
#06254:0000002400000000
#02958:66
#02955:00260000
#03055:00260000
#03052:56
#03155:00260000
#03158:66
#03255:00260000
#03252:56
#03359:00250000
#03357:55
#0615a:54
#06158:0000002400000000
#06452:64
#06455:0000002400000000
#0635a:54
#06357:0000002400000000
#0265a:54
#03452:00250000
#03454:65
#0395a:00140000
#03954:00140000
#04052:00140000
#04058:00140000
#0415a:00140000
#04154:00140000
#04358:00140000
#04352:00140000
#04454:00140000
#0445a:00140000
#04558:00140000
#04552:00140000
#05358:00140000
#05352:00140000
#05454:00140000
#0545a:00140000
#05558:00140000
#05552:00140000
#05754:00140000
#0575a:00140000
#05858:00140000
#05852:00140000
#05954:00140000
#0595a:00140000
#06652:00000014
#06658:00000014
#0685a:00000014
#06854:00000014
#0705a:00000014
#07054:00000014
#000360:14
#000350:00000026
#006390:14343424
#008330:14343424
#010380:14343400
#0103a0:00000024
#012340:14343400
#012320:00000024
#0183a0:14
#018380:0024
#0263a0:14
#026380:0024
#029380:1626
#029350:00560000
#030320:1626
#030350:00560000
#031380:1626
#031350:00560000
#032320:1626
#032350:00560000
#033370:1525
#033390:00550000
#034340:1525
#034320:00550000
#0613a0:14000024
#061380:0000005400000000
#062320:14000024
#062340:0000005400000000
#0633a0:14000024
#063370:0000005400000000
#064320:14000024
#064350:0000005400000000
