This file was generated by Ched 2.6.2.0.
#TITLE ""
#ARTIST ""
#DESIGNER ""
#DIFFICULTY 0
#PLAYLEVEL
#SONGID ""
#WAVE ""
#WAVEOFFSET 0
#JACKET ""
#REQUEST "ticks_per_beat 480"
#00002: 4
#BPM01: 128
#00008: 01
#TIL00: ""
#HISPEED 00
#MEASUREHS 00
#00019:14
#00119:14
#00213:14
#00313:14
#0041a:14
#00410:41
#00618:14
#01219:14
#01210:41
#01419:14
#0161a:14
#01712:14
#0181a:14
#00514:14
#00712:14
#0201a:14
#02010:41
#0211a:14
#02214:14
#02314:14
#04412:0016
#04418:26
#0441f:21
#04612:16
#04618:0016
#04818:1616
#05012:16
#05018:0016
#05112:16
#05118:0016
#0621a:14
#06214:0014
#06318:14
#06312:0014
#0081a:14
#00914:14
#01018:14
#01112:14
#01313:14
#01513:14
#01912:14
#02418:14
#02518:14
#02612:14
#02712:14
#02819:14
#02810:41
#02913:14
#03019:14
#03113:14
#03619:14
#0361f:11
#03713:14
#03819:14
#03913:14
#04518:1616
#04510:41
#05218:0016
#05212:26
#05418:16
#05412:0016
#05612:1616
#05818:16
#05812:0016
#05918:16
#05912:0016
#05312:1616
#06019:14
#06113:14
#05510:41
#032390:14
#033390:24
#034330:14
#035330:24
#040390:14
#041390:24
#042330:14
#043330:24
#047320:1626
#049380:1626
#055380:1626
#057320:1626
