This file was generated by Ched 2.6.2.0.
#TITLE ""
#ARTIST ""
#DESIGNER ""
#DIFFICULTY 0
#PLAYLEVEL
#SONGID ""
#WAVE ""
#WAVEOFFSET 0
#JACKET ""
#REQUEST "ticks_per_beat 480"
#00002: 4
#BPM01: 128
#00008: 01
#TIL00: ""
#HISPEED 00
#MEASUREHS 00
#0011c:00000012
#0011b:0013000000000000
#00119:00000000000013130000000000120000
#00117:0000000000130000
#00115:0000000000000012
#00112:00000000000000000000000000000012
#00019:00000000000013130000000000001313
#0001b:0013000000130000
#00017:13
#00316:0000000000130000
#00312:0013000000000013
#0031b:0000000000130000
#0051b:1300000013130000
#00518:00130013000013000000000000000000
#00515:00001300001300130000000000000000
#00512:00130000
#00516:00000000000000000013000000000000
#0111b:00001313
#01112:00000000000000000013000013000000
#01118:0000000000130000
#01115:00000000000000000000001300000000
#0121b:1300001300000013
#01216:1300001300000000
#01215:0013000000000000
#01212:00000013000000001300000000001300
#01217:0013
#01218:00000013000000000000000000000000
#01210:41
#01815:00000013000000130000000000000013
#01818:0013001300000013
#01817:13
#0181b:00000013000000001300000000000000
#01812:13000000001300000000000000000000
#02817:13000000000000130000000000001300
#02815:00000000000000000012000000000000
#02819:0000000000120000
#0281c:00000000000000000000001200000000
#02812:1300001312000000
#02816:00130013
#0281b:00000000001300000000000000000000
#02810:41
#0291b:13000000000013130000001313000000
#02915:00000000131300000000000000000000
#02912:13130000000000001300000000000000
#02918:00001313000000000000000000000000
#0301b:1313230000000000
#03016:13001300130000000000000000000014
#03012:0000001313131300
#0301a:0000000000000014
#03117:000000130000130000000000000000000000000014000000
#0311a:000000000000000000000014
#03112:140000130000230000000000000000000000000014000000
#0311b:0000001313131300
#03115:000000000000000000000014
#03217:13000013
#03212:13000000001300000000001200000000
#0321c:0012
#03219:00000000000000000012000000000000
#03215:00000000000000130000120000000000
#0321b:00130000
#03218:0000001300000000
#03216:0013000000000013
#0341b:00001300000000000000000000130000
#03416:0000000000000013
#03412:00131313
#03419:13000000000013130000131300000000
#03417:00130000
#03512:13001313
#03517:1313
#03516:0000000000130000
#0351b:00000000000000000000130000000013
#03519:00000000000000000000000000130000
#03514:0013000000000013
#0441b:23000000001300001300000013000000
#04418:0000001300000000
#04412:00001300000000130000130000001300
#04417:00000013000000000000000000000000
#04416:23000013
#04415:00000000001300001300000000000000
#0441f:21
#0451b:13000000000000130000000000000000
#04512:00001300000000130000000000000000
#04515:00000013001300000013000000000000
#04518:00001300001300000013000000000000
#04516:13
#04510:41
#04712:13000000001300000000000000000000
#0471b:00001300000000130000000000001300
#04716:00000013000000130000000000000000
#04717:13000000001300000000000000001300
#04718:0000000000000000000000000000000000130000000000000000000000000000
#04816:1400000013000000140000000000000000000013000000000000000000000000
#04817:00000000000013001300001300000000
#0481b:0000000000000000000000001300000000000000000000000013000000000000
#04812:0013000013000013
#04912:000000000000000000000000000000000000000000000000000000130000000000000000000000000000000000000000000000000000000000000000000000000000000000000000000000000000000000000000000000001300000000000000
#04916:130000000000000000130000000000000000000000000000130000000000000000000000000000000000130000001300
#0491b:1313
#04917:0000001300000000000000000000000000000000000000000000000000000000
#06317:00000000000013130000120000120000
#06315:0012
#0631a:00000000000000000012000000000000
#0631c:00000000000000000000001200000000
#06312:00000012
#06314:0000000000000012
#06319:00000000000000000000000000000012
#0631b:0013130000000000
#00717:0013
#0071a:00000024
#00718:000000000024
#00719:000000000000000000000024
#0191c:00000012
#01919:00001300000000000000130000120000
#01915:0000000000000012
#01912:13000000000000001300000000000012
#01917:13
#0191b:00130000
#01914:0000001300000000
#0201b:13000000001300000000000000001300
#02016:0000000000130013
#02012:00001300001300001300000000000000
#02018:0013001300000000
#02017:0013
#02015:00000013000000000000000000000000
#02010:41
#02217:13000000000000130000000000001300
#02218:00000013001300000000000000000000
#02212:13000000001300001300000000001300
#02215:0013001300000000
#0221b:0013000000000000
#02216:0000000000130000
#0211b:0013000013000013
#02116:0000000000000013
#02118:00000013000000000000000000000000
#02112:13000000001300130000001300000000
#02117:1300001300000000
#02115:00001300000000000013000000000000
#02615:00000013001300000000000000001300
#02618:00001300000013000000000000000013
#0261b:13000000001300001300000000130000
#02616:13000000000000130000000000000000
#02617:0000000000130000
#02612:0013000000000000
#02716:00130013
#02712:13
#02714:0013000000130000
#02717:1313
#02719:0000001300000000
#03318:00000000131300000000000000000000
#03312:13000000000013130000001300000000
#0331b:13130000000000001300000000000000
#03315:00001313000000000000000000000000
#0571a:000000000000000000000013
#05717:130000000000000000130000000000000000000000000000130000000000000000000000000000000000000000001300
#05716:0000001300000000000000000000000000000000000000000000000013000000
#0571b:0000000000000000001300000000000000000000000000000000000000000000
#05712:1313
#00214:00000000000013130000000000001313
#00212:0013000000130000
#06112:00001300130013130000000012000000
#06115:00000000000000000000000000120000
#06119:0000000000000012
#0611c:00000000000000000000000000000012
#06116:0000000000130000
#04612:13000000001300001300000013000000
#0461b:00001300000000130000130000001300
#04617:13000013
#04615:0000001300000000
#04616:00000013000000000000000000000000
#04618:00000000001300001300000000000000
#05017:000000130013000000000013000000000000000000000013
#0501b:000013230000000013000000
#05019:0000001300002313
#05014:000000000000000000000000230000130000000000001300
#05016:000000000000000000000000000000000013000000000000
#05012:230000000013000000000000
#05114:0013000000000000
#05119:001300000000
#05116:000000000013000000000000000000000000000000000000
#05115:000000000000000000000000230000000013000000000000
#0511b:000000000000230000130000000000001300000000000000
#05112:230000000000000000001300000000130000000000000000
#05118:000000000000000000000013000000000000230000000000
#05817:0013000000000000
#05813:001300000000
#05816:000000000013000000000000000000000000000000000000
#0581b:230000000000000000001300000000130000000000000000
#05812:000000000000230000130000000000001300000000130000
#05818:000000000000000000000000230000000013000000001300
#05815:000000000000000000000013000000000000230000000013
#0551b:13000000001300000000000000000000
#05512:00001300000000130000000000001300
#05515:0000000000001300000000000000000000130000000000000000000000000000
#05516:13000000001300000000000000001300
#05518:0013000000000000
#05517:00000000000000130000000000000000
#05510:41
#0621b:00001300130013130000130013001313
#05917:0000000023130000
#05912:000000000000230000000013000000001300000000000000
#0591b:230000130000000000001300000000000013000000000000
#05915:001300000000
#05918:000000000013000000000000000000000000000000000000
#05916:0000001300002300
#00412:00131213
#00418:00000000001300000000000000000000
#00415:00000000000013000012000000000000
#0041b:23000000000000130000000000000000
#00419:0000000000120000
#0041c:00000000000000000000001200000000
#00416:23
#00410:41
#00612:00131300
#00615:00000000000013000000001300000000
#00618:00000000000000130000130000000000
#0061b:00000013
#00912:1300000013130000
#00915:00130013000013000000000000000000
#00918:00001300001300130000000000000000
#0091b:00130000
#00917:00000000000000000013000000000000
#0081b:00130013
#00815:00000000001300000000120000000000
#00818:0000001300000000
#00812:00000000000000130000001200000000
#0081c:0012
#00819:00000000000000000012000000000000
#00817:24
#0101b:0000130000130000
#01018:00000000000000130000000013000000
#01015:00000000000000001300001300000000
#01012:0000001300000000
#01317:13
#01318:00001300000000130000000000000000
#0131b:00000013000000000013000000001300
#01312:1300001300000013
#01315:00000013000000001300000000000000
#01416:1300000000000013
#01415:0013001300000000
#01412:00000013000000001300000000000000
#0141b:13000000001300000000000000001300
#01418:00000013000000130000000000000000
#05616:14000000140013001300001300000000
#05612:0000000000000000000000001300000000000000000000000013000000000000
#05617:0000000013000000000000000000000000000013000000000000000000000000
#0561b:0013000013000013
#06012:00001300130013130000130013001313
#06016:13
#03616:13000000000000130000000000001300
#03619:00000000000000000012000000000000
#03615:0000000000120000
#03612:00000000001300000000001200000000
#0361b:1300001300000000
#03617:00130013
#0361c:0012
#0361f:11
#03712:13001313000000000000001313000000
#03718:00000000131300000000000000000000
#03715:00000000000013130000000000000000
#0371b:13130000000000001300000000000000
#04212:00001300000000000000000000130000
#04217:0000000000000013
#0421b:00131313
#04214:13000000000013130000131300000000
#04216:00130000
#0431b:13
#04316:13
#04319:0013000000000000
#04012:00131200
#04015:00000000000013000012000000000000
#04019:0000000000120000
#0401c:00000000000000000000001200000000
#04016:13000013
#0401b:13000000001300000000000000000000
#04018:00000000000000130000000000000000
#04017:0013000000000013
#04115:00000000131300000000000000000000
#04118:00000000000013130000000000000000
#0411b:13001313000000000000001300000000
#04112:13130000000000001300000000000000
#05312:13000000000000130000000000000000
#05318:00001300001300000013000000000000
#05315:00000013001300000013000000000000
#0531b:00000013000000130000000000000000
#05317:13
#01618:0013000000000000
#0161b:00000013000000001300000000001300
#01617:0000001300000000
#01612:1300001300000013
#01616:0013
#01615:00000013000000000000000000000000
#01716:13
#01715:00001300000000130000000000000000
#01712:00000013001300000013000000001300
#0171b:1300001300000013
#01718:00000013000000001300000000000000
#0521b:00001300001300000000000000000000
#05215:00001300001300001300000013000000
#05218:23000013000000001300000013000000
#05212:23000013000000000000130000001300
#05412:00001300001300000000000000000000
#05418:00001300001300001300000013000000
#05415:13000013000000001300000013000000
#0541b:13000013000000130000130000001300
#03817:1313130000000000
#0381b:0000001313131300
#03812:1313230000000014
#03816:00000000000000000000000000000014
#02517:0000000000000013
#02512:0013000013000013
#02515:00000013000000000000000000000000
#0251b:13000000001300130000001300000000
#02516:1300001300000000
#02518:00001300000000000013000000000000
#02417:0000000000130013
#02412:00001300001300000000000000001300
#02416:00000000000000130000000000000000
#0241b:13000000001300001300000000000000
#02418:0013001300000000
#02415:00000013000000000000000000000000
#03916:0013130000000000
#03912:000000000000000000130000130000130000130000001400
#0391a:140000000014
#0391b:0013230000000000
#03915:000000000014
#03917:000000000000000000000014
#01512:1313
#01516:0013000000130000
#01517:23130013
#0151b:0000001300000013
#0231b:1313
#02317:0013000000130000
#02316:23130013
#02312:0000001300000013
#0035b:0000000000530000
#00352:0013000000000000
#0055b:0000000000630000
#01952:5353
#0195b:00530000
#0215b:0053
#02157:00000000000000000000001300000000
#02152:00000000000000000000001300000000
#02057:0053
#0205b:0000000000130000
#02056:0000000000130000
#02257:00000000000000530000000000000000
#0225b:0000000000130000
#02256:0000000000130000
#02756:00630000
#02757:6363
#02856:00000053
#02857:53
#02852:0000000000000013
#02952:0053
#02956:00000013
#03257:00000063
#0325b:0000000000000013
#03252:53
#03256:0023000000000000
#04857:00000000000000000000005300000000
#0485b:0000000000000000000000000000000000000000000000000023000000000000
#04852:0053
#04856:0000000000000000000000000000000000000023000000000000000000000000
#0005b:0013000000130000
#0015b:0013000000000000
#00157:0000000000130000
#03052:0000001300130000
#03056:0013000000000000
#03157:0013000000000000
#0315b:0000001300130000
#03557:0053
#0355b:0000000000230000
#00252:0013000000130000
#0445b:00005353
#04457:0000000000130013
#04452:0000000000130013
#04652:00006363
#04656:0000000000130013
#0465b:0000000000130013
#0335b:0063
#03357:00000013
#03452:00535300
#03456:0000001300130000
#02656:00000000000000630000000000000000
#02657:0000000000130000
#02652:0000000000130000
#04956:00000063000000005300000000000000
#04952:0000000000000000002300000000000000000000000000000000000000000000
#0495b:6353
#04957:0000002300000000000000000000000000000000000000000000000000000000
#0625b:0013000000130000
#0635b:0013000000000000
#06359:00000000000000000000000000000012
#00852:13
#0085b:00000063
#00857:14
#04555:00000000001300000000000000000000
#04558:00000000000000000013000000000000
#00452:00000053
#0045b:13
#00456:13
#00952:0000000000530000
#06052:0013000000130000
#06152:0013000000000000
#06156:0000000000130000
#03656:63
#03657:00000063
#0365b:0000000000000013
#0375b:0063
#03757:00000013
#04056:00000053
#04052:0000000000000013
#0405b:63
#04057:0023000000000000
#04152:0053
#04156:00000013
#0425b:00636300
#04257:0000001300130000
#05358:00000000001300000000000000000000
#05355:00000000000000000013000000000000
#01252:0053
#01257:0053
#0125b:0000000000130000
#01256:0000000000130000
#01355:0053
#0135b:00000000000000000053000000000000
#01352:00000000000000000000001300000000
#01358:00000000000000000000001300000000
#01458:00000000000000630000000000000000
#01452:0063
#0145b:0000000000130000
#01455:0000000000130000
#0165b:0063
#01656:0063
#01657:0000000000130000
#01652:0000000000130000
#05258:00006363
#05252:0000000000130013
#0525b:0000000000130013
#05455:00005353
#0545b:0000000000130013
#05452:0000000000130013
#0115b:00000013
#01152:00000013
#0385b:0000001300130000
#03857:0013000000000000
#02552:0063
#02556:00000000000000000000001300000000
#0255b:00000000000000000000001300000000
#02456:00000000000000630000000000000000
#02457:0000000000130000
#02452:0000000000130000
#01758:0063
#01752:00000000000000000063000000000000
#01755:00000000000000000000001300000000
#0175b:00000000000000000000001300000000
#01855:00000000000000530000000000000000
#0185b:0053
#01852:0000000000130000
#01858:0000000000130000
#03952:0000001300130000
#03956:0013000000000000
#05656:00000000000000000000006300000000
#05652:0000000000000000000000000000000000000000000000000023000000000000
#0565b:0063
#05657:0000000000000000000000000000000000000023000000000000000000000000
#05757:00000053000000006300000000000000
#0575b:0000000000000000002300000000000000000000000000000000000000000000
#05752:5363
#05756:0000002300000000000000000000000000000000000000000000000000000000
#01552:5353
#01557:00530053
#01556:0023000000230000
#0155b:0000002300000023
#0235b:6363
#02357:0023000000230000
#02356:00630063
#02352:0000002300000023
#05555:0000000000000000000000000000000000230000000000000000000000000000
#05552:00000000000000530000000000000000
#05052:13
#0505b:00130000
#05054:0013
#05059:00000013
#05152:13
#0515b:00130000
#05155:0013
#05158:00000013
#0475b:00000000000000630000000000000000
#04758:0000000000000000000000000000000000230000000000000000000000000000
#0585b:13
#05852:00130000
#05858:0013
#05855:00000013
#0595b:13
#05952:00130000
#05957:0013
#05956:00000013
#000320:130000000000000000000000000000000000000000000000000000000000000000000000000000000000000000000000000000000000000000000000000000000000000000000000000000000000000000000000000000000053570000000000000000000000000000000000000000000000000000000000370000000000000000000000000000000000000000000000000000000000570000000000000000000000000000000000000000000000000000000000000000000000000000000000000000000000000000000000000000000000000000000000000000000000000000000000000000000000000000000000000000000000000000000000000000000000000000000000000000000000000000000000000000000000000000000000000000000000000000000000000000000000000000000000000000000000000000000000000000000000000000000000000000000000000000000000000000000000000000000000000000000000000000000000000000000000000000000000000000000000550000000000000000000000000000000000000000000000000000000000350000000000000000000000000000000000000000000000000000000000555300000000000000000000000000000000000000000000000000000000000000000000000000000000000000000000000000000000000000000000000000000000000000000000000000000000000000000000000000000000000000000000000000000000000000000000000000000000000000000053570000000000000000000000000000000000000000000000000000000000370000000000000000000000000000000000000000000000000000000000570000000000000000000000000000000000000000000000000000000000000000000000000000000000000000000000000000000000000000000000000000000000000000000000000000000000000000000000000000000000000000000000000000000000000000000000000000000000000000000000000000000000000000000000000000000000000000000000000000000000000000000000000000000000000000000000000000000000000000000000000000000000000000000000000000000000000000000000000000000000000000000000000000000000000000000000000000000000000000000000550000000000000000000000000000000000000000000000000000000000350000000000000000000000000000000000000000000000000000000000555300000000000000000000000000000000000000000000000000000000
#000360:000000000000000000000000000000000000000000000000000000000000000000000000000000000000000000000000000000000000000000000000000000000000000000000000000000000000000000000000000000000000000000000000000000000000000000000000000000000000000000000000000000000000000000000000000000000000000000000000000000000000005300000000000000000000000000000000000000000000000000000000000000000000000000000000000000000000000000000000000000000000000000000000000000000000000000000000000000000000000000000000000000000000000000000000000000000000000000000000000000000000000000000000000000000000000000000000000000000000000000000000000000000000000000000000000000000000000000000000000000000053000000000000000000000000000000000000000000000000000000000000000000000000000000000000000000000000000000000000000000000000000000000000000000000000000000000000000000000000000000000000000000000000000000000000000000000000000000000000000000000000000000000000000000000000000000000000000000000000000000000000000000000000000000000000000000000000000000000000000000000000000000000000000000000000000000000000000000000000000000000000000000000000000000000000000000000000000000000000000000000000000000000000000000000000000000000000000000000000000000000000000000000000000000000000000000000000000000000000000000000000005300000000000000000000000000000000000000000000000000000000000000000000000000000000000000000000000000000000000000000000000000000000000000000000000000000000000000000000000000000000000000000000000000000000000000000000000000000000000000000000000000000000000000000000000000000000000000000000000000000000000000000000000000000000000000000000000000000000000000005300000000000000000000000000000000000000000000000000000000000000000000000000000000000000000000000000000000000000000000000000000000000000000000000000000000000000000000000000000000000000000000000000000000000000000000000000000000000000000000000000000000000000000000000000000000000000000000000000000000000000
#000340:000000000000000000000000000000000000000000000000000000000000000000000000000000000000000000000000000000000000000000000000000000000000000000000000000000000000000000000000000000000000000000000000000000000000000000000000000000000000000000000000000000000000000000000000000000000000000000000000000000000000000000000000000000000000000000000000000000000000000000000000000000000000000000000000000000000000000000000000000000000000000000000000000000000000000000000000000000000000000000000000000000000000000000000000000000000000000000000000000000000000000000000000000000000000000000000000000000000000000000000000000000000000000000000000000000000000000000000000000000000000550000000000000000000000000000000000000000000000000000000000350000000000000000000000000000000000000000000000000000000055000000000000000000000000000000000000000000000000000000000000000000000000000000000000000000000000000000000000000000000000000000000000000000000000000000000000000000000000000000000000000000000000000000000000000000000000000000000000000000000000000000000000000000000000000000000000000000000000000000000000000000000000000000000000000000000000000000000000000000000000000000000000000000000000000000000000000000000000000000000000000000000000000000000000000000000000000000000000000000000000000000000000000000000000000000000000000000000000000000000000000000000000000000000000000000000000000000000000000000000000000000000000000000000000000000000000000000000000000000000000000000000000000000000000000000000000000000000000000000000000000000000000000000000000000000000000000000000000000000000000000000000000000000000000000000000000000000000000000000000000550000000000000000000000000000000000000000000000000000000000350000000000000000000000000000000000000000000000000000000055000000000000000000000000000000000000000000000000000000000000000000000000000000000000000000000000000000000000000000000000000000000000000000000000000000000000000000000000000000000000
#001320:000000000000000000000000000000000000000000000000000000000000000000000000000000000000000000000000000000000000000000000000000000000000000000000000000000000000000000000000000000000053570000000000000000000000000000000000000000000000000000000000370000000000000000000000000000000000000000000000000000000000570000000000000000000000000000000000000000000000000000000000000000000000000000000000000000000000000000000000000000000000000000000000000000000000000000000000000000000000000000000000000000000000000000000000000000000000000000000000000000000000000000000000000000000000000000000000000000000000000000000000000000000000000000000000000000000000000000000000000000000000000000000000000000000000000000000000000000000000000000000000000000000000000000000000000000000000000000000000000000000000550000000000000000000000000000000000000000000000000000000000350000000000000000000000000000000000000000000000000000000000555300000000000000000000000000000000000000000000000000000000000000000000000000000000000000000000000000000000000000000000000000000000000000000000000000000000000000000000000000000000000000000000000000000000000000000000000000000000000000000000000000000000000000000000000000000000000000000000000000000000230000000000000000000000000000000000000000000000000000000000000000000000000000000000000000000000000000000000000000000000000000000000000000000000000000000000000000000000000000000000000000000000000000000000000000000000000000000000000000000000000000000000000000000000000000000000000000000000000000000000000000000000000000000000000000000000000000000000000000000000000000000000000000000000000000000000000000000000000000000000000000000000000000000000000000000000000000000000000000000000000000000000000000000000000000000000000000000000000000000000000000000000000000000000000000000000000000000000000000000000000000000000000000000000000000000000000000000000000000000000000000000000000000000000000000000000000000000000000000000000
#001360:000000000000000000000000000000000000000000000000000000000000000000000000000000000000000000000000000000000000000000000000000000000000000000000000000000000000000000000000000000000000000000000000000000000000000000000000000000000000000000000000000000000000000000000000000000000000000000000000000000000000005300000000000000000000000000000000000000000000000000000000000000000000000000000000000000000000000000000000000000000000000000000000000000000000000000000000000000000000000000000000000000000000000000000000000000000000000000000000000000000000000000000000000000000000000000000000000000000000000000000000000000000000000000000000000000000000000000000000000000000053000000000000000000000000000000000000000000000000000000000000000000000000000000000000000000000000000000000000000000000000000000000000000000000000000000000000000000000000000000000000000000000000000000000000000000000000000000000000000000000000000000000000000000000000000000000000000000000000000000000000000000000000000000000000000000000000000000000000000000000000000000000000000000000000000000000000000000000000000000000000000000000000000000000000000000000000000000000000000000000000000000000000000000000000000000000000000000000000000000000000000000000000000000000000000000000000000000000000000000000000000000000000000000000000000000000000000000000000000000000000000000000000000000000000000000000000000000000000000000000000000000000000000000000000000000000000000000000000000000000000000000000000000000000000000000000000000000000000000000000000000000000000000000000000000000000000000000000000000000000000000000000000000000000000000000000000000000000000000000000000000000000000000000000000000000000000000000000000000000000000000000000000000000000000000000000000000000000000000000000000000000000000000000000000000000000000000000000000000000000000000000000000000000000000000000000000000000000000000000000000000000000000000000000000000000000000000000000000000000000000
#001340:000000000000000000000000000000000000000000000000000000000000000000000000000000000000000000000000000000000000000000000000000000000000000000000000000000000000000000000000000000000000000000000000000000000000000000000000000000000000000000000000000000000000000000000000000000000000000000000000000000000000000000000000000000000000000000000000000000000000000000000000000000000000000000000000000000000000000000000000000000000000000000000000000000000000000000000000000000000000000000000000000000000000000000000000000000000000000000000000000000000000000000000000000000000000000000000000000000000000000000000000000000000000000000000000000000000000000000000000000000000000550000000000000000000000000000000000000000000000000000000000350000000000000000000000000000000000000000000000000000000055000000000000000000000000000000000000000000000000000000000000000000000000000000000000000000000000000000000000000000000000000000000000000000000000000000000000000000000000000000000000000000000000000000000000000000000000000000000000000000000000000000000000000000000000000000000000000000000000000000000000000000000000000000000000000000000000000000000000000000000000000000000000000000000000000000000000000000000000000000000000000000000000000000000000000000000000000000000000000000000000000000000000000000000000000000000000000000000000000000000000000000000000000000000000000000000000000000000000000000000000000000000000000000000000000000000000000000000000000000000000000000000000000000000000000000000000000000000000000000000000000000000000000000000000000000000000000000000000000000000000000000000000000000000000000000000000000000000000000000000000000000000000000000000000000000000000000000000000000000000000000000000000000000000000000000000000000000000000000000000000000000000000000000000000000000000000000000000000000000000000000000000000000000000000000000000000000000000000000000000000000000000000000000000000000000000000000000000000000000000000
#002370:130000000000000000000000000000000000000000000000000000000000000000000000000000000000000000000000000000000000000000000000000000000000000000000000000000000000000000000000000000000053570000000000000000000000000000000000000000000000000000000000370000000000000000000000000000000000000000000000000000000000570000000000000000000000000000000000000000000000000000000000000000000000000000000000000000000000000000000000000000000000000000000000000000000000000000000000000000000000000000000000000000000000000000000000000000000000000000000000000000000000000000000000000000000000000000000000000000000000000000000000000000000000000000000000000000000000000000000000000000000000000000000000000000000000000000000000000000000000000000000000000000000000000000000000000000000000000000000000000000000000550000000000000000000000000000000000000000000000000000000000350000000000000000000000000000000000000000000000000000000000555300000000000000000000000000000000000000000000000000000000000000000000000000000000000000000000000000000000000000000000000000000000000000000000000000000000000000000000000000000000000000000000000000000000000000000000000000000000000000000053570000000000000000000000000000000000000000000000000000000000370000000000000000000000000000000000000000000000000000000000570000000000000000000000000000000000000000000000000000000000000000000000000000000000000000000000000000000000000000000000000000000000000000000000000000000000000000000000000000000000000000000000000000000000000000000000000000000000000000000000000000000000000000000000000000000000000000000000000000000000000000000000000000000000000000000000000000000000000000000000000000000000000000000000000000000000000000000000000000000000000000000000000000000000000000000000000000000000000000000000550000000000000000000000000000000000000000000000000000000000350000000000000000000000000000000000000000000000000000000000555300000000000000000000000000000000000000000000000000000000
#0023b0:000000000000000000000000000000000000000000000000000000000000000000000000000000000000000000000000000000000000000000000000000000000000000000000000000000000000000000000000000000000000000000000000000000000000000000000000000000000000000000000000000000000000000000000000000000000000000000000000000000000000005300000000000000000000000000000000000000000000000000000000000000000000000000000000000000000000000000000000000000000000000000000000000000000000000000000000000000000000000000000000000000000000000000000000000000000000000000000000000000000000000000000000000000000000000000000000000000000000000000000000000000000000000000000000000000000000000000000000000000000053000000000000000000000000000000000000000000000000000000000000000000000000000000000000000000000000000000000000000000000000000000000000000000000000000000000000000000000000000000000000000000000000000000000000000000000000000000000000000000000000000000000000000000000000000000000000000000000000000000000000000000000000000000000000000000000000000000000000000000000000000000000000000000000000000000000000000000000000000000000000000000000000000000000000000000000000000000000000000000000000000000000000000000000000000000000000000000000000000000000000000000000000000000000000000000000000000000000000000000000000005300000000000000000000000000000000000000000000000000000000000000000000000000000000000000000000000000000000000000000000000000000000000000000000000000000000000000000000000000000000000000000000000000000000000000000000000000000000000000000000000000000000000000000000000000000000000000000000000000000000000000000000000000000000000000000000000000000000000000005300000000000000000000000000000000000000000000000000000000000000000000000000000000000000000000000000000000000000000000000000000000000000000000000000000000000000000000000000000000000000000000000000000000000000000000000000000000000000000000000000000000000000000000000000000000000000000000000000000000000000
#002390:000000000000000000000000000000000000000000000000000000000000000000000000000000000000000000000000000000000000000000000000000000000000000000000000000000000000000000000000000000000000000000000000000000000000000000000000000000000000000000000000000000000000000000000000000000000000000000000000000000000000000000000000000000000000000000000000000000000000000000000000000000000000000000000000000000000000000000000000000000000000000000000000000000000000000000000000000000000000000000000000000000000000000000000000000000000000000000000000000000000000000000000000000000000000000000000000000000000000000000000000000000000000000000000000000000000000000000000000000000000000550000000000000000000000000000000000000000000000000000000000350000000000000000000000000000000000000000000000000000000055000000000000000000000000000000000000000000000000000000000000000000000000000000000000000000000000000000000000000000000000000000000000000000000000000000000000000000000000000000000000000000000000000000000000000000000000000000000000000000000000000000000000000000000000000000000000000000000000000000000000000000000000000000000000000000000000000000000000000000000000000000000000000000000000000000000000000000000000000000000000000000000000000000000000000000000000000000000000000000000000000000000000000000000000000000000000000000000000000000000000000000000000000000000000000000000000000000000000000000000000000000000000000000000000000000000000000000000000000000000000000000000000000000000000000000000000000000000000000000000000000000000000000000000000000000000000000000000000000000000000000000000000000000000000000000000000000000000000000000000000550000000000000000000000000000000000000000000000000000000000350000000000000000000000000000000000000000000000000000000055000000000000000000000000000000000000000000000000000000000000000000000000000000000000000000000000000000000000000000000000000000000000000000000000000000000000000000000000000000000000
#003370:0023000000000000
#003380:00000000132300000000000000000000
#003321:00000000001323000000000000000000
#0033b0:00000000000013230000000000000000
#003351:00000000000000132300000000000000
#0033b1:0000000000130000
#003371:0000000000000023
#004321:00000013
#005361:23
#0053b1:0000000000130000
#005371:00000023
#005320:00000013
#005360:00000000000000000000000000530000
#006360:23
#0063b1:13
#006371:00530000230000000000000000000000
#006321:0000000000000013
#006361:00000000000000000000000000000053
#007361:23
#006370:0000000000000013
#0063b0:00000000000000000000000000000053
#0073b0:23
#007380:0015000000000000
#007350:00000035000000000000000000000000
#007370:00350000
#007340:00000000003500000000000000000000
#007360:0000002500000000
#007320:0013
#007360:00000033
#007330:000000000033
#007350:000000000000000000000033
#008320:23
#0083b0:00000013
#009360:23
#009320:0000000000130000
#009360:00000023
#0093b1:00000013
#009371:00000000000000000000000000530000
#010371:23
#010320:13
#010360:00530000230000000000000000000000
#0103b0:0000000000000013
#010370:00000000000000000000000000000053
#011370:23
#010361:0000000000000013
#010321:00000000000000000000000000000053
#011321:23
#011331:0015000000000000
#011361:00000035000000000000000000000000
#011341:00350000
#011371:00000000003500000000000000000000
#011351:0000002500000000
#012321:0013
#012361:0000000000230000
#012370:0013
#0123b0:0000000000230000
#013350:0013
#013320:00000000000000000000532300000000
#0133b1:00000000000000000013000000000000
#013381:00000000000000000000002300000000
#014381:00000000000000130000000000000000
#0143b1:00000000000000000053230000000000
#014320:0013
#014350:0000000000230000
#015320:13230000
#015360:0053000000000000
#015371:00132300
#0153b1:0000005300000000
#015320:00001323
#015360:0000000000530000
#015371:00000013
#0153b1:0000000000000053
#016371:23
#0163b1:0013
#016371:0000000000230000
#016360:0013
#016320:0000000000230000
#017380:0013
#0173b0:00000000000000000000532300000000
#017321:00000000000000000013000000000000
#017351:00000000000000000000002300000000
#018351:00000000000000130000000000000000
#018321:00000000000000000053230000000000
#0183b0:0013
#018380:0000000000230000
#019320:13
#019360:00230000
#0193b1:00130000
#019371:0023
#019320:0013
#019360:00000023
#020370:0013
#0203b0:0000000000230000
#0213b0:0013
#021370:00000000000000000000002300000000
#022370:00000000000000130000000000000000
#0223b0:0000000000230000
#0233b0:13230000
#023370:0053000000000000
#023361:00132300
#023321:0000005300000000
#0233b0:00001323
#023370:0000000000530000
#023361:00000013
#023321:0000000000000053
#024361:23
#024361:00000000000000130000000000000000
#024321:0000000000230000
#025321:0013
#025361:00000000000000000000002300000000
#026361:00000000000000130000000000000000
#026321:0000000000230000
#027371:13
#0273b1:00230000
#027360:00130000
#027320:0023
#027371:0013
#0273b1:00000023
#028371:13
#0283b1:00230000
#028361:00000013
#028321:0000000000000023
#029321:0013
#029361:00000000000000000000005323000000
#0303b1:00130000
#030351:0000000000000000000000005454545454545454545454542400000000000000
#030361:00000000000000000000000000000000000000000000000000540054005400540054005400540054005400540054005400000000000000000000000000000000
#031321:00130000
#031371:0000000000000000000000005454545454545454545454542400000000000000
#031361:00000000000000000000000000000000000000000000000000540054005400540054005400540054005400540054005400000000000000000000000000000000
#032321:13230000
#032361:0053000000000000
#032371:00000013
#0323b1:0000000000000023
#0333b1:0013
#033371:00000000000000000000005323000000
#033320:00000013
#033340:00000000000000000000000000530000
#034340:53
#034360:00532300000000000000000000000000
#034320:00130000
#034360:0000002300000000
#034320:0013
#034360:0000000000230000
#035390:0015000000000000
#035360:00000035000000000000000000000000
#035380:00350000
#035350:00000000003500000000000000000000
#035370:0000002500000000
#035370:00001323
#0353b0:0000000000530000
#036360:13
#036320:00230000
#036370:00000013
#0363b0:0000000000000023
#0373b0:0013
#037370:00000000000000000000005323000000
#038320:00000000000000000000000000000000130000000000000000000000005500550055000000000000000000550055005500000000000000000000000000000000
#038360:0000000000000000000000005500000000000055000000000000000000000000
#038340:00000000000000000000000000000000000000000000000000550000550000000000550000550055000055000000000025000000000000000000000000000000
#038350:0000000000000000000000000055000000005500550000000000000000000000
#038330:00000000000000000000000000000000000000000000000000000055000055005500005500000000005500005500550000000000000000000000000000000000
#0393b0:00130000
#039350:0000000000000000000000005500000000000055000000000000000000000000
#039370:00000000000000000000000000000000000000000000000000550000550000000000550000550055000055000000000025000000000000000000000000000000
#039360:0000000000000000000000000055000000005500550000000000000000000000
#039380:00000000000000000000000000000000000000000000000000000055000055005500005500000000005500005500550000000000000000000000000000000000
#039390:00000000000000000000000000000000000000000000000000000000005500550055000000000000000000550055005500000000000000000000000000000000
#0403b0:13230000
#040370:0053000000000000
#040360:00000013
#040320:0000000000000023
#041320:0013
#041360:00000000000000000000005323000000
#0413b1:00000013
#041391:00000000000000000000000000530000
#042391:53
#042371:00532300000000000000000000000000
#0423b1:00130000
#042371:0000002300000000
#0423b1:0013
#042371:0000000000230000
#043321:0015000000000000
#043351:00000035000000000000000000000000
#043331:00350000
#043361:00000000003500000000000000000000
#043341:0000002500000000
#0433b1:0013
#043371:000000000000000000000000000000000000000000000000000000530000000023000000000000000000000000000000
#043360:0013
#043320:000000000000000000000000000000000000000000000000000000530000000023000000000000000000000000000000
#0433b0:00000013
#043370:000000000000000000000000000000000000000000000000000000000000000000000000000000530000000023000000
#043361:00000013
#043321:000000000000000000000000000000000000000000000000000000000000000000000000000000530000000023000000
#0443b1:0013
#044371:0000000000230000
#0443b1:00000013
#044371:0000000000000023
#046321:0013
#046361:0000000000230000
#046321:00000013
#046361:0000000000000023
#0473b1:00000000000000130000230000000000
#047381:0000000000000000000000000000000000530000000000000000000000000000
#048321:00000000000000001300002300000000
#048361:0000000000000000000000000000000000000053000000000000000000000000
#048370:00000000000000000000001300002300
#0483b0:0000000000000000000000000000000000000000000000000053000000000000
#0493b0:13000023000000000000000000000000
#049370:0000005300000000000000000000000000000000000000000000000000000000
#049361:00000013000023000000000000000000
#049321:0000000000000000005300000000000000000000000000000000000000000000
#0493b0:0000001353000000
#049370:00000023
#049361:0013
#049321:00000023
#052381:0013
#0523b1:0000000000230000
#052381:00000013
#0523b1:0000000000000023
#054351:0013
#054321:0000000000230000
#054351:00000013
#054321:0000000000000023
#055321:00000000000000130000230000000000
#055351:0000000000000000000000000000000000530000000000000000000000000000
#0563b1:00000000000000001300002300000000
#056371:0000000000000000000000000000000000000053000000000000000000000000
#056360:00000000000000000000001300002300
#056320:0000000000000000000000000000000000000000000000000053000000000000
#057320:13000023000000000000000000000000
#057360:0000005300000000000000000000000000000000000000000000000000000000
#057371:00000013000023000000000000000000
#0573b1:0000000000000000005300000000000000000000000000000000000000000000
#057320:0000001353000000
#057360:00000023
#057371:0013
#0573b1:00000023
#0603b1:130000000000000000000000000000000000000000000000000000000000000000000000000000000000000000000000000000000000000000000000000000000000000000000000000000000000000000000000000000000053000000000000000000000000000000000000000000000000000000000000000000000000000000000000000000000000000000000000000000000000000000000000000000000000000000000000000000000000000000000000000000000000000000000000000000000000000000000000000000000000000000000000000000000000000000000000000000000000000000000000000000000000000000000000000000000000000000000000000000000000000000000000000000000000000000000000000000000000000000000000000000000000000000000000000000000000000000000000000000000000000000000000000000000000000000000000000000000000000000000000000000000000000000000000000000000000000000000000000000000000000000000000000000000000000000000000000000000000000000000000000000000000000000000000000000000000000000000000000000000000005300000000000000000000000000000000000000000000000000000000000000000000000000000000000000000000000000000000000000000000000000000000000000000000000000000000000000000000000000000000000000000000000000000000000000000000000000000000000000000053000000000000000000000000000000000000000000000000000000000000000000000000000000000000000000000000000000000000000000000000000000000000000000000000000000000000000000000000000000000000000000000000000000000000000000000000000000000000000000000000000000000000000000000000000000000000000000000000000000000000000000000000000000000000000000000000000000000000000000000000000000000000000000000000000000000000000000000000000000000000000000000000000000000000000000000000000000000000000000000000000000000000000000000000000000000000000000000000000000000000000000000000000000000000000000000000000000000000000000000000000000000000000000000000000000000000000000000000000000000000000000000000000000000000000000000000000000000000000000000000005300000000000000000000000000000000000000000000000000000000
#060361:000000000000000000000000000000000000000000000000000000000000000000000000000000000000000000000000000000000000000000000000000000000000000000000000000000000000000000000000000000000000580000000000000000000000000000000000000000000000000000000000380000000000000000000000000000000000000000000000000000000000585300000000000000000000000000000000000000000000000000000000000000000000000000000000000000000000000000000000000000000000000000000000000000000000000000000000000000000000000000000000000000000000000000000000000000000000000000000000000000000000000000000000000000000000000000000000000000000000000000000000000000000000000000000000000000000000000000000000000000000053560000000000000000000000000000000000000000000000000000000000360000000000000000000000000000000000000000000000000000000056000000000000000000000000000000000000000000000000000000000000000000000000000000000000000000000000000000000000000000000000000000000000000000000000000000000000000000000000000000000000000000000000000000000000000000000000000000000000000000000000000000000000000000000000000000000000000000000000000000000000000000000000000000000000000000000000000000000000000000000000580000000000000000000000000000000000000000000000000000000000380000000000000000000000000000000000000000000000000000000000585300000000000000000000000000000000000000000000000000000000000000000000000000000000000000000000000000000000000000000000000000000000000000000000000000000000000000000000000000000000000000000000000000000000000000000000000000000000000000000000000000000000000000000000000000000000000000000000000000000000000000000000000000000000000000000000000000000000000000005300560000000000000000000000000000000000000000000000000000000000360000000000000000000000000000000000000000000000000000000056000000000000000000000000000000000000000000000000000000000000000000000000000000000000000000000000000000000000000000000000000000000000000000000000000000000000000000000000000000000000
#060391:0000000000000000000000000055355500000000000000000000000000553555
#0613b1:000000000000000000000000000000000000000000000000000000000000000000000000000000000000000000000000000000000000000000000000000000000000000000000000000000000000000000000000000000000053000000000000000000000000000000000000000000000000000000000000000000000000000000000000000000000000000000000000000000000000000000000000000000000000000000000000000000000000000000000000000000000000000000000000000000000000000000000000000000000000000000000000000000000000000000000000000000000000000000000000000000000000000000000000000000000000000000000000000000000000000000000000000000000000000000000000000000000000000000000000000000000000000000000000000000000000000000000000000000000000000000000000000000000000000000000000000000000000000000000000000000000000000000000000000000000000000000000000000000000000000000000000000000000000000000000000000000000000000000000000000000000000000000000000000000000000000000000000000000000000005300000000000000000000000000000000000000000000000000000000000000000000000000000000000000000000000000000000000000000000000000000000000000000000000000000000000000000000000000000000000000000000000000000000000000000000000000000000000000000000000000000000000000000000000000000000000000000000000000000000230000000000000000000000000000000000000000000000000000000000000000000000000000000000000000000000000000000000000000000000000000000000000000000000000000000000000000000000000000000000000000000000000000000000000000000000000000000000000000000000000000000000000000000000000000000000000000000000000000000000000000000000000000000000000000000000000000000000000000000000000000000000000000000000000000000000000000000000000000000000000000000000000000000000000000000000000000000000000000000000000000000000000000000000000000000000000000000000000000000000000000000000000000000000000000000000000000000000000000000000000000000000000000000000000000000000000000000000000000000000000000000000000000000000000000000000000000000000000000000000
#061361:000000000000000000000000000000000000000000000000000000000000000000000000000000000000000000000000000000000000000000000000000000000000000000000000000000000000000000000000000000000000580000000000000000000000000000000000000000000000000000000000380000000000000000000000000000000000000000000000000000000000585300000000000000000000000000000000000000000000000000000000000000000000000000000000000000000000000000000000000000000000000000000000000000000000000000000000000000000000000000000000000000000000000000000000000000000000000000000000000000000000000000000000000000000000000000000000000000000000000000000000000000000000000000000000000000000000000000000000000000000053560000000000000000000000000000000000000000000000000000000000360000000000000000000000000000000000000000000000000000000056000000000000000000000000000000000000000000000000000000000000000000000000000000000000000000000000000000000000000000000000000000000000000000000000000000000000000000000000000000000000000000000000000000000000000000000000000000000000000000000000000000000000000000000000000000000000000000000000000000000000000000000000000000000000000000000000000000000000000000000000000000000000000000000000000000000000000000000000000000000000000000000000000000000000000000000000000000000000000000000000000000000000000000000000000000000000000000000000000000000000000000000000000000000000000000000000000000000000000000000000000000000000000000000000000000000000000000000000000000000000000000000000000000000000000000000000000000000000000000000000000000000000000000000000000000000000000000000000000000000000000000000000000000000000000000000000000000000000000000000000000000000000000000000000000000000000000000000000000000000000000000000000000000000000000000000000000000000000000000000000000000000000000000000000000000000000000000000000000000000000000000000000000000000000000000000000000000000000000000000000000000000000000000000000000000000000000000000000000000000000
#061391:0000000000000000000000000055355500000000000000000000000000000000
#062371:130000000000000000000000000000000000000000000000000000000000000000000000000000000000000000000000000000000000000000000000000000000000000000000000000000000000000000000000000000000053000000000000000000000000000000000000000000000000000000000000000000000000000000000000000000000000000000000000000000000000000000000000000000000000000000000000000000000000000000000000000000000000000000000000000000000000000000000000000000000000000000000000000000000000000000000000000000000000000000000000000000000000000000000000000000000000000000000000000000000000000000000000000000000000000000000000000000000000000000000000000000000000000000000000000000000000000000000000000000000000000000000000000000000000000000000000000000000000000000000000000000000000000000000000000000000000000000000000000000000000000000000000000000000000000000000000000000000000000000000000000000000000000000000000000000000000000000000000000000000000005300000000000000000000000000000000000000000000000000000000000000000000000000000000000000000000000000000000000000000000000000000000000000000000000000000000000000000000000000000000000000000000000000000000000000000000000000000000000000000053000000000000000000000000000000000000000000000000000000000000000000000000000000000000000000000000000000000000000000000000000000000000000000000000000000000000000000000000000000000000000000000000000000000000000000000000000000000000000000000000000000000000000000000000000000000000000000000000000000000000000000000000000000000000000000000000000000000000000000000000000000000000000000000000000000000000000000000000000000000000000000000000000000000000000000000000000000000000000000000000000000000000000000000000000000000000000000000000000000000000000000000000000000000000000000000000000000000000000000000000000000000000000000000000000000000000000000000000000000000000000000000000000000000000000000000000000000000000000000000000005300000000000000000000000000000000000000000000000000000000
#062321:000000000000000000000000000000000000000000000000000000000000000000000000000000000000000000000000000000000000000000000000000000000000000000000000000000000000000000000000000000000000580000000000000000000000000000000000000000000000000000000000380000000000000000000000000000000000000000000000000000000000585300000000000000000000000000000000000000000000000000000000000000000000000000000000000000000000000000000000000000000000000000000000000000000000000000000000000000000000000000000000000000000000000000000000000000000000000000000000000000000000000000000000000000000000000000000000000000000000000000000000000000000000000000000000000000000000000000000000000000000053560000000000000000000000000000000000000000000000000000000000360000000000000000000000000000000000000000000000000000000056000000000000000000000000000000000000000000000000000000000000000000000000000000000000000000000000000000000000000000000000000000000000000000000000000000000000000000000000000000000000000000000000000000000000000000000000000000000000000000000000000000000000000000000000000000000000000000000000000000000000000000000000000000000000000000000000000000000000000000000000580000000000000000000000000000000000000000000000000000000000380000000000000000000000000000000000000000000000000000000000585300000000000000000000000000000000000000000000000000000000000000000000000000000000000000000000000000000000000000000000000000000000000000000000000000000000000000000000000000000000000000000000000000000000000000000000000000000000000000000000000000000000000000000000000000000000000000000000000000000000000000000000000000000000000000000000000000000000000000005300560000000000000000000000000000000000000000000000000000000000360000000000000000000000000000000000000000000000000000000056000000000000000000000000000000000000000000000000000000000000000000000000000000000000000000000000000000000000000000000000000000000000000000000000000000000000000000000000000000000000
#062351:0000000000000000000000000055355500000000000000000000000000553555
#063371:000000000000000000000000000000000000000000000000000000000000000000000000000000000000000000000000000000000000000000000000000000000000000000000000000000000000000000000000000000000053000000000000000000000000000000000000000000000000000000000000000000000000000000000000000000000000000000000000000000000000000000000000000000000000000000000000000000000000000000000000000000000000000000000000000000000000000000000000000000000000000000000000000000000000000000000000000000000000000000000000000000000000000000000000000000000000000000000000000000000000000000000000000000000000000000000000000000000000000000000000000000000000000000000000000000000000000000000000000000000000000000000000000000000000000000000000000000000000000000000000000000000000000000000000000000000000000000000000000000000000000000000000000000000000000000000000000000000000000000000000000000000000000000000000000000000000000000000000000000000000000000000000000000000000000000000000000000000000000000000000000000000000000000000000000000000000000000000000000000000000000000000000000000000000000000000000000000000000000000000000000000000000000000000000000000000000000000000000000000000000000000000000000000000000000000000000000000000000000000000000000000000000000000000000000000000000000000000000000000000000000000000000000000000000000000000000000000000000000000000000000000000000000000000000000000000000000000000000000000000000000000000000000000000000000000000000000000000000000000000000000000000000000000000000000000000000000000000000000000000000000000000000000000000000000000000000000000000000000000000000000000000000000000000000000000000000000000000000000000000000000000000000000000000000000000000000000000000000000000000000000000000000000000000000000000000000000000000000000000000000000000000000000000000000000000000000000000000000000000000000000000000000000000000000000000000000000000000000000000000000000000000000000000000000000000000000000000000000000000000000
#063321:000000000000000000000000000000000000000000000000000000000000000000000000000000000000000000000000000000000000000000000000000000000000000000000000000000000000000000000000000000000000580000000000000000000000000000000000000000000000000000000000380000000000000000000000000000000000000000000000000000000000585300000000000000000000000000000000000000000000000000000000000000000000000000000000000000000000000000000000000000000000000000000000000000000000000000000000000000000000000000000000000000000000000000000000000000000000000000000000000000000000000000000000000000000000000000000000000000000000000000000000000000000000000000000000000000000000000000000000000000000000000000000000000000000000000000000000000000000000000000000000230000000000000000000000000000000000000000000000000000000000000000000000000000000000000000000000000000000000000000000000000000000000000000000000000000000000000000000000000000000000000000000000000000000000000000000000000000000000000000000000000000000000000000000000000000000000000000000000000000000000000000000000000000000000000000000000000000000000000000000000000000000000000000000000000000000000000000000000000000000000000000000000000000000000000000000000000000000000000000000000000000000000000000000000000000000000000000000000000000000000000000000000000000000000000000000000000000000000000000000000000000000000000000000000000000000000000000000000000000000000000000000000000000000000000000000000000000000000000000000000000000000000000000000000000000000000000000000000000000000000000000000000000000000000000000000000000000000000000000000000000000000000000000000000000000000000000000000000000000000000000000000000000000000000000000000000000000000000000000000000000000000000000000000000000000000000000000000000000000000000000000000000000000000000000000000000000000000000000000000000000000000000000000000000000000000000000000000000000000000000000000000000000000000000000000000000000000000000000000000000
