This file was generated by Ched 2.6.2.0.
#TITLE ""
#ARTIST ""
#DESIGNER ""
#DIFFICULTY 0
#PLAYLEVEL
#SONGID ""
#WAVE ""
#WAVEOFFSET 0
#JACKET ""
#REQUEST "ticks_per_beat 480"
#00002: 4
#BPM01: 128
#00008: 01
#TIL00: ""
#HISPEED 00
#MEASUREHS 00
#0001a:14140000
#00014:00001414
#00118:14140000
#00112:00001414
#0041a:14
#00418:0014
#00412:00000014
#00414:00140000
#00410:41
#0121a:1414
#01214:00140014
#01210:41
#0051a:14
#00518:0014
#00514:00140000
#00512:00000014
#04414:0014000000000014
#04418:00141400
#04412:0000001400140000
#0441a:24000014
#0441f:21
#01318:1414
#01312:00140014
#0141a:14
#01414:00140000
#01418:0014
#01412:00000014
#01912:16161600
#01918:0016001600000000
#02814:00000014
#02810:41
#02914:00000014
#0291a:0014
#04612:14000014
#04618:0014000000000014
#04614:00141400
#0461a:0000001400140000
#0501a:14140000
#05014:0014001400000000
#05018:00001414
#05012:0000000000140014
#0511a:14140000
#05114:0014001400000000
#05118:00001414
#05112:0000000000140000
#0601a:14
#06012:00140000
#06018:0014
#06014:00000014
#00812:14
#00814:0014
#0081a:00000014
#00818:00140000
#00912:14
#00914:0014
#00918:00140000
#0091a:00000014
#01112:1414
#0111a:00140014
#01118:0014
#01114:00000014
#01612:1414
#01618:00140014
#01714:1414
#0171a:00140014
#01812:14
#01818:00140000
#01814:0014
#0181a:00000014
#02012:1414
#02018:00140014
#02010:41
#02114:1414
#0211a:00140014
#02212:14
#02218:00140000
#02214:0014
#0221a:00000014
#02718:16161600
#02712:0016001600000000
#0241a:1414
#02414:00140014
#02518:1414
#02512:00140014
#0261a:14
#02614:00140000
#02618:0014
#02612:00000014
#0301a:14
#03014:00140000
#03018:0014
#03012:00000014
#0311a:14
#03114:00140000
#03118:0014
#03112:00000014
#03218:00000014
#03318:00000014
#03312:0014
#03412:14
#03418:00140000
#03414:0014
#0341a:00000014
#03512:14
#03518:00140000
#03514:0014
#0351a:00000014
#0431a:14000014
#04314:14000014
#04312:0014
#04318:0014
#04915:00000016000000000000000000000000
#04912:16
#0481a:0014001400140014
#04814:00140014
#04812:1414
#0471a:0000000000000014
#05218:0014000000000014
#05214:00141400
#0521a:0000001400140000
#05212:24000014
#0541a:14000014
#05414:0014000000000014
#05418:00141400
#05412:0000001400140000
#05715:00000016000000000000000000000000
#05718:16
#05612:0014001400140014
#05618:00140014
#0561a:1414
#05512:0000000000000014
#05510:41
#05812:14140000
#05818:0014001400000000
#05814:00001414
#0581a:0000000000140014
#05912:14140000
#05918:0014001400000000
#05914:00001414
#0591a:0000000000140000
#0611a:14
#06112:00140000
#06118:0014
#06114:00000000000000000000000000343434
#06218:00140000
#06214:0014
#0621a:00000014
#06313:13
#06318:00130000
#06315:0013
#0631a:00000013
#03618:00000014
#0361f:11
#03714:00000014
#0371a:0014
#03818:14
#03814:00140000
#0381a:0014
#03812:00000014
#03918:14
#03914:00140000
#0391a:0014
#03912:00000014
#04014:00000014
#04118:00000014
#04112:0014
#04214:14
#04218:00140000
#04212:0014
#0421a:00000014
#04510:41
#01952:0016
#05158:00000014
#02758:0016
#0435a:64
#04354:64
#05954:00000014
#0023a0:14240000
#002340:00001424
#003380:14240000
#003320:00001424
#0063a0:14
#006380:00240000
#006320:0014
#006340:00000024
#007380:14
#0073a0:00240000
#007340:0014
#007320:00000024
#010320:14
#010340:00240000
#0103a0:0014
#010380:00000024
#0153a0:14000024
#015380:00343400
#023320:14000024
#023340:00343400
#0283a0:14
#028380:0024
#029380:14
#0293a0:00240000
#032320:14
#032340:0024
#033340:14
#033320:00240000
#036340:14
#036320:0024
#037320:14
#037340:00240000
#040380:14
#0403a0:0024
#0413a0:14
#041380:00240000
#0433a0:14
#043380:00240000
#043341:14
#043321:00240000
#0453a1:14003434003400340024000000000000
#047321:14003434003400240000000000000000
#049381:0000001600002600
#053321:14003434003400340024000000000000
#0553a1:14003434003400240000000000000000
#057321:0000001600002600
#061341:00000000000000000000000014343434
#062321:24
