This file was generated by Ched 2.6.2.0.
#TITLE "easy"
#ARTIST ""
#DESIGNER ""
#DIFFICULTY 0
#PLAYLEVEL
#SONGID ""
#WAVE ""
#WAVEOFFSET 0
#JACKET ""
#REQUEST "ticks_per_beat 480"
#00002: 4
#BPM01: 128
#00008: 01
#TIL00: ""
#HISPEED 00
#MEASUREHS 00
#00019:14
#00119:14
#00213:14
#00313:14
#00419:14
#00513:14
#00619:14
#00713:14
#0081a:14
#00810:41
#0091a:14
#01014:14
#01114:14
#01218:14
#01318:14
#01412:14
#01512:14
#02018:14
#02114:14
#02218:14
#02314:14
#0241a:14
#02410:41
#02512:14
#0261a:14
#02712:14
#03618:2616
#0361f:21
#03718:16
#03812:1616
#03810:41
#03912:16
#04018:16
#04012:0016
#04118:16
#04212:16
#04218:0016
#04312:16
#04412:0016
#04418:26
#04518:1616
#04612:16
#04618:0016
#04712:1616
#04818:16
#04812:0016
#04810:41
#04918:1616
#05012:16
#05018:0016
#05112:1616
#05618:1414
#05714:1414
#05818:14
#05814:0014
#05918:14
#05914:0014
#06016:18
#0281f:11
#01610:41
#05410:41
#06056:58
#016380:14
#017380:24
#018340:14
#019340:24
#0283a0:14
#0293a0:24
#030340:14
#031340:24
#032380:14
#033380:24
#034320:14
#035320:24
#052380:16
#053380:26
#054320:16
#055320:26
#060360:18
#064380:24
