This file was generated by Ched 2.6.2.0.
#TITLE "expert"
#ARTIST ""
#DESIGNER ""
#DIFFICULTY 0
#PLAYLEVEL
#SONGID ""
#WAVE ""
#WAVEOFFSET 0
#JACKET ""
#REQUEST "ticks_per_beat 480"
#00002: 4
#BPM01: 128
#00008: 01
#TIL00: ""
#HISPEED 00
#MEASUREHS 00
#01612:0013
#01617:0013000000000000
#01616:0000001300000000
#0161b:23000000000000000000001300001300
#01610:41
#00716:00130014
#00712:13
#00718:1313
#00814:00130000
#0081b:00000000000000001300001300000000
#00812:2300000000000013
#00819:00130000
#00817:13
#00810:41
#00912:13
#00915:0013130013000000
#0091b:00131300
#00918:1300001300000000
#01718:1300131300000000
#01712:13000000001300000000130000000000
#01715:00000000000000130000000013000000
#0171b:0013000000000000
#02819:2400001300130013
#02817:0013
#0281b:00130013
#0281f:11
#02812:00130000
#02813:24
#03412:1300000000130000
#0341b:1300001300000000
#03416:0000131300000000
#03417:0013000000130000
#03419:0013
#03414:0013
#03612:2400140024000013
#0361a:14240000
#03616:0014001400000000
#03617:00000000000000000000001300000000
#0361f:21
#03717:00131300
#03712:00131300
#0371b:0013001300001300
#03716:13
#0391b:1300001300000000
#03916:0000001300001300
#03912:00131300
#03915:13
#03917:0013
#04312:13001313
#04317:0000000000130000
#0431b:13001313
#04315:00160000
#04316:0000000000000013
#02917:13
#02914:0000001300130013
#02916:0013
#02912:00130013
#03012:0000001313131313
#03016:13
#03017:00130000
#03218:1300001300130013
#0321b:0013000013001300
#03212:13
#03215:00131313
#03312:13001313
#03317:00130000
#03316:0013000000000000
#0331b:13
#03315:0000001300130013
#03318:00001313
#0441a:24140000
#04412:14242400
#04416:0014001400000000
#04415:0000000000000013
#0441b:00000000000000000000001300000000
#04512:13131300
#04516:0013001300130000
#0451b:0013001300001300
#04517:00131300
#04718:1300001300001300
#0471b:0013000013000000
#04712:1300000000130000
#04715:00131300
#05114:00000013000000000000000000001300
#05113:1313000000000000
#05112:00130000000013000000000000000000
#05119:00130000000000000000000000001300
#0511b:00000013000013000000000000000000
#0511a:1313000000000000
#02115:0000000000000013
#02112:13
#0211b:0000130000130000
#02118:00000013
#02116:00130000
#02117:1313
#06012:13
#0601b:13
#0011b:1300000013000013
#00112:00131300
#00115:0000001300001300
#00118:0000000000130000
#0001b:0013
#00018:0000001300001300
#00015:0000000000130000
#00012:0000000013000013
#00013:24
#00019:24
#00317:13
#00316:00130000
#00312:0013
#00315:0000001300001300
#00318:0000000000130000
#0031b:0000000013000013
#00415:0013
#00418:00000013
#0041b:0000001300000013
#00412:0000000000130000
#00416:13
#00417:00130000
#00518:1313
#0051b:0013000000130000
#00515:00130013
#00512:0000001300000013
#00618:00131300
#0061b:0000001300130013
#00615:1300000000130013
#00612:0013000013000000
#01218:1300131300130000
#01212:0000131300000000
#01215:0013000013001313
#0121b:0000000000001313
#01412:13131300
#01418:00130000001300000000000000000000
#01415:000000130000000000130000000000000033333333000000
#0141b:00000013000000130000000000000000
#01413:000000000000000000000000003300000000000000000000
#01414:000000000000000000000000000033333300000000000000
#01416:000000000000000000000000000000000000000000333333
#0151b:1313
#01517:0013000000130000
#01512:00130013
#01516:0000001300000000
#02615:1313
#02615:13
#0261b:0000130000000013
#02612:0000001300001300
#02618:13
#02715:0013
#02712:0000001300001300
#02718:13
#0271b:00130013
#02015:0000001300000013
#02012:13
#0201b:0000001300000000
#02018:0013
#02515:0000000000130000
#0251b:0000130000000013
#02518:13000013
#02512:1313
#02516:00130000
#05014:1313131300000000
#05015:00130000001300000000000000000000
#05013:00000013000000130000000000000000
#05019:1313131300000000
#0501a:00130000001300000000000014000000
#05018:00000013000000130000000000000000
#05012:00000014
#06315:00000013
#06318:00000013
#00212:1300000013000013
#0021b:00131300
#00218:0000001300001300
#00215:0000000000130000
#01019:00130000
#01012:00000000000000001300001300000000
#0101b:1300000000000013
#01014:00130000
#01016:13
#0111b:13
#01118:0013130013000000
#01112:00131300
#01115:1300001300000000
#01318:1300131300130000
#01312:0000131300000000
#01315:0013000013001313
#0131b:0000000000001313
#0181b:0013
#01812:13000000000000000000001300001300
#01816:0013000000000000
#01817:0000001300000000
#0191b:13131313
#01912:13131313
#01915:0000001400000000
#01917:0014000000140000
#0231b:13000013
#02317:00130000
#02316:1313
#02312:00130013
#02218:0000000000000013
#0221b:0000001300000000
#02215:0013
#02212:13
#02418:0000001300000013
#0241b:13
#02412:0000001300000000
#02415:0013
#02410:41
#0311b:1300001313131313
#03115:13
#03112:0013000000000000
#03118:00130000
#0351b:1313
#0351b:0013
#03518:0013000000130000
#03518:0000000000130000
#03512:00131300
#03512:0013
#03515:0000001300130000
#03515:0000000000130000
#03516:13
#0381a:14140000
#03812:1400000000000013
#03816:0014001400000000
#03815:00000000000000000000001300000000
#03818:0000000000000013
#03810:41
#04012:24142400
#0401a:14240000
#04016:00001400000014000000001300000000
#0401b:0000000000000013
#04116:00131300
#0411b:00131300
#04112:0013001300001300
#04117:13
#0421b:1300001300001300
#04216:1300000013000014
#04212:0013000000130000
#04217:00130000
#04612:14000000140000000000001300000000
#0461a:1414
#04616:0014001400000000
#0461b:0000000000000013
#0491b:13131300
#04917:0013001300130000
#04912:0013001300001300
#04916:00131300
#04818:0000000000000013
#04812:14000000240000002400001300000000
#0481a:24140000
#04816:0014001400000000
#04810:41
#05214:00130000
#0521b:00000000000000001300001300000000
#05217:1300000000000013
#05219:00130000
#05212:23
#05317:1300000000130000
#0531b:00001300001300000000000013000000
#05314:0000001300000000
#05316:00130000
#05319:00000000000000130000000000000000
#05312:13
#05618:0000131300130000
#05612:0000131313000000
#0561b:1300000000001313
#05615:0013000000001313
#05812:13131300
#05818:00130000001300000000000000000000
#05815:000000130000000000130000000000000033333333000000
#0581b:00000013000000130000000000000000
#05813:000000000000000000000000003300000000000000000000
#05814:000000000000000000000000000033333300000000000000
#05816:000000000000000000000000000000000000000000333333
#0591b:1313
#05917:0013000000130000
#05912:00130013
#05916:0000001300000000
#05718:0000131300130000
#05712:0000131313000000
#0571b:1300000000001313
#05715:0013000000001313
#05419:00130000
#05412:00000000000000001300001300000000
#05416:1300000000000013
#05414:00130000
#0541b:13
#05410:41
#0551b:13
#05512:00001300001300000000000013000000
#05519:0000001300000000
#05517:00130000
#05514:00000000000000130000000000000000
#05516:1300000000130000
#02957:63
#02952:13
#03352:53
#03356:0023000000000000
#0335b:13
#0365a:64440000
#03652:34643400
#03656:0024002400000000
#03657:00000000000000000000005300000000
#03752:0063
#0445a:44640000
#04452:54343400
#04456:0024002400000000
#0445b:00000000000000000000002300000000
#04352:0013
#0435b:00000013
#04552:0063
#04556:0000000000230000
#03452:1300000000630000
#0345b:63
#03457:0023000000630000
#0395b:23
#03957:0023
#0475b:0023000000000000
#04758:63
#04752:0000000000230000
#04755:0053
#05154:00000023000000000000000000000000
#05153:5363000000000000
#05152:00230000000000000000000000000000
#0515b:00000023000000000000000000000000
#0515a:6353000000000000
#05159:00230000000000000000000000000000
#01652:0053
#06052:53
#0605b:63
#0015b:53
#00357:53
#00558:63
#0055b:0023000000000000
#00752:53
#00756:00230000
#00955:0053
#0095b:0053
#0155b:63006343
#01557:0023000000230000
#01552:00530033
#01556:0000002300000000
#00857:13
#0085b:0013
#00859:00130000
#02152:53
#02156:00530000
#02658:63
#02655:0063
#02652:00000023
#0265b:00230000
#02758:63
#0275b:00230000
#05054:5363536300000000
#05055:00230000002300000000000000000000
#05053:00000023000000230000000000000000
#05059:5363536300000000
#0505a:00230000002300000000000000000000
#05058:00000023000000230000000000000000
#06355:00000023
#06358:00000023
#00252:63
#00456:63
#00655:53
#00652:0023000000000000
#01054:00130000
#01052:0013
#01056:13
#01258:13
#01255:0013
#01358:13
#01355:0013
#01452:0063
#01158:0063
#01152:0063
#0185b:0063
#0195b:00000063
#02057:13
#0235b:63
#02357:00630000
#02352:00000053
#02252:63
#02558:63
#0255b:00630000
#02456:13
#0305b:13
#03056:53
#0315b:13
#03155:63
#03152:0023000000000000
#03252:13
#03258:53
#0325b:0023000000000000
#0355b:6363
#0355b:0063
#03558:0023000000230000
#03558:0000000000230000
#03552:00535300
#03552:0053
#03555:0000002300230000
#03555:0000000000230000
#0385a:44544400
#03852:54340000
#03856:0024002400000000
#04052:34643400
#0405a:64440000
#04056:00002400000024000000006300000000
#0415b:0053
#04256:5353
#04252:0023000000230000
#04257:00630000
#0425b:0000002300000000
#04652:34000000540000000000002300000000
#0465a:64444400
#04656:0024002400000000
#0495b:0053
#04957:0000000000230000
#04852:54000000340000003400002300000000
#0485a:44640000
#04856:0024002400000000
#05259:00130000
#0525b:0013
#05257:13
#0595b:63006343
#05957:0023000000230000
#05952:00530033
#05956:0000002300000000
#0565b:13
#05652:0013
#0575b:13
#05752:0013
#05852:0063
#05454:00130000
#05452:0013
#05456:13
#01755:00000013
#0013b0:13
#001370:00230000
#002320:13
#002360:00230000
#003370:13
#0033b0:00230000
#004360:13
#004320:00230000
#004380:0000000013230000
#004350:0000000000001323
#005380:13230000
#0053b0:0053000000000000
#005350:0000000013230000
#005380:0000000000001323
#006350:13230000
#006320:0053000000000000
#007320:1323
#007360:00530000
#008360:00000000000000001300002300000000
#009350:0013
#009320:00000023
#0093b1:0013
#009381:00000023
#010371:00000000000000001300002300000000
#011381:0013
#0113b1:00000023
#011320:0013
#011350:00000023
#014320:0013
#014330:000000000000000000000000003300000000000000000000
#014340:000000000000000000000000000033333300000000000000
#014350:000000000000000000000000000000000033333333000000
#014360:000000000000000000000000000000000000000000333333
#015360:23
#0153b1:13230000
#015371:0053000000000000
#015320:00132300
#015360:0000005300000000
#0153b1:00001323
#015371:0000000000530000
#016321:13230000
#0163b0:00132300
#016321:0013
#016361:00000000000000000000003300002300
#0173b1:00001323
#0183b1:13230000
#018320:00132300
#0183b1:0013
#018371:00000000000000000000003300002300
#0193b1:00000013
#020371:23
#020321:0013
#020351:00000000000000000000002300000000
#020380:00000000000000000000001300000000
#0203b0:0000000000000023
#021320:1323
#021360:00530000
#022320:13
#022360:0000002300000000
#0223b0:0013
#022380:00000000000000000000002300000000
#022351:00000000000000000000001300000000
#022321:0000000000000023
#0233b1:1323
#023371:00530000
#023321:00000013
#024361:23
#0243b1:0013
#024381:00000000000000000000002300000000
#024350:00000000000000000000001300000000
#024320:0000000000000023
#025380:1323
#0253b0:00530000
#026380:1323
#0263b0:00530000
#026351:0013
#026321:00000053
#027351:23
#027380:1323
#0273b0:00530000
#028320:0000001300000000
#029320:23
#029371:13
#0293b1:00230000
#0293b1:0000001300000000
#0303b1:23
#030360:13
#030320:00230000
#030380:0000001300330023
#0303b0:00003333
#031350:13230000
#031320:0053000000000000
#031350:0000001300330023
#031320:00003333
#032380:13230000
#0323b0:0053000000000000
#033320:13230000
#033360:0053000000000000
#0343b0:13230000
#034370:0053000000000000
#034320:0000000000130000
#034360:0000000000000023
#034371:0000000000130000
#0343b1:0000000000000023
#0353b1:13230000
#035381:0053000000000000
#035320:00133323
#035350:0000005300530000
#0353b1:00001323
#035381:0000000000530000
#0353b2:00001323
#035382:0000000000530000
#0363a1:14240000
#036361:0054000000000000
#036322:00142400
#036362:0000005400000000
#036372:00000000000000000000001300000000
#0373b2:23
#037322:0013
#037362:00000023
#038322:14240000
#038362:0054000000000000
#0383a1:00142400
#038361:0000005400000000
#0393b1:13
#039371:00230000
#039371:0013
#0393b1:00000023
#0403a1:14240000
#040361:0054000000000000
#040322:00142400
#040362:0000005400000000
#040362:00000000000000000000001300000000
#041322:23
#0413b2:0013
#041372:00000023
#042362:13
#042322:0053000000000000
#042342:00230000
#042371:00130000
#0423b1:0000005300000000
#042391:0023
#042362:0013
#042322:0000000000530000
#042342:00000023
#044322:14240000
#044362:0054000000000000
#0443a1:00142400
#044361:0000005400000000
#0443b1:00000000000000000000001300000000
#045371:23
#045321:00001323
#045361:0000000000330000
#0463a1:14240000
#046361:0054000000000000
#046322:00142400
#046362:0000005400000000
#046322:00000000000000000000001300000000
#046362:0000000000000023
#047382:13230000
#0473b2:0053000000000000
#047352:00001323
#047322:0000000000530000
#048322:14240000
#048362:0054000000000000
#0483a1:00142400
#048361:0000005400000000
#048321:00000000000000000000001300000000
#049361:23
#0493b1:00001323
#049371:0000000000330000
#050341:1353535323000000
#050351:00530000005300000000000000000000
#050331:00000053000000530000000000000000
#050392:1353535323000000
#0503a2:00530000005300000000000000000000
#050382:00000053000000530000000000000000
#051332:1353230000000000
#051322:00530000000000000000000000000000
#051342:00000053000000000000000000000000
#0513a1:1353230000000000
#051391:00530000000000000000000000000000
#0513b1:00000053000000000000000000000000
#051361:00001424
#052361:0013
#052321:00000000000000000000003300002300
#053321:00001323
#054371:0013
#0543b1:00000000000000000000003300002300
#0553b1:00001323
#058321:0013
#058331:000000000000000000000000003300000000000000000000
#058341:000000000000000000000000000033333300000000000000
#058351:000000000000000000000000000000000033333333000000
#058361:000000000000000000000000000000000000000000333333
#059361:23
#0593b2:13230000
#059372:0053000000000000
#059321:00132300
#059361:0000005300000000
#0593b2:00001323
#059372:0000000000530000
#060322:13
#062352:53
#063352:00000053
#064322:23
#0603b1:13
#062381:53
#063381:00000053
#0643b1:23
