This file was generated by Ched 2.6.2.0.
#TITLE "hard"
#ARTIST ""
#DESIGNER ""
#DIFFICULTY 0
#PLAYLEVEL
#SONGID ""
#WAVE ""
#WAVEOFFSET 0
#JACKET ""
#REQUEST "ticks_per_beat 480"
#00002: 4
#BPM01: 128
#00008: 01
#TIL00: ""
#HISPEED 00
#MEASUREHS 00
#01618:13
#0161a:0014
#01616:00000000000000000000001400000000
#01612:0000000000000014
#01610:41
#00712:00000013
#00715:00130000
#00718:00130013
#00719:13
#00714:13
#0171b:13
#01718:0000131300000000
#01715:00000000001300130000000000000000
#01712:0013000000000000
#02812:00000013
#02818:0000000000130013
#02815:0013
#0281b:0000001300000000
#0281f:11
#02814:23
#02819:23
#03715:0013001300000000
#03718:13
#03712:00130000
#0371b:00130000
#0361b:0000000000000013
#0361f:21
#0361a:24
#03612:0024
#04318:00000013
#0431b:0013
#04312:0000000000000013
#04315:0000000000130000
#03218:0000001300001300
#03215:1300000000000013
#0321b:0000000000130000
#03212:0013
#0351b:00000033330000330000000013000000
#03512:13000013
#03518:13
#03515:00000033330000330000000000000000
#05112:1400001300000000
#05118:0000001300001300
#05115:0000000013000013
#0511a:14
#0511b:0013
#0191b:00130013
#01918:1313
#01915:00130013
#01912:1313
#0201b:0000001313000000
#02015:0000001313000013
#02018:00000000000000000000001300000000
#0211b:0000000000130000
#02118:0000000000000013
#02112:13
#02115:00000013
#00115:1300000000130000
#0011b:0013
#00118:00000013
#00112:0000001300000013
#00012:0000001313000000
#00015:26000013
#00018:0000000000130000
#0001b:0000001300000013
#00418:0013
#00412:00000013
#00415:0000001300130013
#0041b:0000001300001300
#00417:13
#00614:0000001300000013
#00619:0000000000130013
#00615:13
#0061b:1300001300000000
#00616:0014
#00612:0000000000130000
#0121b:1313000000000000
#01215:0000131300000000
#01218:0000000013130000
#01212:0000000000001313
#01318:1313
#01315:0013000000130000
#0131b:00130013
#01312:0000001300000013
#01515:0000000000000013
#01518:00140000
#01514:0014
#0151b:00000013
#02712:00000013
#0271b:00000013
#02715:13
#02615:1300000000000013
#02618:0000001313000000
#00212:0013
#00214:00000013
#00218:1300000000130000
#0021b:0000001300000013
#0031b:0013
#00319:00000013
#00315:0000000000130000
#00312:0000001300000013
#00316:13
#00518:1300001300130013
#00512:1300001300001300
#00515:0013
#0051b:00000013
#00917:0013
#00913:0000001300000000
#00919:00130000
#00915:0013000000000000
#0091b:13
#0081b:2313
#00812:00140014
#00815:2313
#00810:41
#01116:0013
#0111a:0000001300000000
#01114:00130000
#01118:0013000000000000
#01112:13
#03412:0000000000000013
#03415:1300000000130000
#03418:0013
#0341b:0000001300000000
#02212:1300001313000000
#02218:0000001313000013
#02215:00000000000000000000001300000000
#02315:00000013
#0231b:13000013
#0241b:0000001313000000
#02415:0000001313000013
#02418:00000000000000000000001300000000
#02410:41
#0251b:0000000000130000
#02518:0000000000000013
#02512:13
#02515:00000013
#04218:1414
#0421a:00140014
#04214:1414
#04212:00140014
#04518:0013130000000000
#04515:1300001300000000
#0451b:1313
#04512:00130000
#04412:0000000000000013
#0441a:2414
#04418:00140000
#0461b:0000000000000013
#04612:1414
#04614:00140000
#0471b:13
#04716:13
#04712:0000001313000000
#04717:0013
#05013:1414141400000000
#05014:00140000001400000000000013000000
#05012:00000014000000140000000000000000
#05019:1414141400001300
#05018:00140000001400000000000000000000
#0501a:00000014000000140000000000000000
#05415:13
#0541b:13
#05412:0014
#05416:00000000000000000000001400000000
#0541a:0000000000000014
#05410:41
#05912:00000013
#0591b:00000013
#05914:00140000
#05918:0014
#01012:1313
#0101a:00140014
#01018:1313
#0141b:13001300000000001333333333333333
#01415:13001300000000001333333333333333
#01418:0000131300000000
#01412:0000131300000000
#01815:13
#01812:0014
#01816:00000000000000000000001400000000
#0181a:0000000000000014
#03012:00000013
#03015:0000000000130013
#03018:1313
#0301b:0000001300000000
#03118:1300000000130013
#0311b:00000013
#03115:0013
#03112:0000001300000000
#02915:1300000000130013
#0291b:00000013
#02918:0013
#02912:0000001300000000
#03318:1300000000000013
#03315:0000001300001300
#03312:0000000000130000
#0331b:0013
#03915:0013
#0391b:0000001313000000
#03918:13
#03912:13
#03812:0000000000000013
#03810:41
#04115:0013001300000000
#04118:13
#04112:00130000
#0411b:00130000
#0401b:0000000000000013
#0401a:24
#04012:0024
#0481a:2414
#04818:00140000
#04812:0000000000000013
#04810:41
#04918:0013130000000000
#04915:1300001300000000
#0491b:1313
#04912:00130000
#0531b:13
#05318:0000131300000000
#05315:00000000001300130000000000000000
#05312:0013000000000000
#0521a:0014
#05216:00000000000000000000001400000000
#05212:1300000000000014
#05218:13
#05512:13
#05515:0000131300000000
#05518:00000000001300130000000000000000
#0551b:0013000000000000
#0561b:1313000000000000
#05615:0000131300000000
#05618:0000000013130000
#05612:0000000000001313
#0571b:1313
#05712:0013000000130000
#05718:00130013
#05715:0000001300000013
#05812:13001300000000001333333333333333
#05818:13001300000000001333333333333333
#05815:0000131300000000
#0581b:0000131300000000
#01658:63
#00155:53
#00754:53
#00759:53
#00755:00230000
#00758:00230000
#00752:0033
#0075b:0043
#02152:53
#02655:53
#02658:0063
#00457:63
#00356:53
#00258:63
#00558:63
#00552:63
#00655:53
#0065b:53
#01558:13140000
#01554:0014
#01552:13
#01758:00000013
#0195b:00000063
#01955:00000063
#02252:63
#02355:00000063
#0235b:63000063
#02552:53
#02755:53
#04258:5454
#0425a:00240024
#04254:6464
#04252:00240024
#0445a:5454
#04458:00000000540000000000001400000000
#0455b:0063
#0475b:63
#04756:53
#04752:0053
#04757:0063
#04652:6464
#04654:00640000
#05053:6464646400000000
#05054:00240000002400000000000000000000
#05052:00000024000000240000000000000000
#05059:5454545400000000
#05058:00240000002400000000000000000000
#0505a:00000024000000240000000000000000
#05455:53
#0545b:53
#00852:00140014
#01455:0053
#0145b:0053
#01855:53
#03158:53
#02955:63
#03058:53
#03255:63
#03358:63
#03455:53
#03552:53
#03558:53
#03955:0053
#0395b:0063
#03958:63
#03952:53
#0485a:5454
#04858:00000000540000000000001400000000
#0495b:0063
#05358:00000013
#05555:00000013
#05954:00140000
#05958:0014
#0595b:13
#05955:13
#05858:0063
#05852:0063
#0105a:00140014
#05258:63
#05252:63
#03654:00000000000000000000001400000000
#04054:00000000000000000000001400000000
#001350:13
#001320:00230000
#002380:13
#0023b0:00230000
#003360:13
#003320:00230000
#004370:13
#0043b0:00230000
#005380:13
#0053b0:00230000
#005321:13
#005351:00230000
#006351:13
#006321:00230000
#0063b0:13
#006380:00230000
#007390:13
#007380:00530000
#0073b0:0023
#007341:13
#007351:00530000
#007321:0023
#014351:00000000000000001333333333333333
#015321:23
#0143b0:00000000000000001333333333333333
#015380:23
#016380:13
#0163b0:00230000
#017380:0000000013332300
#018350:13
#018320:00230000
#0193b0:00000013
#020380:23
#019351:00000013
#020321:23
#021321:13
#021351:0023
#022321:13
#022351:00230000
#0233b1:13
#023381:0023
#023351:00000013
#024321:23
#0233b0:00000013
#024380:23
#025320:13
#025350:0023
#026350:13
#026320:00230000
#026380:0013
#0263b0:00000023
#027350:13
#027320:0023
#029350:13
#029320:00230000
#030380:13
#0303b0:00230000
#031380:13
#0313b0:00230000
#032350:13
#032320:00230000
#033380:13
#0333b0:00230000
#034350:13
#034320:00230000
#035320:13
#035350:00000033330000332300000000000000
#035381:13
#0353b1:00000033330000332300000000000000
#0363a1:14
#036381:00240000
#036321:0014
#036341:00000000000000000000002400000000
#037381:00001323
#038321:14
#038341:00240000
#0383a1:0014
#038381:00000000000000000000002400000000
#039321:13
#039351:00230000
#039380:13
#0393b0:00230000
#0393b0:0013
#039380:00000023
#039351:0013
#039321:00000023
#0403a1:14
#040381:00240000
#040321:0014
#040341:00000000000000000000002400000000
#041381:00001323
#042381:1434
#0423a1:00340034
#043381:24
#042340:1434
#042320:00340034
#043340:24
#0443a0:1434
#044380:00000000340000000000002400000000
#0453b0:0013
#045380:00000023
#046320:1434
#046340:00000000340000000000002400000000
#047360:13
#047320:00230000
#0473b1:13
#047371:00230000
#047371:0013
#0473b1:00000023
#047320:0013
#047360:00000023
#0483a0:1434
#048380:00000000340000000000002400000000
#0493b0:0013
#049380:00000023
#050330:1454545424000000
#050340:00540000005400000000000000000000
#050320:00000054000000540000000000000000
#050391:1454545424000000
#050381:00540000005400000000000000000000
#0503a1:00000054000000540000000000000000
#052381:13
#0523b1:00230000
#052320:13
#052350:00230000
#053380:0000000013332300
#054350:13
#054320:00230000
#0543b1:13
#054381:00230000
#055351:0000000013332300
#058381:00000000000000001333333333333333
#0593b1:23
#058320:00000000000000001333333333333333
#059350:23
#060320:15
#064330:23
#060391:15
#0643a1:23
