This file was generated by Ched 2.6.2.0.
#TITLE "mas"
#ARTIST ""
#DESIGNER ""
#DIFFICULTY 0
#PLAYLEVEL
#SONGID ""
#WAVE ""
#WAVEOFFSET 0
#JACKET ""
#REQUEST "ticks_per_beat 480"
#00002: 4
#BPM01: 128
#00008: 01
#TIL00: ""
#HISPEED 00
#MEASUREHS 00
#01616:1300000013000013
#01617:00000000130000000000001300000000
#01619:0013000000000000
#01614:0000001300000000
#01612:0013000000000000
#0161b:2300001300000000
#01610:41
#00713:00000014
#00715:00130000
#00719:00000014
#00712:13
#00718:00130000
#0071b:13
#0091b:13131300
#00916:0013001300130000
#00912:13131313
#00913:0013001300130000
#01715:00130000
#01718:00000000001300000000000000000000
#01712:0000001313000000
#01717:00000000000000130000000000000000
#01716:13
#0171b:0013130013000000
#0281b:0000131300131300
#02816:0000000013000013
#02817:00130013
#02812:2600000000130000
#0281f:11
#02818:26
#03412:1300131300000000
#03417:1313001300130013
#03416:00001313
#0341b:0013000000000000
#03612:0013140024000013
#03616:00000000000000000000001300000000
#0361a:14240000
#03617:0000001424000000
#03615:2414000000000000
#0361b:00000000000013000000001300000000
#03618:00000000000000000000000000000013
#0361f:21
#03919:0000001300000000
#03917:1300000000130000
#03912:1300000000130000
#03916:0013000013000000
#0391b:0013000013000000
#03914:0000001300000000
#04214:0000000000000013
#04219:0000000000000013
#04312:13001313
#0431b:13001313
#04315:00000000160000000000130000130013
#04318:00000000000000000013001300001300
#0291b:1300000000130000
#02912:0000131300131300
#02917:0000000013000013
#02916:00000013
#0321b:0000001300001313
#03216:1300001400140014
#03214:00000013
#03219:0013
#03212:1300000013130000
#03316:1313001400140014
#0331b:1300130013130000
#03312:0013001300001313
#03319:00000013
#03314:0013
#02016:0000000000000000000000001300000000000013000000000000000000000000
#02012:0000130013000013
#02017:00001300000000001300001300000000
#0201b:0000000000000000000000001300000000000000000000000013000000000000
#00212:1300000000131313
#00217:1300000000130000
#0021b:0000131313000013
#00219:00000013
#00216:0013
#00214:0000001300000000
#00516:13
#00512:0013000000000000
#0051b:00130000
#00517:0013000000000000
#00518:0000001300000000
#00616:0000001300130000
#0061b:0013001300130000
#00612:00131300
#00617:1313000013000000
#00816:14141400
#00819:0013001300000000
#0081b:00000000130000000000001300000000
#00814:0013001300000000
#00812:2300000013000013
#00817:0000000000000013
#00810:41
#0121b:0013000013000000
#01212:1313131313131313
#01217:13
#01216:0000000000000014
#01219:0000001300000000
#0141b:13130000
#01418:000000130000000000130000000000000000130000000000000000003300330033000000000000000000000000000000
#01415:00001300001300130000000000000000
#01412:13131300
#01416:0013
#01417:000000000000000000000000000000000000000000000000000033000000000000000000000000000000000000130000
#01419:000000000000000000000000000000000033333333000000
#0141a:000000000000000000000000000000000000000000333333
#01516:00000013130000000000000000000000
#01517:13000000000000131300000000000000
#0151b:00000000000000001300001313000000
#01512:00130013
#01912:0013000000131300
#01916:1300000013000013
#01917:00130013
#0191b:0000001300000013
#02712:00000013000000000000000015000000
#02719:13001315
#02716:13
#0271b:0013001300000000
#02717:0000130000120012
#02714:0013
#02616:13000013
#0261b:00001300000013000000001300000000
#02612:00000013000000000000130000001300
#02619:13
#02617:00131300
#02614:0013
#0011b:1300001300001300
#00116:13
#00112:0000131313131313
#00119:0000000013000013
#00117:0000000000130000
#0001b:0000001313131313
#00016:0000000000130000
#00012:0000001300001300
#00014:0000000013000013
#00013:24
#00019:24
#0031b:1300000000131313
#00316:1300000000130000
#00312:0000131313000013
#00314:00000013
#00317:0013
#00319:0000001300000000
#00412:13
#00417:13
#0041b:00130000
#00415:0000001300000000
#03518:00000013000000000000130000000000
#03512:13131300
#0351b:13131300
#03516:0000001300000000000000000000000000000000000000000000000000000000
#03515:00000000000000130000130000000000
#03517:0000000000000000000000130000000000000000000000000000000000000000
#03712:13000013000000001300000013000000
#0371b:13000000130000130000000013000000
#03714:0000000000130000
#03715:00130000130013000000000000000000
#03718:00001300001300001300000000000000
#03719:0000000000130000
#04518:0000000000161300
#04512:00001616
#04519:00130000001300000000000000000000
#04517:00000013000000000000000000000000
#0451b:00000000000000130000000000000000
#04515:0000000000130000
#04714:0000001300000000
#04716:1300000000130000
#0471b:1300000000130000
#04717:0013000013000000
#04712:0013000013000000
#04719:0000001300000000
#05014:1313131300000000
#05016:00130000001300000000000000000000
#05012:00000013000000130000000013000000
#05019:1313131300000000
#0501b:00130000001300000000000013000000
#05017:00000013000000130000000000000000
#05116:00000012000000000000000000000000
#05114:1212000000000012
#05112:00120000000000001200000000000000
#05119:0000001200000000
#05115:0000001200000000
#0511a:1212000000000012
#0511c:00000012000000001200000000000000
#05118:00120000000000000000000000000000
#02112:1300000000130000
#02117:1300130013130000
#0211b:0000130000000013
#02114:0033003300001300
#02119:0013001300001300
#02116:0000000000000013
#02113:00330000000000330000000000000000
#02115:00000033003300000000000000000000
#04415:0014241400000000
#0441a:24142400
#04416:00000000000000000000001300000000
#04412:24001300000013002400001300000000
#0441b:00000000000000000000000000000013
#04612:14140000
#04617:00001400140014000000001300000000
#0461a:1414
#0461b:00001300000013000000001300000000
#04616:0000000000000013
#01016:1400140014000013
#01014:0013001300000000
#01012:00000000130000000000001300000000
#01019:0013001300000000
#0101b:1300000013000013
#0131b:1313131313131313
#01314:1400001400000000
#01312:0014000014000000
#01316:00140000
#01315:00000014
#01817:1300000013000013
#01816:00000000130000000000001300000000
#01812:1300001300000000
#01814:0013000000000000
#01819:0000001300000000
#0181b:0013000000000000
#02216:13000000000000001300001300000000
#0221b:1300000013000013
#02217:0000000000000000000000001300000000000013000000000000000000000000
#02212:0000000000000000000000001300000000000000000000000013000000000000
#0231b:13000013
#02316:13131313
#02312:0000130000130013
#02317:0000000000130013
#02314:0013001300000000
#0231a:00330000000000330000000000000000
#02319:0033003300000000
#02318:00000033003300000000000000000000
#03012:13
#0301b:00131313
#03017:0000001300130013
#0311b:13
#03117:13
#03116:0000001300130013
#03112:00001313
#03817:14001400000000000000001300000000
#03815:0000001414000000
#0381b:0013000000000013
#03812:14000000000013000000001300000000
#0381a:00140000
#03810:41
#04012:00001300140000002400001300000000
#04017:00000000000014002400001300000000
#0401a:14240000
#04015:24001400000000000000000000000013
#0401b:0000001300000013
#04912:00000000000000130000160000000000
#04918:0000000016131600
#04914:00130000001300000000000000000000
#04916:00000013000000000000000000000000
#04915:00000013
#04815:0014241400000000
#0481a:24142400
#04817:00000000000000000000001300000000
#0481b:00000000000000000000001300000000
#04812:24001300000013002400000000000013
#04810:41
#0521b:00001300130000000000001300000000
#05217:1300131313000000
#05212:2313001313000013
#0581b:13130000
#05818:000000130000000000130000000000000000130000000000000000003300330033000000000000000000000000000000
#05815:00001300001300130000000000000000
#05812:13131300
#05817:000000000000000000000000000000000000000000000000000033000000000000000000000000000000000000130000
#05816:0013
#0581a:000000000000000000000000000000000000000000333333
#05819:000000000000000000000000000000000033333333000000
#05916:00000013130000000000000000000000
#05917:13000000000000131300000000000000
#05912:00130013
#0591b:00000000000000001300001313000000
#05312:1313
#05316:0000000000130000
#05317:0013000000000000
#0531b:00000000001300000000130000000000
#05318:00000000130000130000000000000000
#05315:0000001300000000
#05314:0000000000000013
#05319:0000000000000013
#05412:00001300130000000000001300000000
#05416:1300131313000000
#0541b:1313001313000013
#05410:41
#0551b:1313
#05517:0000000000130000
#05516:0013000000000000
#05512:00000000001300000000130000000000
#05515:00000000130000130000000000000000
#05518:0000001300000000
#05514:0000000000000013
#05519:0000000000000013
#05612:13
#05615:0013000000000000
#05613:00130000
#05616:0000001300000000
#0561b:0013
#05618:0000000000130000
#0561a:00000013
#05617:0000000000000013
#05715:13
#05712:0013001300000000
#05714:00130000
#05717:0013
#0571b:0000000000130013
#05719:00000013
#01112:13131300
#01117:0013001300130000
#0111b:13131313
#0111a:0013001300130000
#02416:0000000000000000000000001300000000000013000000000000000000000000
#02412:0000130013000013
#02417:00001300000000001300001300000000
#0241b:0000000000000000000000001300000000000000000000000013000000000000
#02410:41
#02512:1300000000130000
#02517:1300130013130000
#0251b:0000130000000013
#02514:0033003300001300
#02519:0013001300001300
#02516:0000000000000013
#02513:00330000000000330000000000000000
#02515:00000033003300000000000000000000
#0411b:13000013000000001300000013000000
#04112:13000000130000130000000013000000
#04119:0000000000130000
#04118:00130000130013000000000000000000
#04115:00001300001300001300000000000000
#04114:0000000000130000
#0295b:63
#02952:00130000
#02957:33
#03356:53
#0335b:13131300
#03352:0023000000000000
#03359:00000013
#0365a:64440000
#03652:00643400
#03657:0000002444000000
#03655:3424000000000000
#0365b:00000000000000000000006300000000
#03457:6300006300630000
#03456:00006363
#03452:13130000
#0345b:0023000000000000
#0395b:0023000063004300
#03956:0023000053004300
#03957:6300000000230000
#03952:5300000000230000
#01656:5353
#01657:00000000530000000000005300000000
#01652:0023000000000000
#0165b:0000002300000000
#01757:00000013
#0175b:00000013
#01752:0063
#00252:63
#00556:53
#00552:0023000000000000
#01556:00630000
#01557:5353
#0155b:13001313
#01552:00130013
#02656:63
#02652:00000023000000000000000000000000
#02657:0053
#0265b:00000000000000000000002300000000
#02659:43
#02654:0033
#0015b:53
#0035b:53
#00452:63
#01252:13131313
#0125b:0023000063000000
#01257:63
#03552:63336333
#0355b:43534343
#03556:0000002300000000000000000000000000000000000000000000000000000000
#03557:0000000000000000000000230000000000000000000000000000000000000000
#03555:0000000000230000
#03558:0000000000230000
#00755:00230000
#00752:53
#00758:00230000
#0075b:63
#04558:0000000000460000
#04552:00000036
#04756:5300000000230000
#0475b:6300000000230000
#04757:0023000063003300
#04752:0023000053003300
#05054:5363536300000000
#05056:00230000002300000000000000000000
#05052:00000023000000230000000000000000
#05059:5363536300000000
#0505b:00230000002300000000000000000000
#05057:00000023000000230000000000000000
#05156:00000022000000000000000000000000
#05154:5262000000000000
#05152:00220000000000005200000000000000
#0515c:00000022000000006200000000000000
#0515a:5262000000000000
#05158:00220000000000000000000000000000
#01952:00000063
#01956:0000000000000023
#01957:00000063
#0195b:0000000000000023
#02152:6300000000130000
#02157:00230000
#02159:00000013
#02156:0000000000000013
#0445a:54644400
#04455:0024342400000000
#04452:3434
#04456:00000000000000000000005300000000
#04652:54543400
#04657:00002400440024000000006300000000
#0465a:4444
#00657:63
#0065b:0023000000530000
#00656:0000000000530000
#00856:44344400
#00852:0053
#0095b:63636300
#00956:0023002300230000
#01056:34443400
#0105b:0063
#0135b:13131313
#01857:6363
#01856:00000000630000000000006300000000
#0185b:0023000000000000
#01852:0000002300000000
#02052:3353
#02057:33000000000000000000005300000000
#02056:0000000000000000000000000000000000000023000000000000000000000000
#0205b:0000000000000000000000000000000000000000000000000023000000000000
#0235b:53000053
#02356:00230053
#02357:0000000000000023
#02352:0000000000000023
#0225b:5363
#02257:0000000000000000000000000000000000000023000000000000000000000000
#02256:53000000000000000000006300000000
#02252:0000000000000000000000000000000000000000000000000023000000000000
#0245b:4300000000000000000000000000000000000000000000000023000000000000
#02456:4300000000000000000000000000000000000023000000000000000000000000
#02452:0053
#02457:00000000000000000000005300000000
#02756:63
#02752:00000023000000000000000000000000
#02759:43
#03052:53
#0305b:00130000
#03056:43
#0315b:63
#03156:00130000
#03157:63
#03152:00130000
#03252:5313
#03256:53
#03257:00130000
#0325b:00130000
#03254:00000013
#0385a:00544400
#03852:54000000340000000000005300000000
#03855:0000002434000000
#03857:4424000000000000
#04052:00000000640000003400005300000000
#0405a:64440000
#04057:0000002444000000
#04055:3424000000000000
#04352:0013
#0435b:00000013
#04952:0000000000360000
#04958:00000046
#04855:0024342400000000
#0485a:54644400
#04857:00000000000000000000006300000000
#04852:3434
#0525b:00000000330000000000006300000000
#05257:4343
#05252:0053
#05956:00630000
#05952:00130013
#05957:5353
#0595b:13001313
#05352:00005333
#05356:0000000000230000
#05357:00000033
#0535b:0000000000230000
#05452:00000000430000000000005300000000
#05456:3333
#0545b:0063
#0555b:00006343
#05557:0000000000230000
#05552:0000000000230000
#05556:00000043
#05652:13
#0565b:0013
#01152:53535300
#01157:0023002300230000
#02552:6300000000130000
#02557:00230000
#02559:00000013
#02556:0000000000000013
#05755:33
#05757:0043
#01456:0063
#05856:0063
#0013b0:13
#001360:00230000
#002320:13
#002370:00230000
#0033b0:13
#003360:00230000
#004320:13
#004370:00230000
#0043b0:0000001300000000
#004380:0023
#004351:0013
#004321:0000000000230000
#004380:0000000000130000
#0043b0:00000023
#004321:00000013
#004351:0000000000000023
#004380:0000000000000013
#0053b0:23
#005361:13230000
#005321:0053000000000000
#005321:0000001300000000
#005351:0023
#005380:0013
#0053b0:0000000000230000
#005351:0000000000130000
#005321:00000023
#0053b0:00000013
#005380:0000000000000023
#005351:0000000000000013
#006321:23
#006370:13230000
#0063b0:0053000000000000
#0063b0:0000000000130000
#006370:0000000000000023
#006361:0000000000130000
#006321:0000000000000023
#007321:1323
#007351:00530000
#0073b0:1323
#007380:00530000
#008320:0013
#008370:00000000000000000000002300000000
#0093b0:13333323
#009360:0033003300330000
#0103b0:0013
#010360:00000000000000000000002300000000
#011320:13333323
#011370:0033003300330000
#012370:13230000
#0123b0:0053000000000000
#0123b0:0013
#012360:00000000000000000000002300000000
#014360:0013
#014370:000000000000000000000000003300000000000000000000
#014380:000000000000000000000000000033333300000000000000
#014390:000000000000000000000000000000000033333333000000
#0143a0:000000000000000000000000000000000000000000333333
#0153b0:23
#015371:13
#015321:00000023000000000000000000000000
#015361:00130000
#0153b1:00000000000000230000000000000000
#015371:0013
#015321:00000000000000000000002300000000
#016361:13
#016321:0053000000000000
#016341:00230000
#016370:00130000
#0163b0:0000005300000000
#016390:0023
#016361:0013
#016321:00000000000000000053002300000000
#016370:00000000000000000000001300000000
#0163b0:0000000000005323
#017320:13
#017370:0023000000000000
#017320:0013
#017370:0000000000332300
#0173b1:0000000000132300
#018371:13
#0183b1:0053000000000000
#018391:00230000
#018360:00130000
#018320:0000005300000000
#018340:0023
#018371:0013
#0183b1:00000000000000000053002300000000
#018360:00000000000000000000001300000000
#018320:0000000000005323
#0193b0:13
#019360:0023000000000000
#019320:00130000
#019370:0000002300000000
#0193b0:0013
#019360:0000000000230000
#019320:00000013
#019360:0000000000000053
#020320:23
#019371:00000013
#0193b1:0000000000000053
#020371:23
#020321:00000000000000001300002300000000
#020361:0000000000000000000000000000000000000053000000000000000000000000
#020370:00000000000000000000001300002300
#0203b0:0000000000000000000000000000000000000000000000000053000000000000
#021320:1323
#021330:00330000000000330000000000000000
#021340:0033003300000000
#021350:00000033003300000000000000000000
#021370:00330000
#022360:13
#022320:00230000
#0223b1:13
#022371:00230000
#0223b1:00000000000000001300002300000000
#022371:0000000000000000000000000000000000000053000000000000000000000000
#022360:00000000000000000000001300002300
#022320:0000000000000000000000000000000000000000000000000053000000000000
#0233b0:1323
#0233a0:00330000000000330000000000000000
#023390:0033003300000000
#023380:00000033003300000000000000000000
#023360:00330000
#0233b0:00000013
#023370:0000000000000053
#0243b0:23
#023361:00000013
#023321:0000000000000053
#024361:23
#024321:00000000000000001300002300000000
#024361:0000000000000000000000000000000000000053000000000000000000000000
#024370:00000000000000000000001300002300
#0243b0:0000000000000000000000000000000000000000000000000053000000000000
#025320:1323
#025330:00330000000000330000000000000000
#025340:0033003300000000
#025350:00000033003300000000000000000000
#025370:00330000
#026360:1300002300000000
#026320:00000053000000000000000000000000
#026370:0000000013000023
#0263b0:00000000000000000000005300000000
#027360:1300002300000000
#027320:00000053000000000000000000000000
#028370:0000001300000000
#028320:0023
#028320:0000000000000013
#029370:23
#0293b1:13
#029361:00230000
#029361:0000001300000000
#0293b1:0023
#0293b1:0000000000000013
#030361:23
#030320:13
#030370:00230000
#030320:0000001300330033
#030370:00003333
#031370:33
#031320:00230000
#0313b1:13
#031361:00230000
#0313b1:0000001300330033
#031361:00003333
#032361:33
#0323b1:00230000
#032320:13
#032370:00230000
#033360:13230000
#033320:0053000000000000
#034370:13230000
#0343b0:0053000000000000
#034370:0000001300000000
#0343b0:0023
#034361:0013
#034321:0000000000230000
#034370:0000000000130000
#0343b0:00000023
#034361:00000013
#034321:0000000000000023
#035321:13000023000000000000000000000000
#035361:0000005300000000000000000000000000000000000000000000000000000000
#0353b1:00000000130000230000000000000000
#035371:0000000000000000000000530000000000000000000000000000000000000000
#035321:00001323
#035351:0000000000530000
#035380:0000000000130000
#0353b0:00000023
#0363a0:14240000
#036350:0054000000000000
#036321:00142400
#036371:0000005400000000
#0363b1:00000000000000000000001300000000
#036361:0000000000000023
#038321:14240000
#038371:0054000000000000
#0383a0:00142400
#038350:0000005400000000
#038320:00000000000000000000001300000000
#038370:0000000000000023
#039320:13230000
#039360:0053000000000000
#039371:13230000
#0393b1:0053000000000000
#0393b1:00001323
#039371:0000000000530000
#039360:00001323
#039320:0000000000530000
#0403a0:14240000
#040350:0054000000000000
#040321:00142400
#040371:0000005400000000
#040321:00000000000000000000001300000000
#040371:0000000000000023
#0423b1:1333
#042321:00330023
#042320:1333
#0423b0:00330023
#0443a0:14542400
#044350:0054005400000000
#044360:00000000000000000000001300000000
#0443b0:0000000000000023
#044361:00000000000000000000000000001323
#045341:13230000000000000000000000000000
#045321:00001323000000000000000000000000
#045341:00000000132300000000000000000000
#045371:00000000000013230000000000000000
#046321:14542400
#046371:0054005400000000
#046371:00000000000000000000001300000000
#046321:0000000000000023
#0473b1:13230000
#047371:0053000000000000
#047360:13230000
#047320:0053000000000000
#047320:00001323
#047360:0000000000530000
#047371:00001323
#0473b1:0000000000530000
#0483a1:14542400
#048351:0054005400000000
#048371:00000000000000000000001300000000
#048321:0000000000000023
#048370:00000000000000000000000000001323
#049390:13230000000000000000000000000000
#0493b0:00001323000000000000000000000000
#049390:00000000132300000000000000000000
#049360:00000000000013230000000000000000
#050340:1353535323000000
#050360:00530000005300000000000000000000
#050320:00000053000000530000000000000000
#050391:1353535323000000
#0503b1:00530000005300000000000000000000
#050371:00000053000000530000000000000000
#051341:1252220000000000
#051321:00520000000000000000000000000000
#051361:00000052000000000000000000000000
#0513a0:1252220000000000
#051380:00520000000000000000000000000000
#0513c0:00000052000000000000000000000000
#051320:0012
#051360:00000022
#0513c1:0012
#051381:00000022
#052321:0013
#052371:00000000000000000000002300000000
#0523b0:00000000000000000000001300000000
#052360:0000000000000023
#053360:13
#0533b0:0023000000000000
#053320:00001323
#053360:0000000000330000
#0533b1:0000000000130000
#053371:00000023
#0543b1:0013
#054361:00000000000000000000002300000000
#054320:00000000000000000000001300000000
#054370:0000000000000023
#055370:13
#055320:0023000000000000
#0553b0:00001323
#055370:0000000000330000
#055321:0000000000130000
#055361:00000023
#0563b1:13230000000000000000000000000000
#0563b1:00001323000000000000000000000000
#0563b1:00000000132300000000000000000000
#0563b1:00000000000013230000000000000000
#056321:00000000000000001323000000000000
#056321:00000000000000000000132300000000
#056321:00000000000000000000000013230000
#056321:00000000000000000000000000001323
#0573b1:13230000000000000000000000000000
#0573b1:00001323000000000000000000000000
#057371:00000000132300000000000000000000
#057371:00000000000013230000000000000000
#057321:00000000000000001323000000000000
#057321:00000000000000000000132300000000
#057361:00000000000000000000000013230000
#057361:00000000000000000000000000001323
#058361:0013
#058371:000000000000000000000000003300000000000000000000
#058381:000000000000000000000000000033333300000000000000
#058391:000000000000000000000000000000000033333333000000
#0583a1:000000000000000000000000000000000000000000333333
#0593b1:23
#059370:13
#059320:00000023000000000000000000000000
#059360:00130000
#0593b0:00000000000000230000000000000000
#059370:0013
#059320:00000000000000000000002300000000
#060320:13
#0613a0:54
#062320:54
#0633a0:54
#064320:23
#0603b1:13
#061321:54
#0623a1:54
#063321:54
#0643b1:23
